<?xml version="1.0" standalone="no"?>
<!DOCTYPE svg PUBLIC "-//W3C//DTD SVG 1.1//EN" "http://www.w3.org/Graphics/SVG/1.1/DTD/svg11.dtd" >
<svg xmlns="http://www.w3.org/2000/svg" width="100%" height="100%">
<metadata>
Created by FontXChange 20110222 at Fri Dec  5 12:07:21 2014
 By Timothy Brister
Copyright (c) 2009 by Hannes von Dhren. All rights reserved.
</metadata>
<defs>
<font id="BrandonGrotesque-ThinItalic" horiz-adv-x="456" >
  <font-face 
    font-family="BrandonGrotesque"
    font-weight="300"
    font-style="italic"
    font-stretch="normal"
    units-per-em="1000"
    panose-1="2 11 4 3 2 2 3 13 2 2"
    ascent="700"
    descent="-300"
    x-height="400"
    cap-height="700"
    bbox="-208.314 -318.598 931 1044.82"
    underline-thickness="50"
    underline-position="-50"
    slope="-8"
    stemh="18"
    stemv="18"
    unicode-range="U+0020-FB02"
  />
<missing-glyph horiz-adv-x="599" 
d="M50 30v640c0 21 9 30 30 30h439c21 0 30 -9 30 -30v-640c0 -21 -9 -30 -30 -30h-439c-21 0 -30 9 -30 30zM262 314c0 -7 7 -12 14 -12h36c9 0 15 4 15 13v26c0 48 105 63 105 150c0 65 -54 111 -125 111c-87 0 -130 -61 -130 -61c-4 -6 -6 -13 0 -18l22 -22
c6 -4 11 -4 17 0c13 12 36 41 84 41c40 0 61 -25 61 -52c0 -63 -99 -72 -99 -147v-29zM245 156c0 -26 22 -48 48 -48c27 0 49 22 49 48s-22 48 -49 48c-26 0 -48 -22 -48 -48z" />
    <glyph glyph-name="fi" unicode="fi" horiz-adv-x="470" 
d="M18 -293l95 675h-63c-4 0 -7 3 -6 7l1 5c1 4 4 6 7 6h63l18 126c18 124 97 184 174 184c70 0 108 -41 120 -59c2 -3 1 -6 -1 -8l-5 -4c-3 -2 -5 -2 -8 1c-10 13 -43 53 -106 53c-68 0 -142 -59 -157 -167l-18 -126h269c4 0 6 -3 6 -7l-55 -386c-1 -4 -4 -7 -7 -7h-5
c-3 0 -6 3 -5 7l52 375h-257l-95 -675c-1 -4 -4 -7 -8 -7h-3c-4 0 -7 3 -6 7z" />
    <glyph glyph-name="fl" unicode="fl" horiz-adv-x="476" 
d="M18 -293l94 675h-62c-4 0 -7 3 -6 7l1 5c1 4 3 6 7 6h63l19 136c18 126 96 174 173 174c65 0 106 -35 125 -56l5 39c1 4 4 7 8 7h4c4 0 7 -3 6 -7l-97 -686c-1 -4 -4 -7 -7 -7h-5c-3 0 -6 3 -5 7l87 623c-15 18 -53 62 -121 62c-70 0 -141 -48 -156 -156l-19 -136h169
c4 0 7 -3 6 -7l-1 -4c-1 -4 -3 -7 -7 -7h-170l-94 -675c-1 -4 -4 -7 -8 -7h-4c-4 0 -6 3 -5 7z" />
    <glyph glyph-name="f_f" unicode="ff" horiz-adv-x="521" 
d="M15 -293l95 675h-54c-4 0 -7 3 -6 7l1 5c1 4 4 6 8 6h54l16 114c18 130 90 186 172 186c59 0 96 -35 111 -52c29 41 70 62 118 62c50 0 82 -25 97 -43c2 -3 1 -7 -2 -10l-2 -2c-3 -3 -7 -3 -10 0c-14 15 -40 38 -83 38c-71 0 -126 -51 -141 -159l-19 -134h161
c4 0 7 -3 6 -7l-1 -4c-1 -4 -4 -7 -8 -7h-161l-94 -675c-1 -4 -4 -7 -8 -7h-4c-4 0 -7 3 -6 7l95 675h-222l-95 -675c-1 -4 -4 -7 -8 -7h-4c-4 0 -7 3 -6 7zM130 400h223l19 134c6 39 14 71 29 97c-13 19 -53 51 -100 51c-75 0 -138 -50 -155 -168z" />
    <glyph glyph-name="f_f_i" unicode="ffi" horiz-adv-x="708" 
d="M15 -293l95 675h-54c-4 0 -7 3 -6 7l1 5c1 4 3 6 7 6h55l16 114c18 130 93 186 172 186c62 0 101 -39 115 -56c35 44 82 66 129 66c70 0 108 -41 120 -59c2 -3 1 -6 -1 -8l-5 -4c-3 -2 -5 -2 -8 1c-10 13 -43 53 -106 53c-71 0 -143 -56 -158 -167l-18 -126h269
c4 0 7 -3 6 -7l-54 -386c-1 -4 -4 -7 -8 -7h-4c-4 0 -7 3 -6 7l53 375h-258l-95 -675c-1 -4 -4 -7 -8 -7h-3c-4 0 -7 3 -6 7l95 675h-223l-94 -675c-1 -4 -4 -7 -8 -7h-4c-4 0 -7 3 -6 7zM130 400h223l17 126c5 40 18 74 35 102c-13 19 -52 54 -104 54
c-72 0 -139 -50 -155 -168z" />
    <glyph glyph-name="f_f_l" unicode="ffl" horiz-adv-x="713" 
d="M15 -293l95 675h-54c-4 0 -7 3 -6 7l1 5c1 4 4 6 7 6h55l16 114c19 130 90 186 175 186c56 0 93 -36 109 -54c34 44 82 64 131 64c65 0 106 -35 125 -56l5 39c1 4 4 7 8 7h4c4 0 7 -3 6 -7l-97 -686c-1 -4 -4 -7 -7 -7h-5c-3 0 -6 3 -5 7l87 623c-15 18 -53 62 -121 62
c-70 0 -141 -48 -156 -156l-19 -136h162c3 0 6 -2 5 -6l-2 -7c-1 -3 -2 -5 -6 -5h-162l-94 -675c-1 -4 -5 -7 -9 -7h-3c-3 0 -6 3 -5 7l94 675h-222l-94 -675c-1 -4 -5 -7 -8 -7h-4c-4 0 -7 3 -6 7zM130 400h222l19 136c5 37 15 68 30 93c-15 22 -53 53 -97 53
c-78 0 -141 -50 -158 -168z" />
    <glyph glyph-name="f_f_h" unicode="ffh" horiz-adv-x="997" 
d="M15 -293l95 675h-54c-4 0 -7 3 -6 7l1 5c1 4 4 6 7 6h54l16 114c19 130 91 186 176 186c56 0 93 -36 109 -54c34 44 82 64 131 64c64 0 105 -35 124 -56l6 39c1 4 4 7 8 7h4c4 0 7 -3 6 -7l-51 -358c26 27 80 75 151 75c96 0 140 -65 122 -186l-30 -217
c-1 -4 -4 -7 -8 -7h-4c-4 0 -7 3 -6 7l31 217c15 109 -23 168 -105 168c-83 0 -146 -74 -155 -85l-42 -300c-1 -4 -4 -7 -8 -7h-4c-4 0 -7 3 -6 7l88 623c-15 18 -53 62 -121 62c-70 0 -141 -48 -156 -156l-19 -136h162c3 0 6 -2 5 -6l-2 -7c-1 -3 -2 -5 -6 -5h-162
l-94 -675c-1 -4 -5 -7 -9 -7h-3c-3 0 -6 3 -5 7l94 675h-222l-94 -675c-1 -4 -5 -7 -8 -7h-4c-4 0 -7 3 -6 7zM130 400h222l19 136c5 37 15 68 30 93c-15 22 -53 53 -97 53c-78 0 -141 -50 -158 -168z" />
    <glyph glyph-name="f_k" unicode="fk" horiz-adv-x="680" 
d="M18 -293l94 675h-62c-4 0 -7 3 -6 7l1 5c1 4 3 6 7 6h63l19 136c18 126 96 174 173 174c64 0 105 -35 124 -56l6 39c1 4 4 7 8 7h4c4 0 7 -3 6 -7l-66 -462l257 174c3 2 6 2 8 -1l4 -7c2 -3 0 -6 -3 -8l-249 -168l209 -210c3 -3 2 -8 0 -10l-5 -4c-3 -2 -7 -2 -10 1
l-213 216l-29 -207c-1 -4 -4 -7 -8 -7h-4c-4 0 -7 3 -6 7l88 623c-15 18 -53 62 -121 62c-70 0 -141 -48 -156 -156l-19 -136h169c4 0 7 -3 6 -7l-1 -4c-1 -4 -3 -7 -7 -7h-170l-94 -675c-1 -4 -4 -7 -8 -7h-4c-4 0 -6 3 -5 7z" />
    <glyph glyph-name="f_j" unicode="fj" horiz-adv-x="490" 
d="M18 -293l95 675h-63c-4 0 -7 3 -6 7l1 5c1 4 4 6 7 6h63l18 126c18 124 97 184 174 184c70 0 108 -41 120 -59c2 -3 1 -6 -1 -8l-5 -4c-3 -2 -5 -2 -8 1c-10 13 -43 53 -106 53c-68 0 -142 -59 -157 -167l-18 -126h289c4 0 6 -3 6 -7l-75 -527
c-16 -120 -59 -176 -144 -176c-28 0 -53 7 -70 18c-3 2 -6 6 -3 11l3 4c3 4 7 3 10 1c16 -9 38 -16 60 -16c76 0 112 50 127 158l72 516h-277l-95 -675c-1 -4 -4 -7 -8 -7h-3c-4 0 -7 3 -6 7z" />
    <glyph glyph-name="f_f_j" unicode="ffj" horiz-adv-x="717" 
d="M15 -293l95 675h-54c-4 0 -7 3 -6 7l1 5c1 4 3 6 7 6h54l16 114c18 130 94 186 173 186c62 0 101 -39 115 -56c35 44 82 66 129 66c70 0 108 -41 120 -59c2 -3 1 -6 -1 -8l-5 -4c-3 -2 -5 -2 -8 1c-10 13 -43 53 -106 53c-71 0 -143 -56 -158 -167l-18 -126h279
c4 0 6 -3 6 -7l-75 -527c-16 -120 -59 -176 -144 -176c-28 0 -53 7 -70 18c-3 2 -6 6 -3 11l3 4c3 4 7 3 10 1c16 -9 38 -16 60 -16c76 0 112 50 127 158l72 516h-267l-95 -675c-1 -4 -4 -7 -8 -7h-3c-4 0 -7 3 -6 7l95 675h-223l-94 -675c-1 -4 -4 -7 -8 -7h-4
c-4 0 -7 3 -6 7zM130 400h223l17 126c5 40 18 74 35 102c-13 19 -52 54 -104 54c-72 0 -139 -50 -155 -168z" />
    <glyph glyph-name="f_b" unicode="fb" horiz-adv-x="756" 
d="M18 -293l94 675h-62c-4 0 -7 3 -6 7l1 5c1 4 3 6 7 6h63l19 136c18 126 96 174 173 174c64 0 105 -35 124 -56l6 39c1 4 4 7 7 7h5c4 0 7 -3 6 -7l-48 -336s56 53 133 53c94 0 154 -78 154 -179c0 -135 -96 -241 -201 -241c-71 0 -111 38 -128 65l-7 -48
c-1 -4 -4 -7 -8 -7h-5c-3 0 -6 3 -5 7l88 623c-15 18 -53 62 -121 62c-70 0 -141 -48 -156 -156l-19 -136h169c4 0 7 -3 6 -7l-1 -4c-1 -4 -3 -7 -7 -7h-170l-94 -675c-1 -4 -4 -7 -8 -7h-4c-4 0 -6 3 -5 7zM369 83c2 -7 37 -75 124 -75c97 0 183 99 183 223
c0 92 -54 161 -136 161c-83 0 -136 -61 -136 -61z" />
    <glyph glyph-name="f_f_k" unicode="ffk" horiz-adv-x="917" 
d="M15 -293l95 675h-54c-4 0 -7 3 -6 7l1 5c1 4 4 6 7 6h54l16 114c19 130 91 186 176 186c56 0 93 -36 109 -54c34 44 82 64 131 64c64 0 105 -35 124 -56l6 39c1 4 4 7 8 7h4c4 0 7 -3 6 -7l-66 -462l257 174c3 2 6 2 8 -1l4 -7c2 -3 0 -6 -3 -8l-249 -168l209 -210
c3 -3 2 -8 0 -10l-5 -4c-3 -2 -7 -2 -10 1l-213 216l-29 -207c-1 -4 -4 -7 -8 -7h-4c-4 0 -7 3 -6 7l88 623c-15 18 -53 62 -121 62c-70 0 -141 -48 -156 -156l-19 -136h162c3 0 6 -2 5 -6l-2 -7c-1 -3 -2 -5 -6 -5h-162l-94 -675c-1 -4 -5 -7 -9 -7h-3c-3 0 -6 3 -5 7
l94 675h-222l-94 -675c-1 -4 -5 -7 -8 -7h-4c-4 0 -7 3 -6 7zM130 400h222l19 136c5 37 15 68 30 93c-15 22 -53 53 -97 53c-78 0 -141 -50 -158 -168z" />
    <glyph glyph-name="f_h" unicode="fh" horiz-adv-x="760" 
d="M18 -293l94 675h-62c-4 0 -7 3 -6 7l1 5c1 4 3 6 7 6h63l19 136c18 126 96 174 173 174c64 0 105 -35 124 -56l6 39c1 4 4 7 8 7h4c4 0 7 -3 6 -7l-51 -358c26 27 80 75 151 75c96 0 140 -65 122 -186l-30 -217c-1 -4 -4 -7 -8 -7h-4c-4 0 -7 3 -6 7l31 217
c15 109 -23 168 -105 168c-83 0 -146 -74 -155 -85l-42 -300c-1 -4 -4 -7 -8 -7h-4c-4 0 -7 3 -6 7l88 623c-15 18 -53 62 -121 62c-70 0 -141 -48 -156 -156l-19 -136h169c4 0 7 -3 6 -7l-1 -4c-1 -4 -3 -7 -7 -7h-170l-94 -675c-1 -4 -4 -7 -8 -7h-4c-4 0 -6 3 -5 7z" />
    <glyph glyph-name="f_f_b" unicode="ffb" horiz-adv-x="993" 
d="M15 -293l95 675h-54c-4 0 -7 3 -6 7l1 5c1 4 4 6 7 6h54l16 114c19 130 91 186 176 186c56 0 93 -36 109 -54c34 44 82 64 131 64c64 0 105 -35 124 -56l6 39c1 4 4 7 7 7h5c4 0 7 -3 6 -7l-48 -336s56 53 133 53c94 0 154 -78 154 -179c0 -135 -96 -241 -201 -241
c-71 0 -111 38 -128 65l-7 -48c-1 -4 -4 -7 -8 -7h-5c-3 0 -6 3 -5 7l88 623c-15 18 -53 62 -121 62c-70 0 -141 -48 -156 -156l-19 -136h162c3 0 6 -2 5 -6l-2 -7c-1 -3 -2 -5 -6 -5h-162l-94 -675c-1 -4 -5 -7 -9 -7h-3c-3 0 -6 3 -5 7l94 675h-222l-94 -675
c-1 -4 -5 -7 -8 -7h-4c-4 0 -7 3 -6 7zM130 400h222l19 136c5 37 15 68 30 93c-15 22 -53 53 -97 53c-78 0 -141 -50 -158 -168zM606 83c2 -7 37 -75 124 -75c97 0 183 99 183 223c0 92 -54 161 -136 161c-83 0 -136 -61 -136 -61z" />
    <glyph glyph-name=".notdef" horiz-adv-x="599" 
d="M50 30v640c0 21 9 30 30 30h439c21 0 30 -9 30 -30v-640c0 -21 -9 -30 -30 -30h-439c-21 0 -30 9 -30 30zM262 314c0 -7 7 -12 14 -12h36c9 0 15 4 15 13v26c0 48 105 63 105 150c0 65 -54 111 -125 111c-87 0 -130 -61 -130 -61c-4 -6 -6 -13 0 -18l22 -22
c6 -4 11 -4 17 0c13 12 36 41 84 41c40 0 61 -25 61 -52c0 -63 -99 -72 -99 -147v-29zM245 156c0 -26 22 -48 48 -48c27 0 49 22 49 48s-22 48 -49 48c-26 0 -48 -22 -48 -48z" />
    <glyph glyph-name=".null" horiz-adv-x="0" 
 />
    <glyph glyph-name="CR" horiz-adv-x="0" 
 />
    <glyph glyph-name="space" unicode=" " horiz-adv-x="216" 
 />
    <glyph glyph-name="exclam" unicode="!" horiz-adv-x="299" 
d="M149 267c-4 0 -6 3 -6 7l59 419c0 5 4 7 9 7h3c4 0 6 -3 6 -7l-60 -419c0 -4 -4 -7 -7 -7h-4zM92 11c0 15 13 26 27 26c11 0 19 -9 19 -20c0 -14 -12 -27 -26 -27c-11 0 -20 10 -20 21z" />
    <glyph glyph-name="quotedbl" unicode="&#x22;" horiz-adv-x="274" 
d="M231 491c-4 0 -6 3 -6 7l28 195c0 4 3 7 7 7h4c4 0 6 -3 6 -7l-29 -195c0 -4 -4 -7 -7 -7h-3zM97 491c-3 0 -6 3 -5 7l27 195c1 4 4 7 8 7h4c3 0 6 -3 5 -7l-28 -195c-1 -4 -4 -7 -8 -7h-3z" />
    <glyph glyph-name="numbersign" unicode="#" horiz-adv-x="522" 
d="M74 8l66 209h-87c-3 0 -6 3 -5 7l1 3c1 4 3 7 6 7h89l61 194h-97c-4 0 -7 3 -6 7l1 4c1 4 4 7 7 7h101l78 248c1 3 4 6 7 6h3c5 0 7 -3 6 -8l-78 -246h157l78 248c1 3 3 6 6 6h4c5 0 7 -3 5 -8l-77 -246h85c3 0 6 -3 5 -7l-1 -4c-1 -4 -4 -7 -6 -7h-88l-60 -194h95
c4 0 7 -3 6 -7l-1 -3c-1 -4 -4 -7 -7 -7h-99l-66 -211c-1 -3 -4 -6 -7 -6h-4c-5 0 -7 3 -5 8l66 209h-157l-66 -211c-1 -3 -4 -6 -7 -6h-4c-4 0 -7 3 -5 8zM162 234h156l60 194h-156z" />
    <glyph glyph-name="dollar" unicode="$" horiz-adv-x="505" 
d="M37 73c-2 2 -2 6 1 9l5 4c3 2 6 3 9 -1c13 -14 64 -75 161 -77l48 339c-96 30 -167 66 -167 162c0 92 65 198 218 200l6 43c0 4 4 7 7 7h4c4 0 6 -3 6 -7l-7 -44c83 -4 137 -50 137 -50c4 -3 2 -8 0 -12c-3 -6 -8 -7 -12 -4c-3 2 -53 44 -127 48
c-16 -110 -31 -220 -46 -330c100 -33 163 -77 163 -172c0 -115 -107 -195 -216 -198l-15 -113c-1 -3 -4 -6 -8 -6c-5 0 -10 1 -9 6l16 113c-103 3 -164 71 -174 83zM263 365l46 326c-140 -2 -197 -97 -197 -179c0 -84 61 -119 151 -147zM230 8c98 4 195 80 195 180
c0 85 -60 124 -148 154z" />
    <glyph glyph-name="percent" unicode="%" horiz-adv-x="647" 
d="M199 427c-63 0 -108 55 -108 123c0 91 71 160 148 160c63 0 108 -55 108 -122c0 -92 -71 -161 -148 -161zM79 4c-2 2 -2 5 0 8l470 686c2 3 5 3 7 1l6 -3c2 -1 5 -3 1 -8l-470 -686c-2 -3 -4 -5 -7 -3zM202 445c66 0 128 63 128 140c0 59 -39 107 -94 107
c-67 0 -127 -63 -127 -140c0 -59 37 -107 93 -107zM308 112c0 92 71 161 149 161c62 0 108 -55 108 -123c0 -91 -72 -160 -148 -160c-64 0 -109 55 -109 122zM326 115c0 -59 38 -107 93 -107c67 0 127 63 127 140c0 59 -37 107 -92 107c-67 0 -128 -63 -128 -140z" />
    <glyph glyph-name="ampersand" unicode="&#x26;" horiz-adv-x="634" 
d="M79 147c0 118 76 184 170 232l-21 30c-27 37 -57 96 -49 153c9 62 65 148 169 148c85 0 121 -63 121 -126c0 -92 -89 -161 -192 -209l183 -240c70 77 107 184 107 262c0 5 2 8 6 8h6c4 0 6 -3 6 -8c0 -79 -39 -195 -113 -275l85 -108c3 -3 3 -5 0 -8l-8 -6
c-3 -3 -5 -1 -7 1l-83 107c-63 -72 -149 -118 -236 -118c-92 0 -144 72 -144 157zM265 387c102 49 186 109 186 194c0 56 -31 112 -105 112c-94 0 -142 -76 -150 -131c-7 -50 17 -103 43 -140c9 -12 16 -23 26 -35zM96 149c0 -76 47 -142 129 -142c83 0 163 47 223 115
l-187 245c-90 -47 -165 -107 -165 -218z" />
    <glyph glyph-name="quotesingle" unicode="'" horiz-adv-x="141" 
d="M98 491c-4 0 -6 3 -6 7l28 195c0 4 3 7 7 7h5c4 0 6 -3 5 -7l-28 -195c-1 -4 -4 -7 -7 -7h-4z" />
    <glyph glyph-name="parenleft" unicode="(" horiz-adv-x="328" 
d="M72 209c0 370 154 494 281 501c4 0 7 -3 6 -7v-4c0 -4 -4 -7 -8 -7c-121 -7 -261 -127 -261 -483c0 -194 75 -265 155 -270c4 0 6 -3 6 -7l-1 -4c0 -3 -4 -6 -7 -6c-87 4 -171 80 -171 287z" />
    <glyph glyph-name="parenright" unicode=")" horiz-adv-x="326" 
d="M-13 -61c121 12 261 127 261 483c0 197 -75 265 -155 270c-4 0 -7 3 -6 7l1 5c1 4 4 6 7 6c87 -5 171 -81 171 -287c0 -369 -154 -495 -281 -501c-4 0 -6 3 -6 6v4c0 4 4 7 8 7z" />
    <glyph glyph-name="asterisk" unicode="*" horiz-adv-x="324" 
d="M177 406c-4 0 -6 3 -6 7l18 124l-105 -62c-4 -2 -6 -2 -7 1l-3 7c-1 3 1 6 4 7l104 63l-87 63c-2 1 -3 4 -1 7c2 2 3 4 4 6s4 5 8 2l87 -62l18 124c0 4 4 7 7 7h4c4 0 6 -3 6 -7l-18 -124l105 62c5 3 7 0 8 -2l2 -6c1 -3 -1 -6 -3 -7l-105 -63l87 -63c2 -1 3 -4 2 -7
l-5 -7c-2 -3 -4 -3 -8 -1l-87 62l-18 -124c0 -4 -3 -7 -7 -7h-4z" />
    <glyph glyph-name="plus" unicode="+" horiz-adv-x="468" 
d="M208 153l27 186h-167c-4 0 -7 3 -6 7l1 4c1 4 4 7 7 7h167l26 185c1 4 4 7 8 7h4c4 0 6 -3 6 -7l-26 -185h165c4 0 7 -3 6 -7l-1 -4c-1 -4 -3 -7 -7 -7h-166l-26 -186c-1 -4 -4 -7 -8 -7h-4c-4 0 -6 3 -6 7z" />
    <glyph glyph-name="comma" unicode="," horiz-adv-x="256" 
d="M73 10c0 14 12 25 25 25c17 0 36 -20 36 -68c0 -89 -68 -121 -73 -124c-2 -1 -5 -1 -7 2l-2 4c-2 5 -1 9 3 11c1 0 51 25 59 83c4 30 1 47 -3 57c-5 -5 -11 -10 -19 -10c-12 0 -19 10 -19 20z" />
    <glyph glyph-name="hyphen" unicode="-" horiz-adv-x="572" 
d="M169 243c-3 0 -6 3 -5 7l1 4c1 4 3 7 7 7h218c3 0 5 -3 4 -7l-1 -4c-1 -4 -3 -7 -6 -7h-218z" />
    <glyph glyph-name="period" unicode="." horiz-adv-x="237" 
d="M66 11c0 15 13 26 27 26c11 0 19 -9 19 -20c0 -14 -12 -27 -26 -27c-11 0 -20 10 -20 21z" />
    <glyph glyph-name="slash" unicode="/" horiz-adv-x="313" 
d="M9 0c-3 1 -3 4 -1 7l316 689c1 3 3 4 6 4h6c4 0 5 -5 3 -8l-316 -688c-2 -5 -5 -4 -8 -4h-6z" />
    <glyph glyph-name="zero" unicode="0" horiz-adv-x="616" 
d="M268 -11c-118 0 -181 104 -181 265c0 263 108 439 280 439c117 0 180 -104 180 -264c0 -263 -108 -440 -279 -440zM270 7c162 0 258 169 258 421c0 151 -56 247 -164 247c-162 0 -258 -169 -258 -421c0 -151 56 -247 164 -247z" />
    <glyph glyph-name="one" unicode="1" horiz-adv-x="309" 
d="M142 7l91 646l-164 -120c-3 -2 -6 -2 -7 1l-4 7c-1 2 -1 4 3 7l183 135c5 4 11 0 10 -6l-94 -670c-1 -4 -4 -7 -8 -7h-4c-4 0 -6 3 -6 7z" />
    <glyph glyph-name="two" unicode="2" horiz-adv-x="485" 
d="M7 0c-6 0 -8 8 -3 12l293 267c83 75 140 145 140 240c0 82 -51 156 -158 156c-100 0 -154 -93 -155 -93c-2 -4 -5 -4 -7 -3l-6 4c-3 2 -4 4 -1 9c0 0 62 100 171 100c118 0 174 -80 174 -170c0 -103 -58 -176 -146 -256l-271 -248h336c4 0 6 -3 6 -7l-1 -4
c0 -4 -4 -7 -7 -7h-365z" />
    <glyph glyph-name="three" unicode="3" horiz-adv-x="521" 
d="M33 80c-2 4 -2 7 1 9l5 4c3 2 6 1 8 -2c13 -18 58 -83 155 -83c128 0 217 88 217 196c0 71 -52 141 -139 141h-120c-4 0 -7 4 -6 8l1 4c1 4 4 6 7 6h118c80 0 170 73 170 178c0 77 -52 134 -136 134c-110 0 -169 -76 -175 -83c-2 -3 -5 -4 -8 -2l-5 4c-3 2 -3 5 -1 8
c9 11 74 90 192 90c93 0 151 -64 151 -149c0 -93 -65 -165 -135 -188v-1c64 -19 104 -84 104 -149c0 -117 -96 -215 -235 -215c-99 0 -159 68 -169 90z" />
    <glyph glyph-name="four" unicode="4" horiz-adv-x="542" 
d="M10 159c-7 0 -8 6 -4 11l463 524c4 4 10 3 9 -3l-72 -515h64c4 0 7 -2 6 -6l-1 -5c-1 -4 -3 -6 -9 -6h-62l-22 -152c0 -3 -3 -7 -7 -7h-5c-3 0 -6 3 -5 7l22 152h-377zM34 176h355l68 480z" />
    <glyph glyph-name="five" unicode="5" horiz-adv-x="519" 
d="M48 76c-2 4 -3 7 1 9l6 4c4 3 6 2 8 -2c17 -28 58 -79 149 -79c129 0 231 110 231 251c0 96 -55 151 -168 151h-165c-4 0 -6 3 -6 7l36 258c1 4 4 7 8 7h294c4 0 6 -3 5 -7l-1 -3c-1 -4 -4 -7 -8 -7h-281l-34 -238h152c123 2 186 -61 186 -168
c0 -150 -112 -269 -249 -269c-100 0 -146 54 -164 86z" />
    <glyph glyph-name="six" unicode="6" horiz-adv-x="527" 
d="M61 221c0 316 279 456 359 484c3 1 7 0 7 -3l1 -7c1 -4 -1 -7 -5 -8c-68 -24 -287 -134 -334 -362c34 43 112 118 217 118c94 0 169 -75 169 -188c0 -147 -117 -265 -238 -265c-116 0 -176 103 -176 231zM79 223c0 -120 54 -215 158 -215c114 0 220 109 220 247
c0 102 -68 170 -153 170c-132 0 -214 -126 -220 -135c-1 -5 -5 -34 -5 -67z" />
    <glyph glyph-name="seven" unicode="7" horiz-adv-x="426" 
d="M89 9l351 656h-368c-4 0 -6 2 -5 6l1 5c1 4 2 6 5 6h386c4 0 6 -5 4 -9l-360 -672c-2 -4 -4 -5 -8 -3l-5 2c-3 1 -4 4 -1 9z" />
    <glyph glyph-name="eight" unicode="8" horiz-adv-x="546" 
d="M55 147c0 112 74 180 185 201c-74 17 -121 71 -121 142c0 92 64 198 208 198c117 0 165 -79 165 -156c0 -96 -73 -164 -169 -185c86 -17 138 -80 138 -153c0 -143 -104 -204 -230 -204c-101 0 -176 51 -176 157zM284 357c105 7 190 69 190 175c0 70 -42 141 -148 141
c-132 0 -190 -98 -190 -182c0 -78 62 -129 148 -134zM73 148c0 -97 68 -142 161 -142c113 0 210 60 210 187c0 76 -62 136 -163 144c-124 -10 -208 -76 -208 -189z" />
    <glyph glyph-name="nine" unicode="9" horiz-adv-x="527" 
d="M117 -9c-1 4 1 7 5 8c68 24 287 134 334 362c-34 -43 -112 -118 -217 -118c-94 0 -169 75 -169 188c0 147 117 265 238 265c116 0 176 -103 176 -231c0 -316 -279 -456 -359 -484c-3 -1 -7 0 -7 3zM241 261c132 0 214 126 220 135c1 5 5 34 5 67c0 120 -54 215 -158 215
c-114 0 -220 -109 -220 -247c0 -102 68 -170 153 -170z" />
    <glyph glyph-name="colon" unicode=":" horiz-adv-x="289" 
d="M157 363c-11 0 -19 10 -19 20c0 16 13 27 26 27c12 0 19 -9 19 -20c0 -15 -11 -27 -26 -27zM85 11c0 15 13 26 27 26c11 0 19 -9 19 -20c0 -14 -12 -27 -26 -27c-11 0 -20 10 -20 21z" />
    <glyph glyph-name="semicolon" unicode=";" horiz-adv-x="297" 
d="M157 363c-10 0 -18 10 -18 20c0 16 12 27 25 27c12 0 19 -9 19 -20c0 -15 -11 -27 -26 -27zM87 10c0 14 12 25 25 25c17 0 36 -20 36 -68c0 -89 -68 -121 -73 -124c-2 -1 -5 -1 -7 2l-2 4c-2 5 -1 9 3 11c1 0 51 25 59 83c4 30 1 47 -3 57c-5 -5 -11 -10 -19 -10
c-12 0 -19 10 -19 20z" />
    <glyph glyph-name="less" unicode="&#x3c;" horiz-adv-x="401" 
d="M26 225c-5 4 -4 10 1 13l360 235c3 2 5 1 7 -2l3 -8c2 -3 2 -6 -2 -8l-346 -226l283 -215c3 -2 4 -6 1 -9l-4 -5c-3 -3 -5 -4 -8 -2z" />
    <glyph glyph-name="equal" unicode="=" horiz-adv-x="633" 
d="M180 382c-4 0 -7 3 -6 7l1 4c1 4 4 7 8 7h297c4 0 7 -3 6 -7l-1 -4c-1 -4 -4 -7 -8 -7h-297zM151 176c-4 0 -7 3 -6 7l1 4c1 4 4 7 8 7h297c4 0 7 -3 6 -7l-1 -4c-1 -4 -4 -7 -8 -7h-297z" />
    <glyph glyph-name="greater" unicode="&#x3e;" horiz-adv-x="401" 
d="M3 -1c-4 -2 -7 -2 -9 1l-2 4c-2 3 -1 7 2 9l345 222l-281 223c-3 3 -3 6 -1 9l3 4c3 4 6 4 9 2l295 -235c4 -3 3 -9 -2 -12z" />
    <glyph glyph-name="question" unicode="?" horiz-adv-x="475" 
d="M215 257c-3 0 -6 3 -5 7l9 60c6 48 43 68 82 91c29 17 118 73 118 166c0 59 -48 112 -124 112c-105 0 -164 -82 -164 -82c-3 -4 -6 -6 -11 -3l-4 3c-3 2 -4 5 -1 9c0 0 64 90 180 90c88 0 141 -56 141 -129c0 -103 -99 -164 -128 -181c-39 -23 -67 -39 -72 -78l-8 -58
c-1 -4 -4 -7 -8 -7h-5zM165 11c0 15 12 26 26 26c11 0 19 -9 19 -20c0 -14 -12 -27 -26 -27c-11 0 -19 10 -19 21z" />
    <glyph glyph-name="at" unicode="@" horiz-adv-x="922" 
d="M43 157c0 313 202 553 487 553c213 0 329 -151 329 -373c0 -188 -101 -348 -234 -347c-51 0 -78 35 -80 80c-23 -33 -69 -80 -149 -80c-91 0 -145 79 -145 179c0 138 96 241 207 241c67 0 106 -33 123 -54l5 37c1 4 3 7 7 7h4c4 0 7 -3 6 -7l-40 -289
c-8 -55 15 -96 62 -96c127 0 217 159 217 329c0 212 -108 355 -312 355c-275 0 -470 -232 -470 -535c0 -168 85 -301 209 -364c4 -2 4 -6 2 -10l-2 -4c-2 -4 -5 -5 -8 -3c-130 65 -218 206 -218 381zM268 170c0 -91 52 -162 128 -162c107 0 149 97 149 97l32 224
c-3 7 -39 64 -119 64c-104 0 -190 -96 -190 -223z" />
    <glyph glyph-name="A" unicode="A" horiz-adv-x="587" 
d="M-8 1c-1 -2 -2 -4 -6 -3l-8 3c-3 1 -3 4 -2 6l377 710c1 3 4 4 6 4h1c2 0 4 -1 5 -4l172 -709c1 -4 -1 -6 -4 -7l-5 -2c-3 -1 -6 0 -7 3l-50 208h-369zM112 227h354l-110 461h-1z" />
    <glyph glyph-name="B" unicode="B" horiz-adv-x="582" 
d="M72 7l97 686c0 4 4 7 7 7h186c102 0 166 -54 166 -152c0 -95 -62 -161 -139 -188c67 -15 112 -63 112 -146c0 -127 -95 -214 -229 -214h-194c-4 0 -6 3 -6 7zM141 367h176c110 0 193 72 193 181c0 87 -58 134 -150 134h-175zM92 18h183c119 0 207 78 207 196
c0 92 -61 135 -151 135h-193z" />
    <glyph glyph-name="C" unicode="C" horiz-adv-x="671" 
d="M70 301c0 226 183 409 379 409c94 0 155 -36 208 -93c2 -2 3 -5 0 -8l-5 -5c-3 -3 -6 -2 -8 0c-50 56 -109 89 -195 89c-188 0 -361 -177 -361 -392c0 -164 113 -293 262 -293c79 0 154 32 223 93c2 2 5 2 7 0l5 -6c2 -2 1 -5 -1 -7c-72 -66 -154 -98 -234 -98
c-166 0 -280 138 -280 311z" />
    <glyph glyph-name="D" unicode="D" horiz-adv-x="680" 
d="M73 7l96 686c1 4 4 7 7 7h181c159 0 272 -136 272 -306c0 -216 -175 -394 -370 -394h-181c-3 0 -5 3 -5 7zM92 18h169c181 0 350 169 350 376c0 159 -107 288 -257 288h-169z" />
    <glyph glyph-name="E" unicode="E" horiz-adv-x="565" 
d="M72 7l97 686c0 4 4 7 7 7h366c4 0 7 -3 6 -7l-1 -4c-1 -4 -3 -7 -7 -7h-355l-43 -309h311c4 0 7 -3 6 -7l-1 -4c-1 -4 -4 -7 -7 -7h-312l-47 -337h354c7 0 8 -3 7 -7l-1 -4c-1 -4 -4 -7 -8 -7h-366c-4 0 -6 3 -6 7z" />
    <glyph glyph-name="F" unicode="F" horiz-adv-x="545" 
d="M72 7l97 686c0 4 4 7 7 7h366c4 0 7 -3 6 -7l-1 -4c-1 -4 -3 -7 -7 -7h-355l-47 -334h312c3 0 6 -2 5 -6l-2 -7c-1 -3 -4 -5 -9 -5h-308c-16 -108 -31 -215 -46 -323c0 -4 -4 -7 -8 -7h-4c-4 0 -6 3 -6 7z" />
    <glyph glyph-name="G" unicode="G" horiz-adv-x="697" 
d="M70 301c0 226 183 409 379 409c94 0 155 -36 208 -93c2 -2 3 -5 0 -8l-5 -5c-3 -3 -6 -2 -8 0c-50 56 -109 89 -195 89c-188 0 -361 -177 -361 -392c0 -164 110 -293 265 -293c120 0 200 52 219 69l34 235h-202c-4 0 -6 3 -5 7l1 4c1 3 3 6 7 6h212c4 0 6 -3 6 -6
l-36 -253c-8 -12 -95 -80 -239 -80c-163 0 -280 138 -280 311z" />
    <glyph glyph-name="H" unicode="H" horiz-adv-x="697" 
d="M72 7l97 686c0 4 4 7 7 7h5c4 0 6 -3 5 -7l-44 -320h440l45 320c1 4 4 7 7 7h5c4 0 7 -3 6 -7l-97 -686c-1 -4 -4 -7 -7 -7h-5c-4 0 -7 3 -6 7l49 348h-440l-49 -348c-1 -4 -4 -7 -8 -7h-4c-4 0 -7 3 -6 7z" />
    <glyph glyph-name="I" unicode="I" horiz-adv-x="239" 
d="M73 7l96 686c1 4 4 7 8 7h4c4 0 7 -3 6 -7l-96 -686c-1 -4 -4 -7 -8 -7h-4c-4 0 -7 3 -6 7z" />
    <glyph glyph-name="J" unicode="J" horiz-adv-x="363" 
d="M80 -10c-80 0 -118 54 -129 77c-1 3 -2 7 2 9l4 2c5 3 7 2 9 -1c12 -22 43 -70 115 -70c98 0 162 75 181 207l68 479c0 4 3 7 7 7h4c4 0 6 -3 5 -7l-67 -479c-20 -141 -91 -224 -199 -224z" />
    <glyph glyph-name="K" unicode="K" horiz-adv-x="518" 
d="M72 7l97 686c1 4 4 7 7 7h5c4 0 7 -3 6 -7l-47 -330l380 336c4 3 7 3 10 0l3 -3c3 -3 3 -7 0 -10l-378 -333l292 -343c3 -4 2 -7 -1 -10l-5 -4c-3 -2 -6 -2 -9 2l-295 347l-47 -338c-1 -4 -4 -7 -8 -7h-4c-4 0 -7 3 -6 7z" />
    <glyph glyph-name="L" unicode="L" horiz-adv-x="443" 
d="M72 7l97 686c1 4 4 7 7 7h5c3 0 6 -3 5 -7l-95 -676h312c4 0 7 -2 6 -6l-1 -4c-1 -4 -3 -7 -7 -7h-323c-4 0 -6 3 -6 7z" />
    <glyph glyph-name="M" unicode="M" horiz-adv-x="790" 
d="M16 8l232 704c2 7 12 7 12 0c100 -676 99 -676 99 -676l288 676c3 7 12 7 13 0l37 -704c0 -5 0 -7 -4 -8l-6 -1c-4 -1 -7 0 -7 5l-35 662l-285 -674c-3 -7 -12 -7 -13 0l-96 674l-218 -662c-2 -5 -4 -6 -7 -6l-7 1c-4 1 -5 4 -3 9z" />
    <glyph glyph-name="N" unicode="N" horiz-adv-x="714" 
d="M72 7l99 703c1 7 10 10 13 4c367 -689 367 -688 367 -688l94 667c1 4 4 7 8 7h4c4 0 7 -3 6 -7l-99 -701c-1 -7 -10 -10 -13 -4l-367 688l-94 -669c-1 -4 -4 -7 -8 -7h-4c-4 0 -7 3 -6 7z" />
    <glyph glyph-name="O" unicode="O" horiz-adv-x="781" 
d="M71 302c0 227 181 408 380 408c163 0 279 -139 279 -313c0 -226 -182 -407 -380 -407c-164 0 -279 140 -279 312zM89 303c0 -164 110 -295 261 -295c188 0 362 173 362 388c0 165 -110 296 -262 296c-188 0 -361 -174 -361 -389z" />
    <glyph glyph-name="P" unicode="P" horiz-adv-x="555" 
d="M72 7l97 686c0 4 4 7 7 7h188c103 0 177 -89 177 -197c0 -141 -117 -258 -240 -258h-177l-34 -238c-1 -4 -4 -7 -8 -7h-4c-4 0 -7 3 -6 7zM126 263h177c113 0 219 108 219 238c0 99 -67 181 -161 181h-176z" />
    <glyph glyph-name="Q" unicode="Q" horiz-adv-x="781" 
d="M71 302c0 227 181 408 380 408c163 0 279 -139 279 -313c0 -180 -116 -332 -263 -386l77 -190c2 -3 1 -6 -2 -8l-10 -5c-3 -1 -5 1 -6 3l-77 194c-32 -10 -66 -15 -99 -15c-164 0 -279 140 -279 312zM89 303c0 -164 110 -295 261 -295c188 0 362 173 362 388
c0 165 -110 296 -262 296c-188 0 -361 -174 -361 -389z" />
    <glyph glyph-name="R" unicode="R" horiz-adv-x="602" 
d="M72 7l97 686c0 4 3 7 7 7h214c102 0 177 -79 177 -186c0 -125 -90 -222 -195 -243l104 -264c1 -3 0 -7 -3 -8l-6 -2c-3 -1 -5 0 -6 3l-104 268c-9 -1 -20 -1 -29 -1h-202l-37 -260c0 -4 -4 -7 -7 -7h-4c-4 0 -6 3 -6 7zM128 284h200c120 0 222 98 222 230
c0 95 -69 168 -160 168h-206z" />
    <glyph glyph-name="S" unicode="S" horiz-adv-x="517" 
d="M44 73c-2 3 -2 6 1 9l6 5c3 3 6 2 8 -1c10 -15 67 -79 168 -79c105 0 206 71 206 175c0 96 -71 133 -169 168c-94 34 -163 67 -163 171c0 84 67 189 219 189c93 0 152 -51 152 -51c2 -2 3 -5 1 -8l-5 -6c-2 -3 -5 -4 -8 -2c0 0 -57 50 -140 50c-142 0 -202 -98 -202 -172
c0 -93 63 -124 154 -156c109 -38 178 -78 178 -183c0 -110 -102 -192 -223 -192c-110 0 -174 69 -183 83z" />
    <glyph glyph-name="T" unicode="T" horiz-adv-x="411" 
d="M155 7l95 675h-186c-4 0 -7 3 -6 7l1 5c1 4 4 6 7 6h392c4 0 7 -3 6 -7l-1 -5c-1 -4 -3 -6 -7 -6h-188l-95 -675c-1 -4 -4 -7 -8 -7h-4c-4 0 -7 3 -6 7z" />
    <glyph glyph-name="U" unicode="U" horiz-adv-x="671" 
d="M99 252l62 441c1 4 4 7 7 7h5c4 0 6 -3 5 -7l-61 -441c-21 -144 47 -244 180 -244c132 0 230 100 250 244l62 441c1 4 4 7 8 7h5c3 0 6 -3 5 -7l-62 -441c-22 -154 -117 -262 -271 -262c-140 0 -217 108 -195 262z" />
    <glyph glyph-name="V" unicode="V" horiz-adv-x="585" 
d="M241 -16l-170 708c-1 3 0 6 3 7l8 2c3 1 5 -1 6 -5l163 -680l362 683c1 2 4 4 7 3l7 -3c3 -1 3 -5 1 -8l-375 -707c-2 -4 -11 -7 -12 0z" />
    <glyph glyph-name="W" unicode="W" horiz-adv-x="814" 
d="M187 -12l-86 706c0 3 1 5 4 6l9 2c3 1 5 -2 5 -5l80 -666l260 677c3 7 12 7 13 0l78 -676l261 667c1 3 4 4 7 3l7 -3c3 -1 4 -4 2 -8l-276 -703c-3 -7 -11 -7 -12 0l-79 678l-261 -678c-3 -7 -11 -7 -12 0z" />
    <glyph glyph-name="X" unicode="X" horiz-adv-x="505" 
d="M3 3c-4 3 -2 6 0 9l249 345l-145 331c-1 3 -2 7 2 9l7 4c4 2 6 0 7 -3l141 -325l235 325c2 3 4 5 8 3l6 -4c4 -2 2 -6 0 -9l-240 -333l155 -344c1 -3 2 -7 -3 -9l-7 -3c-4 -2 -6 0 -7 3l-149 337l-244 -337c-2 -3 -5 -5 -8 -3z" />
    <glyph glyph-name="Y" unicode="Y" horiz-adv-x="497" 
d="M199 7l47 336l-188 345c-2 3 -2 7 2 9l6 3c4 2 6 0 8 -3l182 -337l279 338c2 3 5 5 8 3l7 -4c4 -2 3 -6 0 -9l-286 -344l-47 -338c-1 -4 -3 -6 -7 -6h-6c-4 0 -6 2 -5 7z" />
    <glyph glyph-name="Z" unicode="Z" horiz-adv-x="484" 
d="M-3 0c-6 0 -8 6 -4 11l486 671h-356c-4 0 -6 3 -5 7l1 4c1 4 3 7 7 7h376c6 0 8 -6 5 -11l-487 -671h368c4 0 6 -3 5 -7l-1 -4c-1 -4 -4 -7 -8 -7h-387z" />
    <glyph glyph-name="bracketleft" unicode="[" horiz-adv-x="310" 
d="M25 -282h171c4 0 7 -3 6 -7l-1 -4c-1 -4 -4 -7 -7 -7h-183c-3 0 -6 3 -5 7l138 986c1 4 4 7 8 7h182c4 0 7 -3 6 -7l-1 -4c-1 -4 -4 -7 -7 -7h-172z" />
    <glyph glyph-name="backslash" unicode="\" horiz-adv-x="309" 
d="M209 4l-122 690c-1 3 0 6 4 6h6c3 0 5 -1 6 -4l122 -690c1 -3 0 -6 -3 -6h-6c-3 0 -6 -1 -7 4z" />
    <glyph glyph-name="bracketright" unicode="]" horiz-adv-x="310" 
d="M-43 -282h171l135 964h-171c-4 0 -6 3 -5 7l1 4c1 4 3 7 7 7h182c4 0 6 -3 6 -7l-139 -986c-1 -4 -4 -7 -8 -7h-182c-4 0 -7 3 -6 7l1 4c1 4 4 7 8 7z" />
    <glyph glyph-name="asciicircum" unicode="^" horiz-adv-x="472" 
d="M61 398l-5 4c-3 2 -4 5 -1 8l239 305c4 4 9 4 11 0l149 -305c2 -3 1 -6 -3 -8l-6 -4c-3 -2 -6 -1 -7 2l-140 292l-229 -292c-2 -3 -5 -4 -8 -2z" />
    <glyph glyph-name="underscore" unicode="_" horiz-adv-x="366" 
d="M-5 -10h297c4 0 6 -3 5 -7l-1 -4c-1 -3 -4 -6 -8 -6h-297c-3 0 -6 3 -5 7l1 3c1 4 4 7 8 7z" />
    <glyph glyph-name="grave" unicode="`" horiz-adv-x="272" 
d="M254 560l-151 90c-3 2 -4 5 -1 9l2 3c3 5 6 4 9 3l150 -91c3 -2 4 -4 2 -7l-2 -4c-2 -3 -5 -5 -9 -3z" />
    <glyph glyph-name="a" unicode="a" horiz-adv-x="457" 
d="M41 169c0 135 94 241 207 241c66 0 105 -33 123 -54l6 37c1 4 4 7 7 7h4c3 0 6 -3 5 -7l-54 -386c-1 -4 -4 -7 -7 -7h-5c-3 0 -6 3 -5 7l7 51c-20 -27 -75 -68 -139 -68c-92 0 -149 79 -149 179zM59 170c0 -91 50 -162 131 -162c64 0 120 45 143 82l34 239
c-3 7 -39 63 -119 63c-105 0 -189 -96 -189 -222z" />
    <glyph glyph-name="b" unicode="b" horiz-adv-x="458" 
d="M42 7l97 686c1 4 4 7 7 7h5c4 0 7 -3 6 -7l-48 -336s56 53 133 53c94 0 154 -78 154 -179c0 -135 -96 -241 -201 -241c-71 0 -111 38 -128 65l-7 -48c-1 -4 -4 -7 -8 -7h-5c-3 0 -6 3 -5 7zM71 83c2 -7 37 -75 124 -75c97 0 183 99 183 223c0 92 -54 161 -136 161
c-83 0 -136 -61 -136 -61z" />
    <glyph glyph-name="c" unicode="c" horiz-adv-x="440" 
d="M39 173c0 140 107 237 224 237c83 0 127 -51 130 -55c2 -3 1 -6 -1 -8l-4 -4c-3 -3 -6 -2 -9 1c-6 6 -44 49 -116 49c-107 0 -206 -91 -206 -220c0 -94 66 -165 147 -165c80 0 138 61 141 64s6 3 8 1l5 -5c2 -2 3 -5 0 -8c-2 -2 -67 -70 -154 -70c-91 0 -165 78 -165 183
z" />
    <glyph glyph-name="d" unicode="d" 
d="M40 169c0 137 96 241 213 241c76 0 117 -53 117 -53l47 336c0 4 3 7 7 7h5c3 0 6 -3 5 -7l-96 -686c-1 -6 -4 -7 -7 -7h-5c-3 0 -6 3 -5 7l7 48c-25 -27 -76 -65 -143 -65c-88 0 -145 79 -145 179zM58 169c0 -91 50 -161 127 -161c89 0 142 68 147 75l35 248
s-37 61 -114 61c-109 0 -195 -97 -195 -223z" />
    <glyph glyph-name="e" unicode="e" horiz-adv-x="434" 
d="M40 164c0 137 90 246 210 246c85 0 141 -50 141 -110c0 -74 -86 -118 -222 -117c-34 0 -70 3 -109 9c-1 -9 -2 -18 -2 -27c-1 -90 48 -157 136 -157c56 0 104 25 127 43c5 4 7 1 8 -1l3 -6c1 -2 0 -4 -2 -6c-18 -18 -81 -48 -136 -48c-104 0 -154 79 -154 174zM62 209
c38 -5 74 -8 106 -8c127 -1 206 38 205 99c0 44 -47 92 -123 92c-99 0 -172 -79 -188 -183z" />
    <glyph glyph-name="f" unicode="f" horiz-adv-x="282" 
d="M15 -293l95 675h-54c-4 0 -7 3 -6 7l1 5c1 4 4 6 7 6h54l19 134c17 120 79 176 159 176c50 0 82 -25 97 -43c2 -3 1 -7 -2 -10l-2 -2c-3 -3 -7 -3 -10 0c-14 15 -40 38 -83 38c-73 0 -126 -51 -141 -159l-19 -134h161c4 0 7 -3 6 -7l-1 -4c-1 -4 -4 -7 -7 -7h-162
l-94 -675c-1 -4 -4 -7 -8 -7h-4c-4 0 -7 3 -6 7z" />
    <glyph glyph-name="g" unicode="g" horiz-adv-x="458" 
d="M41 170c0 135 94 240 207 240c66 0 105 -33 123 -54l6 37c1 4 4 7 7 7h4c3 0 6 -3 5 -7l-61 -459c-20 -144 -91 -194 -173 -194c-73 0 -118 54 -129 68c-3 4 -2 6 1 9l5 4c3 2 5 1 7 -1c12 -15 53 -63 117 -63c79 0 138 60 154 179l13 103c-22 -20 -64 -49 -124 -49
c-101 0 -162 79 -162 180zM59 170c0 -90 54 -162 144 -162c74 0 120 49 127 58l37 263c-3 7 -39 63 -119 63c-105 0 -189 -96 -189 -222z" />
    <glyph glyph-name="h" unicode="h" horiz-adv-x="462" 
d="M42 7l97 686c1 4 4 7 8 7h4c4 0 7 -3 6 -7l-51 -358c26 27 80 75 151 75c96 0 140 -65 122 -186l-30 -217c-1 -4 -4 -7 -8 -7h-4c-4 0 -7 3 -6 7l31 217c15 109 -23 168 -105 168c-83 0 -146 -74 -155 -85l-42 -300c-1 -4 -4 -7 -8 -7h-4c-4 0 -7 3 -6 7z" />
    <glyph glyph-name="i" unicode="i" horiz-adv-x="177" 
d="M136 607c-10 0 -17 8 -17 17c0 13 10 24 22 24c10 0 16 -9 16 -18c0 -13 -10 -23 -21 -23zM42 7l54 386c1 4 4 7 8 7h4c4 0 7 -3 6 -7l-55 -386c-1 -4 -3 -7 -7 -7h-5c-4 0 -6 3 -5 7z" />
    <glyph glyph-name="j" unicode="j" horiz-adv-x="178" 
d="M135 607c-10 0 -17 8 -17 17c0 13 11 24 23 24c10 0 16 -9 16 -18c0 -13 -10 -23 -22 -23zM22 -134l75 527c1 4 3 7 7 7h4c4 0 7 -3 6 -7l-74 -527c-17 -120 -66 -176 -151 -176c-49 0 -83 25 -96 43c-2 3 -2 7 2 10l3 2c3 2 6 3 9 0c13 -15 39 -38 82 -38
c73 0 118 51 133 159z" />
    <glyph glyph-name="k" unicode="k" horiz-adv-x="382" 
d="M42 7l97 686c1 4 4 7 8 7h4c4 0 7 -3 6 -7l-66 -462l257 174c3 2 6 2 8 -1l4 -7c2 -3 0 -6 -3 -8l-249 -169l209 -209c3 -3 2 -8 0 -10l-5 -4c-3 -2 -7 -2 -10 1l-213 216l-29 -207c-1 -4 -4 -7 -8 -7h-4c-4 0 -7 3 -6 7z" />
    <glyph glyph-name="l" unicode="l" horiz-adv-x="178" 
d="M42 7l97 686c1 4 4 7 7 7h5c3 0 6 -3 5 -7l-96 -686c-1 -4 -4 -7 -8 -7h-4c-4 0 -7 3 -6 7z" />
    <glyph glyph-name="m" unicode="m" horiz-adv-x="702" 
d="M42 7l54 386c1 4 4 7 8 7h4c4 0 7 -3 6 -7l-8 -55c23 29 71 72 142 72c57 0 94 -33 109 -80c21 27 71 80 146 80c91 0 133 -65 116 -186l-30 -217c-1 -4 -4 -7 -8 -7h-4c-4 0 -7 3 -6 7l31 217c15 109 -20 168 -99 168s-128 -62 -141 -80c4 -25 4 -54 -1 -88l-30 -217
c-1 -4 -4 -7 -8 -7h-4c-4 0 -7 3 -6 7l31 217c15 109 -20 168 -96 168c-84 0 -135 -66 -146 -82l-42 -303c-1 -4 -4 -7 -8 -7h-4c-4 0 -7 3 -6 7z" />
    <glyph glyph-name="n" unicode="n" horiz-adv-x="461" 
d="M41 7l55 386c1 4 4 7 7 7h4c4 0 6 -3 6 -7l-8 -55c26 27 80 72 151 72c94 0 140 -65 122 -186l-30 -217c-1 -4 -4 -7 -8 -7h-4c-4 0 -7 3 -6 7l31 217c15 109 -23 168 -105 168c-83 0 -146 -71 -154 -82l-43 -303c-1 -4 -4 -7 -8 -7h-4c-4 0 -7 3 -6 7z" />
    <glyph glyph-name="o" unicode="o" horiz-adv-x="471" 
d="M40 171c0 132 102 239 215 239c92 0 155 -81 155 -180c0 -133 -101 -240 -214 -240c-93 0 -156 80 -156 181zM58 171c0 -92 57 -163 138 -163c105 0 196 100 196 222c0 91 -57 162 -137 162c-105 0 -197 -100 -197 -221z" />
    <glyph glyph-name="p" unicode="p" 
d="M63 39l-47 -332c-1 -4 -4 -7 -8 -7h-4c-3 0 -6 3 -5 7l97 686c1 4 3 7 6 7h4c4 0 7 -3 6 -7l-5 -37c23 21 71 54 138 54c91 0 149 -77 149 -176c0 -137 -95 -244 -217 -244c-63 0 -98 29 -114 49zM66 66c4 -7 35 -58 111 -58c113 0 199 98 199 226c0 88 -52 158 -131 158
c-84 0 -135 -54 -142 -63z" />
    <glyph glyph-name="q" unicode="q" horiz-adv-x="457" 
d="M41 170c0 135 94 240 207 240c66 0 105 -33 123 -54l6 37c1 4 4 7 7 7h4c3 0 6 -3 5 -7l-96 -686c-1 -4 -4 -7 -7 -7h-4c-4 0 -7 3 -6 7l47 332c-22 -20 -64 -49 -124 -49c-101 0 -162 79 -162 180zM59 170c0 -90 54 -162 144 -162c74 0 120 49 127 58l37 263
c-3 7 -39 63 -119 63c-105 0 -189 -96 -189 -222z" />
    <glyph glyph-name="r" unicode="r" horiz-adv-x="294" 
d="M42 7l54 386c1 4 4 7 7 7h5c3 0 6 -3 5 -7l-7 -53c21 28 67 70 126 70c44 0 60 -15 64 -18c3 -3 3 -6 1 -9l-3 -4c-1 -2 -5 -5 -9 -2c-6 4 -23 16 -53 16c-74 0 -122 -71 -130 -83l-43 -303c-1 -4 -3 -7 -7 -7h-5c-4 0 -6 3 -5 7z" />
    <glyph glyph-name="s" unicode="s" horiz-adv-x="357" 
d="M29 35c-2 2 -3 4 -1 7l6 7c3 3 6 3 9 0c15 -16 46 -41 102 -41c68 0 125 39 125 97c0 49 -48 71 -109 94c-67 25 -103 54 -103 106c0 45 46 105 134 105c52 0 85 -19 101 -32c3 -2 3 -5 1 -8l-3 -5c-2 -3 -5 -5 -9 -2c-15 12 -46 29 -90 29c-78 0 -115 -49 -115 -87
c0 -43 33 -66 92 -89c62 -24 120 -46 120 -111c0 -67 -69 -115 -144 -115c-65 0 -98 28 -116 45z" />
    <glyph glyph-name="t" unicode="t" horiz-adv-x="294" 
d="M62 107l39 275h-39c-3 0 -5 3 -4 7l1 4c1 4 3 7 6 7h38l15 108c1 4 4 7 7 7h4c4 0 7 -3 6 -7l-15 -108h145c4 0 7 -3 6 -7l-1 -4c-1 -4 -4 -7 -7 -7h-146l-38 -275c-8 -56 -12 -99 47 -99c41 0 88 23 101 32c4 3 6 2 8 -1l4 -7c1 -3 0 -5 -3 -7c-13 -9 -66 -35 -110 -35
c-79 0 -73 51 -64 117z" />
    <glyph glyph-name="u" unicode="u" horiz-adv-x="452" 
d="M183 8c83 0 139 73 145 82l43 303c1 4 3 7 7 7h5c3 0 6 -3 5 -7l-54 -386c-1 -4 -4 -7 -8 -7h-4c-3 0 -6 3 -5 7l7 53c-24 -28 -74 -70 -141 -70c-97 0 -140 63 -123 184l31 219c1 4 4 7 7 7h5c4 0 6 -3 5 -7l-30 -219c-16 -109 23 -166 105 -166z" />
    <glyph glyph-name="v" unicode="v" horiz-adv-x="369" 
d="M136 -10l-102 405c-1 4 -1 7 2 8l8 3c4 1 5 -1 6 -4l95 -383l205 384c1 2 3 5 7 3l7 -3c2 -1 2 -4 0 -8l-216 -405c-3 -6 -10 -6 -12 0z" />
    <glyph glyph-name="w" unicode="w" horiz-adv-x="551" 
d="M115 -10l-63 406c-1 4 0 7 4 8l6 2c4 1 6 -1 7 -4l57 -375l161 384c3 8 12 9 14 -1l53 -383l164 376c1 3 3 4 7 3l6 -2c4 -1 4 -4 2 -8l-176 -406c-3 -6 -12 -7 -13 0l-55 385l-161 -385c-3 -6 -12 -7 -13 0z" />
    <glyph glyph-name="x" unicode="x" horiz-adv-x="376" 
d="M2 4c-3 2 -3 4 0 7l166 198l-106 183c-3 5 -1 7 2 9l5 3c4 3 7 -1 8 -3l103 -180l155 184c2 2 5 2 7 1l5 -5c2 -2 3 -4 1 -7l-160 -187l112 -197c2 -3 1 -5 -2 -7l-6 -3c-2 -1 -5 -2 -7 2l-109 193l-161 -195c-2 -2 -5 -2 -7 -1z" />
    <glyph glyph-name="y" unicode="y" horiz-adv-x="390" 
d="M150 9l-120 386c-1 4 0 7 3 8l5 2c4 2 7 -1 8 -4l114 -374l212 376c1 2 3 5 7 3l5 -3c3 -2 3 -4 1 -8l-390 -696c-2 -4 -5 -5 -8 -3l-5 3c-2 1 -4 3 -1 8z" />
    <glyph glyph-name="z" unicode="z" horiz-adv-x="349" 
d="M0 0c-6 0 -8 6 -4 11l299 371h-216c-4 0 -7 3 -6 7l1 4c1 4 3 7 7 7h240c6 0 9 -6 4 -11l-301 -371h233c4 0 7 -3 6 -7l-1 -4c-1 -4 -4 -7 -7 -7h-255z" />
    <glyph glyph-name="braceleft" unicode="{" horiz-adv-x="310" 
d="M51 -65l24 168c9 57 -28 91 -50 91c-5 0 -9 2 -8 7l1 4c1 4 4 7 9 7c19 0 67 29 76 91l23 165c26 185 111 242 207 242c5 0 10 -3 9 -7l-1 -4c-1 -4 -5 -7 -10 -7c-85 0 -160 -53 -184 -224l-23 -165c-7 -50 -38 -88 -69 -100c23 -16 48 -50 41 -100l-24 -168
c-24 -171 35 -227 120 -227c8 0 10 -3 9 -7l-1 -4c-1 -4 -5 -7 -10 -7c-96 0 -165 60 -139 245z" />
    <glyph glyph-name="bar" unicode="|" horiz-adv-x="188" 
d="M5 -293l147 1045c1 4 4 7 8 7h4c3 0 6 -3 5 -7l-147 -1045c-1 -4 -3 -7 -7 -7h-4c-4 0 -7 3 -6 7z" />
    <glyph glyph-name="braceright" unicode="}" horiz-adv-x="310" 
d="M140 -65l24 168c8 58 42 88 69 101c-23 14 -48 49 -41 99l23 165c24 171 -35 224 -120 224c-5 0 -9 3 -8 7l1 4c1 4 4 7 9 7c96 0 165 -57 139 -242l-23 -165c-9 -62 31 -91 50 -91c5 0 10 -3 9 -7l-1 -4c-1 -5 -5 -7 -10 -7c-22 0 -67 -33 -76 -91l-24 -168
c-26 -185 -111 -245 -206 -245c-5 0 -9 3 -8 7l1 4c1 4 4 7 9 7c84 0 159 56 183 227z" />
    <glyph glyph-name="asciitilde" unicode="~" horiz-adv-x="553" 
d="M81 250l-8 4c-2 2 -3 3 0 8c0 0 52 97 132 97c46 0 69 -38 85 -66c15 -26 34 -53 70 -53c68 0 115 88 115 88c3 4 5 4 8 3l6 -3c4 -2 4 -4 2 -8c0 0 -51 -97 -131 -97c-48 0 -69 34 -86 63c-14 24 -33 55 -69 55c-69 0 -116 -88 -116 -88c-2 -4 -5 -5 -8 -3z" />
    <glyph glyph-name="uni00A0" unicode="&#xa0;" horiz-adv-x="281" 
d="M258 560l-176 90c-4 2 -5 5 -4 9l2 4c2 5 5 4 8 3l176 -91c4 -2 4 -5 3 -7l-1 -5c-1 -4 -3 -5 -8 -3z" />
    <glyph glyph-name="Agrave" unicode="&#xc0;" horiz-adv-x="587" 
d="M-8 1c-1 -2 -2 -4 -6 -3l-8 3c-3 1 -3 4 -2 6l377 710c1 3 4 4 6 4h1c2 0 4 -1 5 -4l172 -709c1 -4 -1 -6 -4 -7l-5 -2c-3 -1 -6 0 -7 3l-50 208h-369zM112 227h354l-110 461h-1zM450 779l-151 90c-3 2 -4 5 -1 9l2 3c3 5 6 4 9 3l150 -91c3 -2 4 -4 2 -7l-2 -4
c-2 -3 -5 -5 -9 -3z" />
    <glyph glyph-name="Aacute" unicode="&#xc1;" horiz-adv-x="587" 
d="M-8 1c-1 -2 -2 -4 -6 -3l-8 3c-3 1 -3 4 -2 6l377 710c1 3 4 4 6 4h1c2 0 4 -1 5 -4l172 -709c1 -4 -1 -6 -4 -7l-5 -2c-3 -1 -6 0 -7 3l-50 208h-369zM112 227h354l-110 461h-1zM291 777c-5 -2 -6 -1 -8 3l-3 6c-1 2 0 5 4 7l176 91c3 1 5 2 8 -3l3 -5c2 -4 0 -7 -4 -9z
" />
    <glyph glyph-name="Acircumflex" unicode="&#xc2;" horiz-adv-x="587" 
d="M-8 1c-1 -2 -2 -4 -6 -3l-8 3c-3 1 -3 4 -2 6l377 710c1 3 4 4 6 4h1c2 0 4 -1 5 -4l172 -709c1 -4 -1 -6 -4 -7l-5 -2c-3 -1 -6 0 -7 3l-50 208h-369zM112 227h354l-110 461h-1zM254 763c-5 -3 -6 0 -7 1l-3 5c-3 6 -1 6 6 12l127 102c3 2 6 2 8 0l101 -106
c3 -3 4 -5 1 -8l-4 -4c-1 -1 -3 -4 -7 -1l-96 101z" />
    <glyph glyph-name="Atilde" unicode="&#xc3;" horiz-adv-x="587" 
d="M-8 1c-1 -2 -2 -4 -6 -3l-8 3c-3 1 -3 4 -2 6l377 710c1 3 4 4 6 4h1c2 0 4 -1 5 -4l172 -709c1 -4 -1 -6 -4 -7l-5 -2c-3 -1 -6 0 -7 3l-50 208h-369zM112 227h354l-110 461h-1zM251 802l-7 2c-4 1 -5 4 -3 9c8 19 37 84 90 84c71 0 38 -108 94 -108c41 0 62 52 70 72
c2 5 4 7 7 6l7 -2c4 -1 6 -4 3 -9c-8 -18 -35 -84 -89 -84c-69 0 -41 108 -94 108c-39 0 -65 -58 -71 -73c-2 -5 -5 -6 -7 -5z" />
    <glyph glyph-name="Adieresis" unicode="&#xc4;" horiz-adv-x="587" 
d="M-8 1c-1 -2 -2 -4 -6 -3l-8 3c-3 1 -3 4 -2 6l377 710c1 3 4 4 6 4h1c2 0 4 -1 5 -4l172 -709c1 -4 -1 -6 -4 -7l-5 -2c-3 -1 -6 0 -7 3l-50 208h-369zM112 227h354l-110 461h-1zM467 810c-10 0 -17 8 -17 17c0 14 10 24 23 24c10 0 16 -8 16 -18c0 -13 -10 -23 -22 -23z
M280 810c-10 0 -17 8 -17 17c0 14 11 24 23 24c10 0 17 -8 17 -18c0 -13 -10 -23 -23 -23z" />
    <glyph glyph-name="Amacron" unicode="&#x100;" horiz-adv-x="587" 
d="M-8 1c-1 -2 -2 -4 -6 -3l-8 3c-3 1 -3 4 -2 6l377 710c1 3 4 4 6 4h1c2 0 4 -1 5 -4l172 -709c1 -4 -1 -6 -4 -7l-5 -2c-3 -1 -6 0 -7 3l-50 208h-369zM112 227h354l-110 461h-1zM249 842c-5 0 -7 3 -6 7l1 4c1 4 4 7 8 7h258c4 0 7 -3 6 -7l-1 -4c-1 -4 -3 -7 -7 -7
h-259z" />
    <glyph glyph-name="Abreve" unicode="&#x102;" horiz-adv-x="587" 
d="M-8 1c-1 -2 -2 -4 -6 -3l-8 3c-3 1 -3 4 -2 6l377 710c1 3 4 4 6 4h1c2 0 4 -1 5 -4l172 -709c1 -4 -1 -6 -4 -7l-5 -2c-3 -1 -6 0 -7 3l-50 208h-369zM112 227h354l-110 461h-1zM375 780c-60 0 -99 47 -99 107c0 5 2 8 5 8h5c4 0 5 -3 5 -6c-1 -54 35 -93 86 -93
c49 0 96 39 112 93c1 4 3 6 6 6h6c5 0 5 -4 4 -8c-18 -60 -70 -107 -130 -107z" />
    <glyph glyph-name="Aring" unicode="&#xc5;" horiz-adv-x="587" 
d="M-8 1c-1 -2 -2 -4 -6 -3l-8 3c-3 1 -3 4 -2 6l377 710c1 3 4 4 6 4h1c2 0 4 -1 5 -4l172 -709c1 -4 -1 -6 -4 -7l-5 -2c-3 -1 -6 0 -7 3l-50 208h-369zM112 227h354l-110 461h-1zM366 750c-48 0 -81 39 -81 89c0 66 52 119 110 119c47 0 80 -40 80 -90
c0 -66 -52 -118 -109 -118zM368 766c46 0 91 45 91 99c0 41 -25 77 -66 77c-47 0 -91 -46 -91 -99c0 -42 22 -77 66 -77z" />
    <glyph glyph-name="Aringacute" unicode="&#x1fa;" horiz-adv-x="587" 
d="M314 937c-5 -2 -6 -1 -8 3l-3 6c-1 2 0 5 4 7l176 91c3 1 5 2 8 -3l3 -5c2 -4 0 -7 -4 -9zM-8 1c-1 -2 -2 -4 -6 -3l-8 3c-3 1 -3 4 -2 6l372 702c-41 6 -68 42 -68 88c0 66 52 119 110 119c47 0 80 -40 80 -90c0 -64 -49 -115 -103 -118l170 -700c1 -4 -1 -6 -4 -7
l-5 -2c-3 -1 -6 0 -7 3l-50 208h-369zM363 724c46 0 91 45 91 99c0 41 -25 77 -66 77c-47 0 -91 -46 -91 -99c0 -42 22 -77 66 -77zM112 227h354l-110 461h-1z" />
    <glyph glyph-name="Aogonek" unicode="&#x104;" horiz-adv-x="586" 
d="M-8 1c-1 -2 -2 -4 -6 -3l-8 3c-3 1 -3 4 -2 6l377 710c1 3 4 4 6 4h1c2 0 4 -1 5 -4l171 -705c2 -7 -3 -8 -8 -11c-10 -6 -101 -60 -101 -140c0 -46 34 -64 72 -64c30 0 55 10 62 14c6 3 7 0 9 -8c3 -8 -28 -23 -74 -23c-39 0 -86 21 -86 77c0 92 90 145 108 155l-47 198
h-369zM112 227h354l-110 461h-1z" />
    <glyph glyph-name="AE" unicode="&#xc6;" horiz-adv-x="856" 
d="M-23 0c-2 -3 -5 -3 -8 -1l-5 3c-3 2 -5 3 -1 8l499 687c1 2 4 3 7 3h364c4 0 7 -3 6 -7l-1 -4c-1 -4 -4 -7 -7 -7h-355l-44 -309h312c3 0 6 -2 6 -6c0 -7 -3 -12 -9 -12h-311l-48 -337h355c4 0 7 -3 6 -7l-1 -4c-1 -4 -4 -7 -7 -7h-365c-4 0 -7 3 -6 7l28 203h-263z
M141 227h254l61 434z" />
    <glyph glyph-name="AEacute" unicode="&#x1fc;" horiz-adv-x="856" 
d="M-23 0c-2 -3 -5 -3 -8 -1l-5 3c-3 2 -5 3 -1 8l499 687c1 2 4 3 7 3h364c4 0 7 -3 6 -7l-1 -4c-1 -4 -4 -7 -7 -7h-355l-44 -309h312c3 0 6 -2 6 -6c0 -7 -3 -12 -9 -12h-311l-48 -337h355c4 0 7 -3 6 -7l-1 -4c-1 -4 -4 -7 -7 -7h-365c-4 0 -7 3 -6 7l28 203h-263z
M141 227h254l61 434zM572 778c-5 -2 -6 -1 -8 3l-3 6c-1 2 0 5 4 7l176 91c3 1 5 2 8 -3l3 -5c2 -4 0 -7 -4 -9z" />
    <glyph glyph-name="Cacute" unicode="&#x106;" horiz-adv-x="671" 
d="M70 301c0 226 183 409 379 409c94 0 155 -36 208 -93c2 -2 3 -5 0 -8l-5 -5c-3 -3 -6 -2 -8 0c-50 56 -109 89 -195 89c-188 0 -361 -177 -361 -392c0 -164 113 -293 262 -293c79 0 154 32 223 93c2 2 5 2 7 0l5 -6c2 -2 1 -5 -1 -7c-72 -66 -154 -98 -234 -98
c-166 0 -280 138 -280 311zM381 777c-5 -2 -6 -1 -8 3l-3 6c-1 2 0 5 4 7l176 91c3 1 5 2 8 -3l3 -5c2 -4 0 -7 -4 -9z" />
    <glyph glyph-name="Ccircumflex" unicode="&#x108;" horiz-adv-x="671" 
d="M70 301c0 226 183 409 379 409c94 0 155 -36 208 -93c2 -2 3 -5 0 -8l-5 -5c-3 -3 -6 -2 -8 0c-50 56 -109 89 -195 89c-188 0 -361 -177 -361 -392c0 -164 113 -293 262 -293c79 0 154 32 223 93c2 2 5 2 7 0l5 -6c2 -2 1 -5 -1 -7c-72 -66 -154 -98 -234 -98
c-166 0 -280 138 -280 311zM345 763c-5 -3 -6 0 -7 1l-3 5c-3 6 -1 6 6 12l127 102c3 2 6 2 8 0l101 -106c3 -3 4 -5 1 -8l-4 -4c-1 -1 -3 -4 -7 -1l-96 101z" />
    <glyph glyph-name="Ccaron" unicode="&#x10c;" horiz-adv-x="671" 
d="M70 301c0 226 183 409 379 409c94 0 155 -36 208 -93c2 -2 3 -5 0 -8l-5 -5c-3 -3 -6 -2 -8 0c-50 56 -109 89 -195 89c-188 0 -361 -177 -361 -392c0 -164 113 -293 262 -293c79 0 154 32 223 93c2 2 5 2 7 0l5 -6c2 -2 1 -5 -1 -7c-72 -66 -154 -98 -234 -98
c-166 0 -280 138 -280 311zM455 771l-101 106c-3 3 -4 5 -1 8l4 4c1 1 3 4 7 1l96 -101l126 102c5 3 6 0 7 -1l3 -5c3 -6 1 -6 -6 -12l-127 -102c-3 -2 -6 -2 -8 0z" />
    <glyph glyph-name="Cdotaccent" unicode="&#x10a;" horiz-adv-x="671" 
d="M70 301c0 226 183 409 379 409c94 0 155 -36 208 -93c2 -2 3 -5 0 -8l-5 -5c-3 -3 -6 -2 -8 0c-50 56 -109 89 -195 89c-188 0 -361 -177 -361 -392c0 -164 113 -293 262 -293c79 0 154 32 223 93c2 2 5 2 7 0l5 -6c2 -2 1 -5 -1 -7c-72 -66 -154 -98 -234 -98
c-166 0 -280 138 -280 311zM465 825c-9 0 -16 7 -16 16c0 12 11 21 21 21s16 -7 16 -16c0 -12 -9 -21 -21 -21z" />
    <glyph glyph-name="Ccedilla" unicode="&#xc7;" horiz-adv-x="672" 
d="M71 301c0 226 183 409 379 409c94 0 155 -36 208 -93c2 -2 3 -5 0 -8l-5 -5c-3 -3 -6 -2 -8 0c-50 56 -109 89 -195 89c-188 0 -361 -177 -361 -392c0 -164 113 -293 262 -293c79 0 154 32 223 93c2 2 5 2 7 0l5 -6c2 -2 1 -5 -1 -7c-72 -66 -154 -98 -234 -98
c-5 0 -10 1 -15 1l-6 -45c48 -5 86 -28 86 -78c0 -57 -39 -103 -96 -103c-29 0 -53 16 -65 34c-2 3 -3 7 1 9l5 3c4 3 6 3 10 -2c8 -11 22 -26 52 -26c43 0 75 38 75 82c0 43 -38 64 -81 64c-3 0 -5 2 -5 6l7 57c-148 16 -248 147 -248 309z" />
    <glyph glyph-name="Dcaron" unicode="&#x10e;" horiz-adv-x="680" 
d="M73 7l96 686c1 4 4 7 7 7h181c159 0 272 -136 272 -306c0 -216 -175 -394 -370 -394h-181c-3 0 -5 3 -5 7zM92 18h169c181 0 350 169 350 376c0 159 -107 288 -257 288h-169zM356 771l-101 106c-3 3 -4 5 -1 8l4 4c1 1 3 4 7 1l96 -101l126 102c5 3 6 0 7 -1l3 -5
c3 -6 1 -6 -6 -12l-127 -102c-3 -2 -6 -2 -8 0z" />
    <glyph glyph-name="Dcroat" unicode="&#x110;" horiz-adv-x="700" 
d="M74 7l47 333h-36c-3 0 -6 3 -5 7v4c1 4 4 7 8 7h36l47 335c0 4 3 7 7 7h198c158 0 273 -136 273 -304c0 -218 -180 -396 -371 -396h-198c-4 0 -6 3 -6 7zM94 18h186c181 0 350 169 350 376c0 159 -107 288 -257 288h-186l-46 -324h258c4 0 7 -3 6 -7l-1 -4
c0 -4 -3 -7 -7 -7h-258z" />
    <glyph glyph-name="Eth" unicode="&#xd0;" horiz-adv-x="700" 
d="M74 7l47 333h-36c-3 0 -6 3 -5 7v4c1 4 4 7 8 7h36l47 335c0 4 3 7 7 7h198c158 0 273 -136 273 -304c0 -218 -180 -396 -371 -396h-198c-4 0 -6 3 -6 7zM94 18h186c181 0 350 169 350 376c0 159 -107 288 -257 288h-186l-46 -324h258c4 0 7 -3 6 -7l-1 -4
c0 -4 -3 -7 -7 -7h-258z" />
    <glyph glyph-name="Egrave" unicode="&#xc8;" horiz-adv-x="565" 
d="M72 7l97 686c0 4 4 7 7 7h366c4 0 7 -3 6 -7l-1 -4c-1 -4 -3 -7 -7 -7h-355l-43 -309h311c4 0 7 -3 6 -7l-1 -4c-1 -4 -4 -7 -7 -7h-312l-47 -337h354c7 0 8 -3 7 -7l-1 -4c-1 -4 -4 -7 -8 -7h-366c-4 0 -6 3 -6 7zM448 779l-151 90c-3 2 -4 5 -1 9l2 3c3 5 6 4 9 3
l150 -91c3 -2 4 -4 2 -7l-2 -4c-2 -3 -5 -5 -9 -3z" />
    <glyph glyph-name="Eacute" unicode="&#xc9;" horiz-adv-x="565" 
d="M72 7l97 686c0 4 4 7 7 7h366c4 0 7 -3 6 -7l-1 -4c-1 -4 -3 -7 -7 -7h-355l-43 -309h311c4 0 7 -3 6 -7l-1 -4c-1 -4 -4 -7 -7 -7h-312l-47 -337h354c7 0 8 -3 7 -7l-1 -4c-1 -4 -4 -7 -8 -7h-366c-4 0 -6 3 -6 7zM290 777c-5 -2 -6 -1 -8 3l-3 6c-1 2 0 5 4 7l176 91
c3 1 5 2 8 -3l3 -5c2 -4 0 -7 -4 -9z" />
    <glyph glyph-name="Ecircumflex" unicode="&#xca;" horiz-adv-x="565" 
d="M72 7l97 686c0 4 4 7 7 7h366c4 0 7 -3 6 -7l-1 -4c-1 -4 -3 -7 -7 -7h-355l-43 -309h311c4 0 7 -3 6 -7l-1 -4c-1 -4 -4 -7 -7 -7h-312l-47 -337h354c7 0 8 -3 7 -7l-1 -4c-1 -4 -4 -7 -8 -7h-366c-4 0 -6 3 -6 7zM241 763c-5 -3 -6 0 -7 1l-3 5c-3 6 -1 6 6 12l127 102
c3 2 6 2 8 0l101 -106c3 -3 4 -5 1 -8l-4 -4c-1 -1 -3 -4 -7 -1l-96 101z" />
    <glyph glyph-name="Ecaron" unicode="&#x11a;" horiz-adv-x="565" 
d="M72 7l97 686c0 4 4 7 7 7h366c4 0 7 -3 6 -7l-1 -4c-1 -4 -3 -7 -7 -7h-355l-43 -309h311c4 0 7 -3 6 -7l-1 -4c-1 -4 -4 -7 -7 -7h-312l-47 -337h354c7 0 8 -3 7 -7l-1 -4c-1 -4 -4 -7 -8 -7h-366c-4 0 -6 3 -6 7zM354 771l-101 106c-3 3 -4 5 -1 8l4 4c1 1 3 4 7 1
l96 -101l126 102c5 3 6 0 7 -1l3 -5c3 -6 1 -6 -6 -12l-127 -102c-3 -2 -6 -2 -8 0z" />
    <glyph glyph-name="Edieresis" unicode="&#xcb;" horiz-adv-x="565" 
d="M72 7l97 686c0 4 4 7 7 7h366c4 0 7 -3 6 -7l-1 -4c-1 -4 -3 -7 -7 -7h-355l-43 -309h311c4 0 7 -3 6 -7l-1 -4c-1 -4 -4 -7 -7 -7h-312l-47 -337h354c7 0 8 -3 7 -7l-1 -4c-1 -4 -4 -7 -8 -7h-366c-4 0 -6 3 -6 7zM451 810c-10 0 -17 8 -17 17c0 14 10 24 23 24
c10 0 16 -8 16 -18c0 -13 -10 -23 -22 -23zM264 810c-10 0 -17 8 -17 17c0 14 11 24 23 24c10 0 17 -8 17 -18c0 -13 -10 -23 -23 -23z" />
    <glyph glyph-name="Emacron" unicode="&#x112;" horiz-adv-x="565" 
d="M72 7l97 686c0 4 4 7 7 7h366c4 0 7 -3 6 -7l-1 -4c-1 -4 -3 -7 -7 -7h-355l-43 -309h311c4 0 7 -3 6 -7l-1 -4c-1 -4 -4 -7 -7 -7h-312l-47 -337h354c7 0 8 -3 7 -7l-1 -4c-1 -4 -4 -7 -8 -7h-366c-4 0 -6 3 -6 7zM237 842c-5 0 -7 3 -6 7l1 4c1 4 4 7 8 7h258
c4 0 7 -3 6 -7l-1 -4c-1 -4 -3 -7 -7 -7h-259z" />
    <glyph glyph-name="Ebreve" unicode="&#x114;" horiz-adv-x="565" 
d="M72 7l97 686c0 4 4 7 7 7h366c4 0 7 -3 6 -7l-1 -4c-1 -4 -3 -7 -7 -7h-355l-43 -309h311c4 0 7 -3 6 -7l-1 -4c-1 -4 -4 -7 -7 -7h-312l-47 -337h354c7 0 8 -3 7 -7l-1 -4c-1 -4 -4 -7 -8 -7h-366c-4 0 -6 3 -6 7zM364 780c-60 0 -99 47 -99 107c0 5 2 8 5 8h5
c4 0 5 -3 5 -6c-1 -54 35 -93 86 -93c49 0 96 39 112 93c1 4 3 6 6 6h6c5 0 5 -4 4 -8c-18 -60 -70 -107 -130 -107z" />
    <glyph glyph-name="Edotaccent" unicode="&#x116;" horiz-adv-x="565" 
d="M72 7l97 686c0 4 4 7 7 7h366c4 0 7 -3 6 -7l-1 -4c-1 -4 -3 -7 -7 -7h-355l-43 -309h311c4 0 7 -3 6 -7l-1 -4c-1 -4 -4 -7 -7 -7h-312l-47 -337h354c7 0 8 -3 7 -7l-1 -4c-1 -4 -4 -7 -8 -7h-366c-4 0 -6 3 -6 7zM372 825c-9 0 -16 7 -16 16c0 12 11 21 21 21
s16 -7 16 -16c0 -12 -9 -21 -21 -21z" />
    <glyph glyph-name="Eogonek" unicode="&#x118;" horiz-adv-x="565" 
d="M72 7l97 686c0 4 4 7 7 7h366c4 0 7 -3 6 -7l-1 -4c-1 -4 -3 -7 -7 -7h-355l-43 -309h311c4 0 7 -3 6 -7l-1 -4c-1 -4 -4 -7 -7 -7h-312l-47 -337h354c7 0 8 -3 7 -7l-1 -4c-2 -5 -4 -6 -8 -8c-1 0 -100 -54 -100 -138c0 -46 34 -64 72 -64c30 0 55 10 62 14
c6 3 7 0 9 -8c3 -8 -28 -23 -74 -23c-39 0 -86 21 -86 77c0 72 55 121 88 143h-337c-4 0 -6 3 -6 7z" />
    <glyph glyph-name="Gcircumflex" unicode="&#x11c;" horiz-adv-x="697" 
d="M70 301c0 226 183 409 379 409c94 0 155 -36 208 -93c2 -2 3 -5 0 -8l-5 -5c-3 -3 -6 -2 -8 0c-50 56 -109 89 -195 89c-188 0 -361 -177 -361 -392c0 -164 110 -293 265 -293c120 0 200 52 219 69l34 235h-202c-4 0 -6 3 -5 7l1 4c1 3 3 6 7 6h212c4 0 6 -3 6 -6
l-36 -253c-8 -12 -95 -80 -239 -80c-163 0 -280 138 -280 311zM351 763c-5 -3 -6 0 -7 1l-3 5c-3 6 -1 6 6 12l127 102c3 2 6 2 8 0l101 -106c3 -3 4 -5 1 -8l-4 -4c-1 -1 -3 -4 -7 -1l-96 101z" />
    <glyph glyph-name="Gbreve" unicode="&#x11e;" horiz-adv-x="697" 
d="M70 301c0 226 183 409 379 409c94 0 155 -36 208 -93c2 -2 3 -5 0 -8l-5 -5c-3 -3 -6 -2 -8 0c-50 56 -109 89 -195 89c-188 0 -361 -177 -361 -392c0 -164 110 -293 265 -293c120 0 200 52 219 69l34 235h-202c-4 0 -6 3 -5 7l1 4c1 3 3 6 7 6h212c4 0 6 -3 6 -6
l-36 -253c-8 -12 -95 -80 -239 -80c-163 0 -280 138 -280 311zM474 780c-60 0 -99 47 -99 107c0 5 2 8 5 8h5c4 0 5 -3 5 -6c-1 -54 35 -93 86 -93c49 0 96 39 112 93c1 4 3 6 6 6h6c5 0 5 -4 4 -8c-18 -60 -70 -107 -130 -107z" />
    <glyph glyph-name="Gdotaccent" unicode="&#x120;" horiz-adv-x="697" 
d="M70 301c0 226 183 409 379 409c94 0 155 -36 208 -93c2 -2 3 -5 0 -8l-5 -5c-3 -3 -6 -2 -8 0c-50 56 -109 89 -195 89c-188 0 -361 -177 -361 -392c0 -164 110 -293 265 -293c120 0 200 52 219 69l34 235h-202c-4 0 -6 3 -5 7l1 4c1 3 3 6 7 6h212c4 0 6 -3 6 -6
l-36 -253c-8 -12 -95 -80 -239 -80c-163 0 -280 138 -280 311zM473 825c-9 0 -16 7 -16 16c0 12 11 21 21 21s16 -7 16 -16c0 -12 -9 -21 -21 -21z" />
    <glyph glyph-name="Gcommaaccent" unicode="&#x122;" horiz-adv-x="697" 
d="M70 301c0 226 183 409 379 409c94 0 155 -36 208 -93c2 -2 3 -5 0 -8l-5 -5c-3 -3 -6 -2 -8 0c-50 56 -109 89 -195 89c-188 0 -361 -177 -361 -392c0 -164 110 -293 265 -293c120 0 200 52 219 69l34 235h-202c-4 0 -6 3 -5 7l1 4c1 3 3 6 7 6h212c4 0 6 -3 6 -6
l-36 -253c-8 -12 -95 -80 -239 -80c-163 0 -280 138 -280 311zM309 -136c0 14 12 25 25 25c17 0 36 -20 36 -68c0 -89 -68 -121 -73 -124c-2 -1 -5 -1 -7 2l-2 4c-2 5 -1 9 3 11c1 0 51 25 59 83c4 30 1 47 -3 57c-5 -5 -11 -10 -19 -10c-12 0 -19 10 -19 20z" />
    <glyph glyph-name="Hcircumflex" unicode="&#x124;" horiz-adv-x="697" 
d="M72 7l97 686c0 4 4 7 7 7h5c4 0 6 -3 5 -7l-44 -320h440l45 320c1 4 4 7 7 7h5c4 0 7 -3 6 -7l-97 -686c-1 -4 -4 -7 -7 -7h-5c-4 0 -7 3 -6 7l49 348h-440l-49 -348c-1 -4 -4 -7 -8 -7h-4c-4 0 -7 3 -6 7zM304 763c-5 -3 -6 0 -7 1l-3 5c-3 6 -1 6 6 12l127 102
c3 2 6 2 8 0l101 -106c3 -3 4 -5 1 -8l-4 -4c-1 -1 -3 -4 -7 -1l-96 101z" />
    <glyph glyph-name="Hbar" unicode="&#x126;" horiz-adv-x="697" 
d="M73 7l76 541h-26c-5 0 -6 3 -5 7l1 4c1 4 3 7 7 7h26l18 127c0 4 4 7 7 7h5c4 0 6 -3 5 -7l-17 -127h440l18 127c0 4 4 7 8 7h4c4 0 6 -3 6 -7l-18 -127h28c4 0 7 -3 6 -7l-1 -4c-1 -4 -3 -7 -7 -7h-29l-76 -541c-1 -5 -3 -7 -7 -7h-6c-4 0 -6 2 -5 7l49 348h-440
l-49 -348c0 -4 -4 -7 -8 -7h-4c-4 0 -6 3 -6 7zM143 373h440l24 175h-440z" />
    <glyph glyph-name="Igrave" unicode="&#xcc;" horiz-adv-x="239" 
d="M73 7l96 686c1 4 4 7 8 7h4c4 0 7 -3 6 -7l-96 -686c-1 -4 -4 -7 -8 -7h-4c-4 0 -7 3 -6 7zM270 779l-151 90c-3 2 -4 5 -1 9l2 3c3 5 6 4 9 3l150 -91c3 -2 4 -4 2 -7l-2 -4c-2 -3 -5 -5 -9 -3z" />
    <glyph glyph-name="Iacute" unicode="&#xcd;" horiz-adv-x="239" 
d="M73 7l96 686c1 4 4 7 8 7h4c4 0 7 -3 6 -7l-96 -686c-1 -4 -4 -7 -8 -7h-4c-4 0 -7 3 -6 7zM113 777c-5 -2 -6 -1 -8 3l-3 6c-1 2 0 5 4 7l176 91c3 1 5 2 8 -3l3 -5c2 -4 0 -7 -4 -9z" />
    <glyph glyph-name="Ibreve" unicode="&#x12c;" horiz-adv-x="239" 
d="M73 7l96 686c1 4 4 7 8 7h4c4 0 7 -3 6 -7l-96 -686c-1 -4 -4 -7 -8 -7h-4c-4 0 -7 3 -6 7zM196 780c-60 0 -99 47 -99 107c0 5 2 8 5 8h5c4 0 5 -3 5 -6c-1 -54 35 -93 86 -93c49 0 96 39 112 93c1 4 3 6 6 6h6c5 0 5 -4 4 -8c-18 -60 -70 -107 -130 -107z" />
    <glyph glyph-name="Icircumflex" unicode="&#xce;" horiz-adv-x="239" 
d="M73 7l96 686c1 4 4 7 8 7h4c4 0 7 -3 6 -7l-96 -686c-1 -4 -4 -7 -8 -7h-4c-4 0 -7 3 -6 7zM76 763c-5 -3 -6 0 -7 1l-3 5c-3 6 -1 6 6 12l127 102c3 2 6 2 8 0l101 -106c3 -3 4 -5 1 -8l-4 -4c-1 -1 -3 -4 -7 -1l-96 101z" />
    <glyph glyph-name="Itilde" unicode="&#x128;" horiz-adv-x="239" 
d="M73 7l96 686c1 4 4 7 8 7h4c4 0 7 -3 6 -7l-96 -686c-1 -4 -4 -7 -8 -7h-4c-4 0 -7 3 -6 7zM73 802l-7 2c-4 1 -5 4 -3 9c8 19 37 84 90 84c71 0 38 -108 94 -108c41 0 62 52 70 72c2 5 4 7 7 6l7 -2c4 -1 6 -4 3 -9c-8 -18 -35 -84 -89 -84c-69 0 -41 108 -94 108
c-39 0 -65 -58 -71 -73c-2 -5 -5 -6 -7 -5z" />
    <glyph glyph-name="Idieresis" unicode="&#xcf;" horiz-adv-x="239" 
d="M73 7l96 686c1 4 4 7 8 7h4c4 0 7 -3 6 -7l-96 -686c-1 -4 -4 -7 -8 -7h-4c-4 0 -7 3 -6 7zM290 810c-10 0 -17 8 -17 17c0 14 10 24 23 24c10 0 16 -8 16 -18c0 -13 -10 -23 -22 -23zM103 810c-10 0 -17 8 -17 17c0 14 11 24 23 24c10 0 17 -8 17 -18
c0 -13 -10 -23 -23 -23z" />
    <glyph glyph-name="Imacron" unicode="&#x12a;" horiz-adv-x="239" 
d="M73 7l96 686c1 4 4 7 8 7h4c4 0 7 -3 6 -7l-96 -686c-1 -4 -4 -7 -8 -7h-4c-4 0 -7 3 -6 7zM70 842c-5 0 -7 3 -6 7l1 4c1 4 4 7 8 7h258c4 0 7 -3 6 -7l-1 -4c-1 -4 -3 -7 -7 -7h-259z" />
    <glyph glyph-name="Idotaccent" unicode="&#x130;" horiz-adv-x="239" 
d="M73 7l96 686c1 4 4 7 8 7h4c4 0 7 -3 6 -7l-96 -686c-1 -4 -4 -7 -8 -7h-4c-4 0 -7 3 -6 7zM197 825c-9 0 -16 7 -16 16c0 12 11 21 21 21s16 -7 16 -16c0 -12 -9 -21 -21 -21z" />
    <glyph glyph-name="Iogonek" unicode="&#x12e;" horiz-adv-x="239" 
d="M73 11l96 682c1 4 4 7 8 7h4c4 0 7 -3 6 -7l-95 -682c-1 -7 -3 -9 -8 -12c-2 -1 -100 -54 -100 -138c0 -46 34 -64 72 -64c30 0 55 10 62 14c6 3 7 0 9 -8c3 -8 -28 -23 -74 -23c-39 0 -86 21 -86 77c0 89 84 143 106 154z" />
    <glyph glyph-name="Jcircumflex" unicode="&#x134;" horiz-adv-x="363" 
d="M80 -10c-80 0 -118 54 -129 77c-1 3 -2 7 2 9l4 2c5 3 7 2 9 -1c12 -22 43 -70 115 -70c98 0 162 75 181 207l68 479c0 4 3 7 7 7h4c4 0 6 -3 5 -7l-67 -479c-20 -141 -91 -224 -199 -224zM236 763c-5 -3 -6 0 -7 1l-3 5c-3 6 -1 6 6 12l127 102c3 2 6 2 8 0l101 -106
c3 -3 4 -5 1 -8l-4 -4c-1 -1 -3 -4 -7 -1l-96 101z" />
    <glyph glyph-name="Kcommaaccent" unicode="&#x136;" horiz-adv-x="519" 
d="M72 7l97 686c1 4 4 7 7 7h5c4 0 7 -3 6 -7l-47 -330l380 336c4 3 7 3 10 0l3 -3c3 -3 3 -7 0 -10l-378 -333l292 -343c3 -4 2 -7 -1 -10l-5 -4c-3 -2 -6 -2 -9 2l-295 347l-47 -338c-1 -4 -4 -7 -8 -7h-4c-4 0 -7 3 -6 7zM200 -136c0 14 12 25 25 25c17 0 36 -20 36 -68
c0 -89 -68 -121 -73 -124c-2 -1 -5 -1 -7 2l-2 4c-2 5 -1 9 3 11c1 0 51 25 59 83c4 30 1 47 -3 57c-5 -5 -11 -10 -19 -10c-12 0 -19 10 -19 20z" />
    <glyph glyph-name="Lacute" unicode="&#x139;" horiz-adv-x="443" 
d="M72 7l97 686c1 4 4 7 7 7h5c3 0 6 -3 5 -7l-95 -676h312c4 0 7 -2 6 -6l-1 -4c-1 -4 -3 -7 -7 -7h-323c-4 0 -6 3 -6 7zM113 777c-5 -2 -6 -1 -8 3l-3 6c-1 2 0 5 4 7l176 91c3 1 5 2 8 -3l3 -5c2 -4 0 -7 -4 -9z" />
    <glyph glyph-name="Lcaron" unicode="&#x13d;" horiz-adv-x="443" 
d="M72 7l97 686c1 4 4 7 7 7h5c3 0 6 -3 5 -7l-95 -676h312c4 0 7 -2 6 -6l-1 -4c-1 -4 -3 -7 -7 -7h-323c-4 0 -6 3 -6 7zM372 686c0 14 12 25 25 25c17 0 36 -20 36 -68c0 -89 -68 -121 -73 -124c-2 -1 -5 -1 -7 2l-2 4c-2 5 -1 9 3 11c1 0 51 25 59 83c4 30 1 47 -3 57
c-5 -5 -11 -10 -19 -10c-12 0 -19 10 -19 20z" />
    <glyph glyph-name="Lcommaaccent" unicode="&#x13b;" horiz-adv-x="444" 
d="M72 7l97 686c1 4 4 7 7 7h5c3 0 6 -3 5 -7l-95 -676h312c4 0 7 -2 6 -6l-1 -4c-1 -4 -3 -7 -7 -7h-323c-4 0 -6 3 -6 7zM190 -136c0 14 12 25 25 25c17 0 36 -20 36 -68c0 -89 -68 -121 -73 -124c-2 -1 -5 -1 -7 2l-2 4c-2 5 -1 9 3 11c1 0 51 25 59 83c4 30 1 47 -3 57
c-5 -5 -11 -10 -19 -10c-12 0 -19 10 -19 20z" />
    <glyph glyph-name="Lslash" unicode="&#x141;" horiz-adv-x="475" 
d="M77 7l46 322l-42 -20c-4 -2 -7 -2 -8 1l-2 8c-1 3 2 6 5 7l50 24l48 344c0 4 4 7 8 7h4c4 0 7 -3 6 -7l-47 -336l172 85c3 1 6 2 8 -3l2 -6c1 -3 -3 -6 -5 -7l-180 -89l-45 -319h329c5 0 8 -3 7 -7l-1 -4c-1 -4 -4 -7 -8 -7h-341c-4 0 -6 3 -6 7z" />
    <glyph glyph-name="Ldot" unicode="&#x13f;" horiz-adv-x="486" 
d="M72 7l97 686c1 4 4 7 7 7h5c3 0 6 -3 5 -7l-95 -676h312c4 0 7 -2 6 -6l-1 -4c-1 -4 -3 -7 -7 -7h-323c-4 0 -6 3 -6 7zM409 282c-11 0 -19 10 -19 21c0 15 13 26 26 26c12 0 19 -9 19 -20c0 -14 -11 -27 -26 -27z" />
    <glyph glyph-name="Nacute" unicode="&#x143;" horiz-adv-x="714" 
d="M72 7l99 703c1 7 10 10 13 4c367 -689 367 -688 367 -688l94 667c1 4 4 7 8 7h4c4 0 7 -3 6 -7l-99 -701c-1 -7 -10 -10 -13 -4l-367 688l-94 -669c-1 -4 -4 -7 -8 -7h-4c-4 0 -7 3 -6 7zM362 777c-5 -2 -6 -1 -8 3l-3 6c-1 2 0 5 4 7l176 91c3 1 5 2 8 -3l3 -5
c2 -4 0 -7 -4 -9z" />
    <glyph glyph-name="Ncaron" unicode="&#x147;" horiz-adv-x="714" 
d="M72 7l99 703c1 7 10 10 13 4c367 -689 367 -688 367 -688l94 667c1 4 4 7 8 7h4c4 0 7 -3 6 -7l-99 -701c-1 -7 -10 -10 -13 -4l-367 688l-94 -669c-1 -4 -4 -7 -8 -7h-4c-4 0 -7 3 -6 7zM426 771l-101 106c-3 3 -4 5 -1 8l4 4c1 1 3 4 7 1l96 -101l126 102c5 3 6 0 7 -1
l3 -5c3 -6 1 -6 -6 -12l-127 -102c-3 -2 -6 -2 -8 0z" />
    <glyph glyph-name="Ntilde" unicode="&#xd1;" horiz-adv-x="714" 
d="M72 7l99 703c1 7 10 10 13 4c367 -689 367 -688 367 -688l94 667c1 4 4 7 8 7h4c4 0 7 -3 6 -7l-99 -701c-1 -7 -10 -10 -13 -4l-367 688l-94 -669c-1 -4 -4 -7 -8 -7h-4c-4 0 -7 3 -6 7zM309 802l-7 2c-4 1 -5 4 -3 9c8 19 37 84 90 84c71 0 38 -108 94 -108
c41 0 62 52 70 72c2 5 4 7 7 6l7 -2c4 -1 6 -4 3 -9c-8 -18 -35 -84 -89 -84c-69 0 -41 108 -94 108c-39 0 -65 -58 -71 -73c-2 -5 -5 -6 -7 -5z" />
    <glyph glyph-name="Ncommaaccent" unicode="&#x145;" horiz-adv-x="714" 
d="M72 7l99 703c1 7 10 10 13 4c367 -689 367 -688 367 -688l94 667c1 4 4 7 8 7h4c4 0 7 -3 6 -7l-99 -701c-1 -7 -10 -10 -13 -4l-367 688l-94 -669c-1 -4 -4 -7 -8 -7h-4c-4 0 -7 3 -6 7zM302 -136c0 14 12 25 25 25c17 0 36 -20 36 -68c0 -89 -68 -121 -73 -124
c-2 -1 -5 -1 -7 2l-2 4c-2 5 -1 9 3 11c1 0 51 25 59 83c4 30 1 47 -3 57c-5 -5 -11 -10 -19 -10c-12 0 -19 10 -19 20z" />
    <glyph glyph-name="Ograve" unicode="&#xd2;" horiz-adv-x="779" 
d="M71 302c0 227 181 408 380 408c163 0 279 -139 279 -313c0 -226 -182 -407 -380 -407c-164 0 -279 140 -279 312zM89 303c0 -164 110 -295 261 -295c188 0 362 173 362 388c0 165 -110 296 -262 296c-188 0 -361 -174 -361 -389zM543 779l-151 90c-3 2 -4 5 -1 9l2 3
c3 5 6 4 9 3l150 -91c3 -2 4 -4 2 -7l-2 -4c-2 -3 -5 -5 -9 -3z" />
    <glyph glyph-name="Oacute" unicode="&#xd3;" horiz-adv-x="779" 
d="M71 302c0 227 181 408 380 408c163 0 279 -139 279 -313c0 -226 -182 -407 -380 -407c-164 0 -279 140 -279 312zM89 303c0 -164 110 -295 261 -295c188 0 362 173 362 388c0 165 -110 296 -262 296c-188 0 -361 -174 -361 -389zM386 777c-5 -2 -6 -1 -8 3l-3 6
c-1 2 0 5 4 7l176 91c3 1 5 2 8 -3l3 -5c2 -4 0 -7 -4 -9z" />
    <glyph glyph-name="Ocircumflex" unicode="&#xd4;" horiz-adv-x="779" 
d="M71 302c0 227 181 408 380 408c163 0 279 -139 279 -313c0 -226 -182 -407 -380 -407c-164 0 -279 140 -279 312zM89 303c0 -164 110 -295 261 -295c188 0 362 173 362 388c0 165 -110 296 -262 296c-188 0 -361 -174 -361 -389zM349 763c-5 -3 -6 0 -7 1l-3 5
c-3 6 -1 6 6 12l127 102c3 2 6 2 8 0l101 -106c3 -3 4 -5 1 -8l-4 -4c-1 -1 -3 -4 -7 -1l-96 101z" />
    <glyph glyph-name="Otilde" unicode="&#xd5;" horiz-adv-x="779" 
d="M71 302c0 227 181 408 380 408c163 0 279 -139 279 -313c0 -226 -182 -407 -380 -407c-164 0 -279 140 -279 312zM89 303c0 -164 110 -295 261 -295c188 0 362 173 362 388c0 165 -110 296 -262 296c-188 0 -361 -174 -361 -389zM346 802l-7 2c-4 1 -5 4 -3 9
c8 19 37 84 90 84c71 0 38 -108 94 -108c41 0 62 52 70 72c2 5 4 7 7 6l7 -2c4 -1 6 -4 3 -9c-8 -18 -35 -84 -89 -84c-69 0 -41 108 -94 108c-39 0 -65 -58 -71 -73c-2 -5 -5 -6 -7 -5z" />
    <glyph glyph-name="Odieresis" unicode="&#xd6;" horiz-adv-x="779" 
d="M71 302c0 227 181 408 380 408c163 0 279 -139 279 -313c0 -226 -182 -407 -380 -407c-164 0 -279 140 -279 312zM89 303c0 -164 110 -295 261 -295c188 0 362 173 362 388c0 165 -110 296 -262 296c-188 0 -361 -174 -361 -389zM562 810c-10 0 -17 8 -17 17
c0 14 10 24 23 24c10 0 16 -8 16 -18c0 -13 -10 -23 -22 -23zM375 810c-10 0 -17 8 -17 17c0 14 11 24 23 24c10 0 17 -8 17 -18c0 -13 -10 -23 -23 -23z" />
    <glyph glyph-name="Omacron" unicode="&#x14c;" horiz-adv-x="779" 
d="M71 302c0 227 181 408 380 408c163 0 279 -139 279 -313c0 -226 -182 -407 -380 -407c-164 0 -279 140 -279 312zM89 303c0 -164 110 -295 261 -295c188 0 362 173 362 388c0 165 -110 296 -262 296c-188 0 -361 -174 -361 -389zM343 842c-5 0 -7 3 -6 7l1 4c1 4 4 7 8 7
h258c4 0 7 -3 6 -7l-1 -4c-1 -4 -3 -7 -7 -7h-259z" />
    <glyph glyph-name="Obreve" unicode="&#x14e;" horiz-adv-x="779" 
d="M71 302c0 227 181 408 380 408c163 0 279 -139 279 -313c0 -226 -182 -407 -380 -407c-164 0 -279 140 -279 312zM89 303c0 -164 110 -295 261 -295c188 0 362 173 362 388c0 165 -110 296 -262 296c-188 0 -361 -174 -361 -389zM474 780c-60 0 -99 47 -99 107
c0 5 2 8 5 8h5c4 0 5 -3 5 -6c-1 -54 35 -93 86 -93c49 0 96 39 112 93c1 4 3 6 6 6h6c5 0 5 -4 4 -8c-18 -60 -70 -107 -130 -107z" />
    <glyph glyph-name="Ohungarumlaut" unicode="&#x150;" horiz-adv-x="779" 
d="M71 302c0 227 181 408 380 408c163 0 279 -139 279 -313c0 -226 -182 -407 -380 -407c-164 0 -279 140 -279 312zM89 303c0 -164 110 -295 261 -295c188 0 362 173 362 388c0 165 -110 296 -262 296c-188 0 -361 -174 -361 -389zM532 757l-5 3c-2 2 -4 4 0 9l120 173
c3 4 5 4 8 2l5 -3c3 -2 5 -4 1 -9l-120 -173c-4 -4 -6 -4 -9 -2zM383 757l-5 3c-3 2 -4 4 -1 9l120 173c3 4 5 4 9 2l5 -3c3 -2 4 -4 1 -9l-121 -173c-3 -4 -5 -4 -8 -2z" />
    <glyph glyph-name="Oslash" unicode="&#xd8;" horiz-adv-x="780" 
d="M52 34c-3 3 -1 7 2 10l69 64c-33 51 -53 124 -53 193c0 226 178 409 377 409c89 0 167 -39 216 -104l71 65c3 3 7 4 9 0l2 -3c2 -4 2 -7 -1 -10l-71 -65c34 -52 56 -127 56 -197c0 -225 -179 -406 -378 -406c-91 0 -169 38 -219 104l-69 -63c-3 -2 -5 -3 -8 0zM136 120
l514 474c-48 61 -119 98 -203 98c-188 0 -359 -174 -359 -391c0 -64 17 -134 48 -181zM147 107c46 -63 118 -99 204 -99c188 0 360 172 360 387c0 66 -19 138 -51 186z" />
    <glyph glyph-name="Oslashacute" unicode="&#x1fe;" horiz-adv-x="780" 
d="M52 34c-3 3 -1 7 2 10l69 64c-33 51 -53 124 -53 193c0 226 178 409 377 409c89 0 167 -39 216 -104l71 65c3 3 7 4 9 0l2 -3c2 -4 2 -7 -1 -10l-71 -65c34 -52 56 -127 56 -197c0 -225 -179 -406 -378 -406c-91 0 -169 38 -219 104l-69 -63c-3 -2 -5 -3 -8 0zM136 120
l514 474c-48 61 -119 98 -203 98c-188 0 -359 -174 -359 -391c0 -64 17 -134 48 -181zM147 107c46 -63 118 -99 204 -99c188 0 360 172 360 387c0 66 -19 138 -51 186zM388 777c-5 -2 -6 -1 -8 3l-3 6c-1 2 0 5 4 7l176 91c3 1 5 2 8 -3l3 -5c2 -4 0 -7 -4 -9z" />
    <glyph glyph-name="OE" unicode="&#x152;" horiz-adv-x="908" 
d="M71 300c0 227 180 410 378 410c27 0 51 -4 74 -10h363c4 0 6 -3 5 -7l-1 -4c-1 -4 -3 -7 -6 -7h-355l-43 -309h311c3 0 6 -3 5 -7l-1 -4c-1 -4 -4 -7 -7 -7h-311l-47 -337h354c4 0 7 -3 6 -7l-1 -4c-1 -4 -3 -7 -7 -7h-362c-24 -6 -52 -10 -79 -10
c-163 0 -276 137 -276 310zM88 302c0 -164 108 -294 262 -294c23 0 44 2 67 8l94 668c-21 5 -41 8 -64 8c-188 0 -359 -174 -359 -390z" />
    <glyph glyph-name="Racute" unicode="&#x154;" horiz-adv-x="602" 
d="M72 7l97 686c0 4 3 7 7 7h214c102 0 177 -79 177 -186c0 -125 -90 -222 -195 -243l104 -264c1 -3 0 -7 -3 -8l-6 -2c-3 -1 -5 0 -6 3l-104 268c-9 -1 -20 -1 -29 -1h-202l-37 -260c0 -4 -4 -7 -7 -7h-4c-4 0 -6 3 -6 7zM128 284h200c120 0 222 98 222 230
c0 95 -69 168 -160 168h-206zM273 777c-5 -2 -6 -1 -8 3l-3 6c-1 2 0 5 4 7l176 91c3 1 5 2 8 -3l3 -5c2 -4 0 -7 -4 -9z" />
    <glyph glyph-name="Rcaron" unicode="&#x158;" horiz-adv-x="602" 
d="M72 7l97 686c0 4 3 7 7 7h214c102 0 177 -79 177 -186c0 -125 -90 -222 -195 -243l104 -264c1 -3 0 -7 -3 -8l-6 -2c-3 -1 -5 0 -6 3l-104 268c-9 -1 -20 -1 -29 -1h-202l-37 -260c0 -4 -4 -7 -7 -7h-4c-4 0 -6 3 -6 7zM128 284h200c120 0 222 98 222 230
c0 95 -69 168 -160 168h-206zM337 771l-101 106c-3 3 -4 5 -1 8l4 4c1 1 3 4 7 1l96 -101l126 102c5 3 6 0 7 -1l3 -5c3 -6 1 -6 -6 -12l-127 -102c-3 -2 -6 -2 -8 0z" />
    <glyph glyph-name="Rcommaaccent" unicode="&#x156;" horiz-adv-x="602" 
d="M72 7l97 686c0 4 3 7 7 7h214c102 0 177 -79 177 -186c0 -125 -90 -222 -195 -243l104 -264c1 -3 0 -7 -3 -8l-6 -2c-3 -1 -5 0 -6 3l-104 268c-9 -1 -20 -1 -29 -1h-202l-37 -260c0 -4 -4 -7 -7 -7h-4c-4 0 -6 3 -6 7zM128 284h200c120 0 222 98 222 230
c0 95 -69 168 -160 168h-206zM224 -136c0 14 12 25 25 25c17 0 36 -20 36 -68c0 -89 -68 -121 -73 -124c-2 -1 -5 -1 -7 2l-2 4c-2 5 -1 9 3 11c1 0 51 25 59 83c4 30 1 47 -3 57c-5 -5 -11 -10 -19 -10c-12 0 -19 10 -19 20z" />
    <glyph glyph-name="Sacute" unicode="&#x15a;" horiz-adv-x="517" 
d="M44 73c-2 3 -2 6 1 9l6 5c3 3 6 2 8 -1c10 -15 67 -79 168 -79c105 0 206 71 206 175c0 96 -71 133 -169 168c-94 34 -163 67 -163 171c0 84 67 189 219 189c93 0 152 -51 152 -51c2 -2 3 -5 1 -8l-5 -6c-2 -3 -5 -4 -8 -2c0 0 -57 50 -140 50c-142 0 -202 -98 -202 -172
c0 -93 63 -124 154 -156c109 -38 178 -78 178 -183c0 -110 -102 -192 -223 -192c-110 0 -174 69 -183 83zM259 762c-5 -2 -6 -1 -8 3l-3 6c-1 2 0 5 4 7l176 91c3 1 5 2 8 -3l3 -5c2 -4 0 -7 -4 -9z" />
    <glyph glyph-name="Scircumflex" unicode="&#x15c;" horiz-adv-x="517" 
d="M44 73c-2 3 -2 6 1 9l6 5c3 3 6 2 8 -1c10 -15 67 -79 168 -79c105 0 206 71 206 175c0 96 -71 133 -169 168c-94 34 -163 67 -163 171c0 84 67 189 219 189c93 0 152 -51 152 -51c2 -2 3 -5 1 -8l-5 -6c-2 -3 -5 -4 -8 -2c0 0 -57 50 -140 50c-142 0 -202 -98 -202 -172
c0 -93 63 -124 154 -156c109 -38 178 -78 178 -183c0 -110 -102 -192 -223 -192c-110 0 -174 69 -183 83zM222 748c-5 -3 -6 0 -7 1l-3 5c-3 6 -1 6 6 12l127 102c3 2 6 2 8 0l101 -106c3 -3 4 -5 1 -8l-4 -4c-1 -1 -3 -4 -7 -1l-96 101z" />
    <glyph glyph-name="Scaron" unicode="&#x160;" horiz-adv-x="517" 
d="M44 73c-2 3 -2 6 1 9l6 5c3 3 6 2 8 -1c10 -15 67 -79 168 -79c105 0 206 71 206 175c0 96 -71 133 -169 168c-94 34 -163 67 -163 171c0 84 67 189 219 189c93 0 152 -51 152 -51c2 -2 3 -5 1 -8l-5 -6c-2 -3 -5 -4 -8 -2c0 0 -57 50 -140 50c-142 0 -202 -98 -202 -172
c0 -93 63 -124 154 -156c109 -38 178 -78 178 -183c0 -110 -102 -192 -223 -192c-110 0 -174 69 -183 83zM331 756l-101 106c-3 3 -4 5 -1 8l4 4c1 1 3 4 7 1l96 -101l126 102c5 3 6 0 7 -1l3 -5c3 -6 1 -6 -6 -12l-127 -102c-3 -2 -6 -2 -8 0z" />
    <glyph glyph-name="Scedilla" unicode="&#x15e;" horiz-adv-x="519" 
d="M45 73c-2 3 -2 6 1 9l6 5c3 3 6 2 8 -1c10 -15 67 -79 168 -79c105 0 206 71 206 175c0 96 -71 133 -169 168c-94 34 -163 67 -163 171c0 84 67 189 219 189c93 0 152 -51 152 -51c2 -2 3 -5 1 -8l-5 -6c-2 -3 -5 -4 -8 -2c0 0 -57 50 -140 50c-142 0 -202 -98 -202 -172
c0 -93 63 -124 154 -156c109 -38 178 -78 178 -183c0 -110 -102 -192 -223 -192h-7l-6 -44c48 -5 86 -28 86 -78c0 -57 -39 -103 -96 -103c-29 0 -53 16 -65 34c-2 3 -3 7 1 9l5 3c4 3 6 3 10 -2c8 -11 22 -26 52 -26c43 0 75 38 75 82c0 43 -38 64 -81 64c-3 0 -5 2 -5 6
l7 56c-95 9 -151 69 -159 82z" />
    <glyph glyph-name="Scommaaccent" unicode="&#x218;" horiz-adv-x="517" 
d="M44 73c-2 3 -2 6 1 9l6 5c3 3 6 2 8 -1c10 -15 67 -79 168 -79c105 0 206 71 206 175c0 96 -71 133 -169 168c-94 34 -163 67 -163 171c0 84 67 189 219 189c93 0 152 -51 152 -51c2 -2 3 -5 1 -8l-5 -6c-2 -3 -5 -4 -8 -2c0 0 -57 50 -140 50c-142 0 -202 -98 -202 -172
c0 -93 63 -124 154 -156c109 -38 178 -78 178 -183c0 -110 -102 -192 -223 -192c-110 0 -174 69 -183 83zM191 -151c0 14 12 25 25 25c17 0 36 -20 36 -68c0 -89 -68 -121 -73 -124c-2 -1 -5 -1 -7 2l-2 4c-2 5 -1 9 3 11c1 0 51 25 59 83c4 30 1 47 -3 57
c-5 -5 -11 -10 -19 -10c-12 0 -19 10 -19 20z" />
    <glyph glyph-name="Tcaron" unicode="&#x164;" horiz-adv-x="411" 
d="M155 7l95 675h-186c-4 0 -7 3 -6 7l1 5c1 4 4 6 7 6h392c4 0 7 -3 6 -7l-1 -5c-1 -4 -3 -6 -7 -6h-188l-95 -675c-1 -4 -4 -7 -8 -7h-4c-4 0 -7 3 -6 7zM265 771l-101 106c-3 3 -4 5 -1 8l4 4c1 1 3 4 7 1l96 -101l126 102c5 3 6 0 7 -1l3 -5c3 -6 1 -6 -6 -12l-127 -102
c-3 -2 -6 -2 -8 0z" />
    <glyph glyph-name="Tcommaaccent" unicode="&#x162;" horiz-adv-x="410" 
d="M155 7l95 675h-186c-4 0 -7 3 -6 7l1 5c1 4 4 6 7 6h392c4 0 7 -3 6 -7l-1 -5c-1 -4 -3 -6 -7 -6h-188l-95 -675c-1 -4 -4 -7 -8 -7h-4c-4 0 -7 3 -6 7zM114 -136c0 14 12 25 25 25c17 0 36 -20 36 -68c0 -89 -68 -121 -73 -124c-2 -1 -5 -1 -7 2l-2 4c-2 5 -1 9 3 11
c1 0 51 25 59 83c4 30 1 47 -3 57c-5 -5 -11 -10 -19 -10c-12 0 -19 10 -19 20z" />
    <glyph glyph-name="uni021A" unicode="&#x21a;" horiz-adv-x="410" 
d="M155 7l95 675h-186c-4 0 -7 3 -6 7l1 5c1 4 4 6 7 6h392c4 0 7 -3 6 -7l-1 -5c-1 -4 -3 -6 -7 -6h-188l-95 -675c-1 -4 -4 -7 -8 -7h-4c-4 0 -7 3 -6 7zM114 -136c0 14 12 25 25 25c17 0 36 -20 36 -68c0 -89 -68 -121 -73 -124c-2 -1 -5 -1 -7 2l-2 4c-2 5 -1 9 3 11
c1 0 51 25 59 83c4 30 1 47 -3 57c-5 -5 -11 -10 -19 -10c-12 0 -19 10 -19 20z" />
    <glyph glyph-name="Tbar" unicode="&#x166;" horiz-adv-x="410" 
d="M156 7l43 304h-132c-3 0 -6 3 -5 7l1 4c1 3 4 6 8 6h130l50 354h-187c-4 0 -6 3 -5 7l1 5c1 4 3 6 7 6h392c4 0 7 -3 6 -7l-1 -4c-1 -4 -4 -7 -8 -7h-188l-50 -354h135c4 0 7 -2 6 -6l-1 -4c-1 -4 -3 -7 -7 -7h-136l-42 -304c0 -4 -4 -7 -8 -7h-4c-3 0 -6 3 -5 7z" />
    <glyph glyph-name="Thorn" unicode="&#xde;" horiz-adv-x="556" 
d="M72 7l97 686c0 4 4 7 7 7h5c4 0 7 -3 6 -7l-17 -115h177c103 1 177 -89 177 -196c0 -142 -108 -258 -240 -258h-177l-17 -117c0 -4 -4 -7 -8 -7h-4c-4 0 -7 3 -6 7zM109 141h177c113 0 220 108 220 239c0 99 -68 182 -162 181h-176z" />
    <glyph glyph-name="Ugrave" unicode="&#xd9;" horiz-adv-x="673" 
d="M99 252l62 441c1 4 4 7 7 7h5c4 0 6 -3 5 -7l-61 -441c-21 -144 47 -244 180 -244c132 0 230 100 250 244l62 441c1 4 4 7 8 7h5c3 0 6 -3 5 -7l-62 -441c-22 -154 -117 -262 -271 -262c-140 0 -217 108 -195 262zM485 779l-151 90c-3 2 -4 5 -1 9l2 3c3 5 6 4 9 3
l150 -91c3 -2 4 -4 2 -7l-2 -4c-2 -3 -5 -5 -9 -3z" />
    <glyph glyph-name="Uacute" unicode="&#xda;" horiz-adv-x="673" 
d="M99 252l62 441c1 4 4 7 7 7h5c4 0 6 -3 5 -7l-61 -441c-21 -144 47 -244 180 -244c132 0 230 100 250 244l62 441c1 4 4 7 8 7h5c3 0 6 -3 5 -7l-62 -441c-22 -154 -117 -262 -271 -262c-140 0 -217 108 -195 262zM330 777c-5 -2 -6 -1 -8 3l-3 6c-1 2 0 5 4 7l176 91
c3 1 5 2 8 -3l3 -5c2 -4 0 -7 -4 -9z" />
    <glyph glyph-name="Ucircumflex" unicode="&#xdb;" horiz-adv-x="673" 
d="M99 252l62 441c1 4 4 7 7 7h5c4 0 6 -3 5 -7l-61 -441c-21 -144 47 -244 180 -244c132 0 230 100 250 244l62 441c1 4 4 7 8 7h5c3 0 6 -3 5 -7l-62 -441c-22 -154 -117 -262 -271 -262c-140 0 -217 108 -195 262zM294 763c-5 -3 -6 0 -7 1l-3 5c-3 6 -1 6 6 12l127 102
c3 2 6 2 8 0l101 -106c3 -3 4 -5 1 -8l-4 -4c-1 -1 -3 -4 -7 -1l-96 101z" />
    <glyph glyph-name="Utilde" unicode="&#x168;" horiz-adv-x="673" 
d="M99 252l62 441c1 4 4 7 7 7h5c4 0 6 -3 5 -7l-61 -441c-21 -144 47 -244 180 -244c132 0 230 100 250 244l62 441c1 4 4 7 8 7h5c3 0 6 -3 5 -7l-62 -441c-22 -154 -117 -262 -271 -262c-140 0 -217 108 -195 262zM290 802l-7 2c-4 1 -5 4 -3 9c8 19 37 84 90 84
c71 0 38 -108 94 -108c41 0 62 52 70 72c2 5 4 7 7 6l7 -2c4 -1 6 -4 3 -9c-8 -18 -35 -84 -89 -84c-69 0 -41 108 -94 108c-39 0 -65 -58 -71 -73c-2 -5 -5 -6 -7 -5z" />
    <glyph glyph-name="Udieresis" unicode="&#xdc;" horiz-adv-x="673" 
d="M99 252l62 441c1 4 4 7 7 7h5c4 0 6 -3 5 -7l-61 -441c-21 -144 47 -244 180 -244c132 0 230 100 250 244l62 441c1 4 4 7 8 7h5c3 0 6 -3 5 -7l-62 -441c-22 -154 -117 -262 -271 -262c-140 0 -217 108 -195 262zM506 810c-10 0 -17 8 -17 17c0 14 10 24 23 24
c10 0 16 -8 16 -18c0 -13 -10 -23 -22 -23zM319 810c-10 0 -17 8 -17 17c0 14 11 24 23 24c10 0 17 -8 17 -18c0 -13 -10 -23 -23 -23z" />
    <glyph glyph-name="Umacron" unicode="&#x16a;" horiz-adv-x="673" 
d="M99 252l62 441c1 4 4 7 7 7h5c4 0 6 -3 5 -7l-61 -441c-21 -144 47 -244 180 -244c132 0 230 100 250 244l62 441c1 4 4 7 8 7h5c3 0 6 -3 5 -7l-62 -441c-22 -154 -117 -262 -271 -262c-140 0 -217 108 -195 262zM287 842c-5 0 -7 3 -6 7l1 4c1 4 4 7 8 7h258
c4 0 7 -3 6 -7l-1 -4c-1 -4 -3 -7 -7 -7h-259z" />
    <glyph glyph-name="Ubreve" unicode="&#x16c;" horiz-adv-x="673" 
d="M99 252l62 441c1 4 4 7 7 7h5c4 0 6 -3 5 -7l-61 -441c-21 -144 47 -244 180 -244c132 0 230 100 250 244l62 441c1 4 4 7 8 7h5c3 0 6 -3 5 -7l-62 -441c-22 -154 -117 -262 -271 -262c-140 0 -217 108 -195 262zM412 780c-60 0 -99 47 -99 107c0 5 2 8 5 8h5
c4 0 5 -3 5 -6c-1 -54 35 -93 86 -93c49 0 96 39 112 93c1 4 3 6 6 6h6c5 0 5 -4 4 -8c-18 -60 -70 -107 -130 -107z" />
    <glyph glyph-name="Uring" unicode="&#x16e;" horiz-adv-x="673" 
d="M99 252l62 441c1 4 4 7 7 7h5c4 0 6 -3 5 -7l-61 -441c-21 -144 47 -244 180 -244c132 0 230 100 250 244l62 441c1 4 4 7 8 7h5c3 0 6 -3 5 -7l-62 -441c-22 -154 -117 -262 -271 -262c-140 0 -217 108 -195 262zM404 750c-48 0 -81 39 -81 89c0 66 52 119 110 119
c47 0 80 -40 80 -90c0 -66 -52 -118 -109 -118zM406 766c46 0 91 45 91 99c0 41 -25 77 -66 77c-47 0 -91 -46 -91 -99c0 -42 22 -77 66 -77z" />
    <glyph glyph-name="Uhungarumlaut" unicode="&#x170;" horiz-adv-x="673" 
d="M99 252l62 441c1 4 4 7 7 7h5c4 0 6 -3 5 -7l-61 -441c-21 -144 47 -244 180 -244c132 0 230 100 250 244l62 441c1 4 4 7 8 7h5c3 0 6 -3 5 -7l-62 -441c-22 -154 -117 -262 -271 -262c-140 0 -217 108 -195 262zM468 757l-5 3c-2 2 -4 4 0 9l120 173c3 4 5 4 8 2l5 -3
c3 -2 5 -4 1 -9l-120 -173c-4 -4 -6 -4 -9 -2zM319 757l-5 3c-3 2 -4 4 -1 9l120 173c3 4 5 4 9 2l5 -3c3 -2 4 -4 1 -9l-121 -173c-3 -4 -5 -4 -8 -2z" />
    <glyph glyph-name="Uogonek" unicode="&#x172;" horiz-adv-x="675" 
d="M182 -155c0 76 60 125 92 146c-126 10 -194 115 -173 261l62 441c1 4 4 7 7 7h5c4 0 6 -3 5 -7l-61 -441c-21 -144 47 -244 180 -244c132 0 230 100 250 244l62 441c1 4 4 7 8 7h5c3 0 6 -3 5 -7l-62 -441c-22 -152 -114 -259 -264 -262c-5 -3 -104 -57 -104 -141
c0 -46 34 -64 72 -64c30 0 55 10 62 14c6 3 7 0 9 -8c3 -8 -28 -23 -74 -23c-39 0 -86 21 -86 77z" />
    <glyph glyph-name="Wacute" unicode="&#x1e82;" horiz-adv-x="814" 
d="M187 -12l-86 706c0 3 1 5 4 6l9 2c3 1 5 -2 5 -5l80 -666l260 677c3 7 12 7 13 0l78 -676l261 667c1 3 4 4 7 3l7 -3c3 -1 4 -4 2 -8l-276 -703c-3 -7 -11 -7 -12 0l-79 678l-261 -678c-3 -7 -11 -7 -12 0zM398 777c-5 -2 -6 -1 -8 3l-3 6c-1 2 0 5 4 7l176 91
c3 1 5 2 8 -3l3 -5c2 -4 0 -7 -4 -9z" />
    <glyph glyph-name="Wcircumflex" unicode="&#x174;" horiz-adv-x="814" 
d="M187 -12l-86 706c0 3 1 5 4 6l9 2c3 1 5 -2 5 -5l80 -666l260 677c3 7 12 7 13 0l78 -676l261 667c1 3 4 4 7 3l7 -3c3 -1 4 -4 2 -8l-276 -703c-3 -7 -11 -7 -12 0l-79 678l-261 -678c-3 -7 -11 -7 -12 0zM363 763c-5 -3 -6 0 -7 1l-3 5c-3 6 -1 6 6 12l127 102
c3 2 6 2 8 0l101 -106c3 -3 4 -5 1 -8l-4 -4c-1 -1 -3 -4 -7 -1l-96 101z" />
    <glyph glyph-name="Wdieresis" unicode="&#x1e84;" horiz-adv-x="814" 
d="M187 -12l-86 706c0 3 1 5 4 6l9 2c3 1 5 -2 5 -5l80 -666l260 677c3 7 12 7 13 0l78 -676l261 667c1 3 4 4 7 3l7 -3c3 -1 4 -4 2 -8l-276 -703c-3 -7 -11 -7 -12 0l-79 678l-261 -678c-3 -7 -11 -7 -12 0zM574 810c-10 0 -17 8 -17 17c0 14 10 24 23 24
c10 0 16 -8 16 -18c0 -13 -10 -23 -22 -23zM387 810c-10 0 -17 8 -17 17c0 14 11 24 23 24c10 0 17 -8 17 -18c0 -13 -10 -23 -23 -23z" />
    <glyph glyph-name="Wgrave" unicode="&#x1e80;" horiz-adv-x="814" 
d="M187 -12l-86 706c0 3 1 5 4 6l9 2c3 1 5 -2 5 -5l80 -666l260 677c3 7 12 7 13 0l78 -676l261 667c1 3 4 4 7 3l7 -3c3 -1 4 -4 2 -8l-276 -703c-3 -7 -11 -7 -12 0l-79 678l-261 -678c-3 -7 -11 -7 -12 0zM555 779l-151 90c-3 2 -4 5 -1 9l2 3c3 5 6 4 9 3l150 -91
c3 -2 4 -4 2 -7l-2 -4c-2 -3 -5 -5 -9 -3z" />
    <glyph glyph-name="Yacute" unicode="&#xdd;" horiz-adv-x="497" 
d="M199 7l47 336l-188 345c-2 3 -2 7 2 9l6 3c4 2 6 0 8 -3l182 -337l279 338c2 3 5 5 8 3l7 -4c4 -2 3 -6 0 -9l-286 -344l-47 -338c-1 -4 -3 -6 -7 -6h-6c-4 0 -6 2 -5 7zM239 777c-5 -2 -6 -1 -8 3l-3 6c-1 2 0 5 4 7l176 91c3 1 5 2 8 -3l3 -5c2 -4 0 -7 -4 -9z" />
    <glyph glyph-name="Ycircumflex" unicode="&#x176;" horiz-adv-x="497" 
d="M199 7l47 336l-188 345c-2 3 -2 7 2 9l6 3c4 2 6 0 8 -3l182 -337l279 338c2 3 5 5 8 3l7 -4c4 -2 3 -6 0 -9l-286 -344l-47 -338c-1 -4 -3 -6 -7 -6h-6c-4 0 -6 2 -5 7zM203 763c-5 -3 -6 0 -7 1l-3 5c-3 6 -1 6 6 12l127 102c3 2 6 2 8 0l101 -106c3 -3 4 -5 1 -8
l-4 -4c-1 -1 -3 -4 -7 -1l-96 101z" />
    <glyph glyph-name="Ydieresis" unicode="&#x178;" horiz-adv-x="497" 
d="M199 7l47 336l-188 345c-2 3 -2 7 2 9l6 3c4 2 6 0 8 -3l182 -337l279 338c2 3 5 5 8 3l7 -4c4 -2 3 -6 0 -9l-286 -344l-47 -338c-1 -4 -3 -6 -7 -6h-6c-4 0 -6 2 -5 7zM416 810c-10 0 -17 8 -17 17c0 14 10 24 23 24c10 0 16 -8 16 -18c0 -13 -10 -23 -22 -23zM229 810
c-10 0 -17 8 -17 17c0 14 11 24 23 24c10 0 17 -8 17 -18c0 -13 -10 -23 -23 -23z" />
    <glyph glyph-name="Ygrave" unicode="&#x1ef2;" horiz-adv-x="497" 
d="M199 7l47 336l-188 345c-2 3 -2 7 2 9l6 3c4 2 6 0 8 -3l182 -337l279 338c2 3 5 5 8 3l7 -4c4 -2 3 -6 0 -9l-286 -344l-47 -338c-1 -4 -3 -6 -7 -6h-6c-4 0 -6 2 -5 7zM394 779l-151 90c-3 2 -4 5 -1 9l2 3c3 5 6 4 9 3l150 -91c3 -2 4 -4 2 -7l-2 -4
c-2 -3 -5 -5 -9 -3z" />
    <glyph glyph-name="Zacute" unicode="&#x179;" horiz-adv-x="484" 
d="M-3 0c-6 0 -8 6 -4 11l486 671h-356c-4 0 -6 3 -5 7l1 4c1 4 3 7 7 7h376c6 0 8 -6 5 -11l-487 -671h368c4 0 6 -3 5 -7l-1 -4c-1 -4 -4 -7 -8 -7h-387zM254 777c-5 -2 -6 -1 -8 3l-3 6c-1 2 0 5 4 7l176 91c3 1 5 2 8 -3l3 -5c2 -4 0 -7 -4 -9z" />
    <glyph glyph-name="Zcaron" unicode="&#x17d;" horiz-adv-x="484" 
d="M-3 0c-6 0 -8 6 -4 11l486 671h-356c-4 0 -6 3 -5 7l1 4c1 4 3 7 7 7h376c6 0 8 -6 5 -11l-487 -671h368c4 0 6 -3 5 -7l-1 -4c-1 -4 -4 -7 -8 -7h-387zM313 771l-101 106c-3 3 -4 5 -1 8l4 4c1 1 3 4 7 1l96 -101l126 102c5 3 6 0 7 -1l3 -5c3 -6 1 -6 -6 -12l-127 -102
c-3 -2 -6 -2 -8 0z" />
    <glyph glyph-name="Zdotaccent" unicode="&#x17b;" horiz-adv-x="484" 
d="M-3 0c-6 0 -8 6 -4 11l486 671h-356c-4 0 -6 3 -5 7l1 4c1 4 3 7 7 7h376c6 0 8 -6 5 -11l-487 -671h368c4 0 6 -3 5 -7l-1 -4c-1 -4 -4 -7 -8 -7h-387zM330 825c-9 0 -16 7 -16 16c0 12 11 21 21 21s16 -7 16 -16c0 -12 -9 -21 -21 -21z" />
    <glyph glyph-name="agrave" unicode="&#xe0;" 
d="M41 169c0 135 94 241 207 241c66 0 105 -33 123 -54l6 37c1 4 4 7 7 7h4c3 0 6 -3 5 -7l-54 -386c-1 -4 -4 -7 -7 -7h-5c-3 0 -6 3 -5 7l7 51c-20 -27 -75 -68 -139 -68c-92 0 -149 79 -149 179zM59 170c0 -91 50 -162 131 -162c64 0 120 45 143 82l34 239
c-3 7 -39 63 -119 63c-105 0 -189 -96 -189 -222zM355 560l-151 90c-3 2 -4 5 -1 9l2 3c3 5 6 4 9 3l150 -91c3 -2 4 -4 2 -7l-2 -4c-2 -3 -5 -5 -9 -3z" />
    <glyph glyph-name="aacute" unicode="&#xe1;" 
d="M41 169c0 135 94 241 207 241c66 0 105 -33 123 -54l6 37c1 4 4 7 7 7h4c3 0 6 -3 5 -7l-54 -386c-1 -4 -4 -7 -7 -7h-5c-3 0 -6 3 -5 7l7 51c-20 -27 -75 -68 -139 -68c-92 0 -149 79 -149 179zM59 170c0 -91 50 -162 131 -162c64 0 120 45 143 82l34 239
c-3 7 -39 63 -119 63c-105 0 -189 -96 -189 -222zM198 559c-5 -2 -6 -1 -8 3l-3 6c-1 2 0 5 4 7l176 91c3 1 5 2 8 -3l3 -5c2 -4 0 -7 -4 -9z" />
    <glyph glyph-name="acircumflex" unicode="&#xe2;" 
d="M41 169c0 135 94 241 207 241c66 0 105 -33 123 -54l6 37c1 4 4 7 7 7h4c3 0 6 -3 5 -7l-54 -386c-1 -4 -4 -7 -7 -7h-5c-3 0 -6 3 -5 7l7 51c-20 -27 -75 -68 -139 -68c-92 0 -149 79 -149 179zM59 170c0 -91 50 -162 131 -162c64 0 120 45 143 82l34 239
c-3 7 -39 63 -119 63c-105 0 -189 -96 -189 -222zM162 548c-5 -3 -6 0 -7 1l-3 5c-3 6 -1 6 6 12l127 102c3 2 6 2 8 0l101 -106c3 -3 4 -5 1 -8l-4 -4c-1 -1 -3 -4 -7 -1l-96 101z" />
    <glyph glyph-name="atilde" unicode="&#xe3;" 
d="M41 169c0 135 94 241 207 241c66 0 105 -33 123 -54l6 37c1 4 4 7 7 7h4c3 0 6 -3 5 -7l-54 -386c-1 -4 -4 -7 -7 -7h-5c-3 0 -6 3 -5 7l7 51c-20 -27 -75 -68 -139 -68c-92 0 -149 79 -149 179zM59 170c0 -91 50 -162 131 -162c64 0 120 45 143 82l34 239
c-3 7 -39 63 -119 63c-105 0 -189 -96 -189 -222zM158 583l-7 2c-4 1 -5 4 -3 9c8 19 37 84 90 84c71 0 38 -108 94 -108c41 0 62 52 70 72c2 5 4 7 7 6l7 -2c4 -1 6 -4 3 -9c-8 -18 -35 -84 -89 -84c-69 0 -41 108 -94 108c-39 0 -65 -58 -71 -73c-2 -5 -5 -6 -7 -5z" />
    <glyph glyph-name="adieresis" unicode="&#xe4;" 
d="M41 169c0 135 94 241 207 241c66 0 105 -33 123 -54l6 37c1 4 4 7 7 7h4c3 0 6 -3 5 -7l-54 -386c-1 -4 -4 -7 -7 -7h-5c-3 0 -6 3 -5 7l7 51c-20 -27 -75 -68 -139 -68c-92 0 -149 79 -149 179zM59 170c0 -91 50 -162 131 -162c64 0 120 45 143 82l34 239
c-3 7 -39 63 -119 63c-105 0 -189 -96 -189 -222zM369 607c-10 0 -16 8 -16 17c0 13 10 24 22 24c10 0 17 -8 17 -18c0 -13 -10 -23 -23 -23zM199 607c-10 0 -17 8 -17 17c0 14 11 24 23 24c10 0 16 -8 16 -18c0 -13 -9 -23 -22 -23z" />
    <glyph glyph-name="amacron" unicode="&#x101;" 
d="M41 169c0 135 94 241 207 241c66 0 105 -33 123 -54l6 37c1 4 4 7 7 7h4c3 0 6 -3 5 -7l-54 -386c-1 -4 -4 -7 -7 -7h-5c-3 0 -6 3 -5 7l7 51c-20 -27 -75 -68 -139 -68c-92 0 -149 79 -149 179zM59 170c0 -91 50 -162 131 -162c64 0 120 45 143 82l34 239
c-3 7 -39 63 -119 63c-105 0 -189 -96 -189 -222zM154 607c-5 0 -7 3 -6 7l1 4c1 4 4 7 8 7h258c4 0 7 -3 6 -7l-1 -4c-1 -4 -3 -7 -7 -7h-259z" />
    <glyph glyph-name="abreve" unicode="&#x103;" 
d="M41 169c0 135 94 241 207 241c66 0 105 -33 123 -54l6 37c1 4 4 7 7 7h4c3 0 6 -3 5 -7l-54 -386c-1 -4 -4 -7 -7 -7h-5c-3 0 -6 3 -5 7l7 51c-20 -27 -75 -68 -139 -68c-92 0 -149 79 -149 179zM59 170c0 -91 50 -162 131 -162c64 0 120 45 143 82l34 239
c-3 7 -39 63 -119 63c-105 0 -189 -96 -189 -222zM277 545c-60 0 -99 47 -99 107c0 5 2 8 5 8h5c4 0 5 -3 5 -6c-1 -54 35 -93 86 -93c49 0 96 39 112 93c1 4 3 6 6 6h6c5 0 5 -4 4 -8c-18 -60 -70 -107 -130 -107z" />
    <glyph glyph-name="aring" unicode="&#xe5;" 
d="M41 169c0 135 94 241 207 241c66 0 105 -33 123 -54l6 37c1 4 4 7 7 7h4c3 0 6 -3 5 -7l-54 -386c-1 -4 -4 -7 -7 -7h-5c-3 0 -6 3 -5 7l7 51c-20 -27 -75 -68 -139 -68c-92 0 -149 79 -149 179zM59 170c0 -91 50 -162 131 -162c64 0 120 45 143 82l34 239
c-3 7 -39 63 -119 63c-105 0 -189 -96 -189 -222zM271 500c-48 0 -81 39 -81 89c0 66 52 119 110 119c47 0 80 -40 80 -90c0 -66 -52 -118 -109 -118zM273 516c46 0 91 45 91 99c0 41 -25 77 -66 77c-47 0 -91 -46 -91 -99c0 -42 22 -77 66 -77z" />
    <glyph glyph-name="aringacute" unicode="&#x1fb;" 
d="M40 169c0 135 94 241 207 241c66 0 105 -33 123 -54l6 37c1 4 4 7 7 7h4c3 0 6 -3 5 -7l-54 -386c-1 -4 -4 -7 -7 -7h-5c-3 0 -6 3 -5 7l8 55c-20 -27 -76 -72 -140 -72c-92 0 -149 79 -149 179zM58 170c0 -91 50 -162 131 -162c88 0 139 79 144 88l33 233
c-3 7 -39 63 -119 63c-105 0 -189 -96 -189 -222zM262 433c-48 0 -81 39 -81 89c0 66 52 119 110 119c47 0 80 -40 80 -90c0 -66 -52 -118 -109 -118zM264 449c46 0 91 45 91 99c0 41 -25 77 -66 77c-47 0 -91 -46 -91 -99c0 -42 22 -77 66 -77zM216 644c-5 -2 -6 -1 -8 3
l-3 6c-1 2 0 5 4 7l176 91c3 1 5 2 8 -3l3 -5c2 -4 0 -7 -4 -9z" />
    <glyph glyph-name="aogonek" unicode="&#x105;" 
d="M40 169c0 135 94 241 207 241c66 0 105 -33 123 -54l6 37c1 4 4 7 7 7h4c3 0 6 -3 5 -7l-53 -382c-1 -7 -3 -9 -8 -12c-4 -1 -100 -54 -100 -138c0 -46 34 -64 72 -64c30 0 55 10 62 14c6 3 7 0 9 -8c3 -8 -28 -23 -74 -23c-39 0 -86 21 -86 77c0 91 87 144 107 155l8 50
c-20 -27 -76 -72 -140 -72c-92 0 -149 79 -149 179zM58 170c0 -91 50 -162 131 -162c88 0 139 79 144 88l33 233c-3 7 -39 63 -119 63c-105 0 -189 -96 -189 -222z" />
    <glyph glyph-name="ae" unicode="&#xe6;" horiz-adv-x="659" 
d="M25 105c0 92 74 157 178 157c44 0 87 -15 105 -23c15 104 12 153 -79 153c-68 0 -114 -30 -115 -30c-4 -2 -7 -2 -8 2l-2 6c-1 4 1 6 3 7c0 0 51 33 125 33c60 0 90 -21 98 -64c37 40 83 64 137 64c85 0 141 -65 141 -156c0 -42 -8 -62 -17 -62h-271l-16 -121
c18 -33 61 -63 107 -63c56 0 103 24 126 42c3 2 4 1 7 -2l4 -5c3 -3 0 -7 -3 -10c-18 -17 -80 -43 -137 -43c-52 0 -92 27 -117 65c-29 -28 -93 -65 -159 -65c-63 0 -107 45 -107 115zM323 210h262c3 10 5 27 5 44c1 83 -48 138 -125 138c-54 0 -101 -26 -133 -68
c1 -31 -5 -75 -9 -114zM42 107c0 -61 39 -99 93 -99c64 0 127 38 150 64l21 149c-12 4 -56 23 -105 23c-93 0 -159 -55 -159 -137z" />
    <glyph glyph-name="aeacute" unicode="&#x1fd;" horiz-adv-x="659" 
d="M25 105c0 92 74 157 178 157c44 0 87 -15 105 -23c15 104 12 153 -79 153c-68 0 -114 -30 -115 -30c-4 -2 -7 -2 -8 2l-2 6c-1 4 1 6 3 7c0 0 51 33 125 33c60 0 90 -21 98 -64c37 40 83 64 137 64c85 0 141 -65 141 -156c0 -42 -8 -62 -17 -62h-271l-16 -121
c18 -33 61 -63 107 -63c56 0 103 24 126 42c3 2 4 1 7 -2l4 -5c3 -3 0 -7 -3 -10c-18 -17 -80 -43 -137 -43c-52 0 -92 27 -117 65c-29 -28 -93 -65 -159 -65c-63 0 -107 45 -107 115zM323 210h262c3 10 5 27 5 44c1 83 -48 138 -125 138c-54 0 -101 -26 -133 -68
c1 -31 -5 -75 -9 -114zM42 107c0 -61 39 -99 93 -99c64 0 127 38 150 64l21 149c-12 4 -56 23 -105 23c-93 0 -159 -55 -159 -137zM334 559c-5 -2 -6 -1 -8 3l-3 6c-1 2 0 5 4 7l176 91c3 1 5 2 8 -3l3 -5c2 -4 0 -7 -4 -9z" />
    <glyph glyph-name="cacute" unicode="&#x107;" horiz-adv-x="440" 
d="M39 173c0 140 107 237 224 237c83 0 127 -51 130 -55c2 -3 1 -6 -1 -8l-4 -4c-3 -3 -6 -2 -9 1c-6 6 -44 49 -116 49c-107 0 -206 -91 -206 -220c0 -94 66 -165 147 -165c80 0 138 61 141 64s6 3 8 1l5 -5c2 -2 3 -5 0 -8c-2 -2 -67 -70 -154 -70c-91 0 -165 78 -165 183
zM207 559c-5 -2 -6 -1 -8 3l-3 6c-1 2 0 5 4 7l176 91c3 1 5 2 8 -3l3 -5c2 -4 0 -7 -4 -9z" />
    <glyph glyph-name="ccircumflex" unicode="&#x109;" horiz-adv-x="440" 
d="M39 173c0 140 107 237 224 237c83 0 127 -51 130 -55c2 -3 1 -6 -1 -8l-4 -4c-3 -3 -6 -2 -9 1c-6 6 -44 49 -116 49c-107 0 -206 -91 -206 -220c0 -94 66 -165 147 -165c80 0 138 61 141 64s6 3 8 1l5 -5c2 -2 3 -5 0 -8c-2 -2 -67 -70 -154 -70c-91 0 -165 78 -165 183
zM169 548c-5 -3 -6 0 -7 1l-3 5c-3 6 -1 6 6 12l127 102c3 2 6 2 8 0l101 -106c3 -3 4 -5 1 -8l-4 -4c-1 -1 -3 -4 -7 -1l-96 101z" />
    <glyph glyph-name="ccaron" unicode="&#x10d;" horiz-adv-x="440" 
d="M39 173c0 140 107 237 224 237c83 0 127 -51 130 -55c2 -3 1 -6 -1 -8l-4 -4c-3 -3 -6 -2 -9 1c-6 6 -44 49 -116 49c-107 0 -206 -91 -206 -220c0 -94 66 -165 147 -165c80 0 138 61 141 64s6 3 8 1l5 -5c2 -2 3 -5 0 -8c-2 -2 -67 -70 -154 -70c-91 0 -165 78 -165 183
zM278 553l-101 106c-3 3 -4 5 -1 8l4 4c1 1 3 4 7 1l96 -101l126 102c5 3 6 0 7 -1l3 -5c3 -6 1 -6 -6 -12l-127 -102c-3 -2 -6 -2 -8 0z" />
    <glyph glyph-name="cdotaccent" unicode="&#x10b;" horiz-adv-x="440" 
d="M39 173c0 140 107 237 224 237c83 0 127 -51 130 -55c2 -3 1 -6 -1 -8l-4 -4c-3 -3 -6 -2 -9 1c-6 6 -44 49 -116 49c-107 0 -206 -91 -206 -220c0 -94 66 -165 147 -165c80 0 138 61 141 64s6 3 8 1l5 -5c2 -2 3 -5 0 -8c-2 -2 -67 -70 -154 -70c-91 0 -165 78 -165 183
zM288 599c-8 0 -15 8 -15 17c0 11 10 20 21 20c9 0 15 -7 15 -16c0 -11 -9 -21 -21 -21z" />
    <glyph glyph-name="ccedilla" unicode="&#xe7;" horiz-adv-x="443" 
d="M175 -7c-76 15 -134 87 -134 180c0 140 107 237 224 237c83 0 127 -51 130 -55c2 -3 1 -6 -1 -8l-4 -4c-3 -3 -6 -2 -9 1c-6 6 -44 49 -116 49c-107 0 -206 -91 -206 -220c0 -94 66 -165 147 -165c80 0 138 61 141 64s6 3 8 1l5 -5c2 -2 3 -5 0 -8
c-2 -2 -67 -70 -154 -70c-5 0 -10 0 -15 1l-6 -45c48 -5 86 -28 86 -78c0 -57 -39 -103 -96 -103c-29 0 -53 16 -65 34c-2 3 -3 7 1 9l5 3c4 3 6 3 10 -2c8 -11 22 -26 52 -26c43 0 75 38 75 82c0 43 -38 64 -81 64c-3 0 -5 2 -5 6z" />
    <glyph glyph-name="dcaron" unicode="&#x10f;" horiz-adv-x="486" 
d="M40 169c0 137 96 241 213 241c76 0 117 -53 117 -53l47 336c0 4 3 7 7 7h5c3 0 6 -3 5 -7l-96 -686c-1 -6 -4 -7 -7 -7h-5c-3 0 -6 3 -5 7l7 48c-25 -27 -76 -65 -143 -65c-88 0 -145 79 -145 179zM58 169c0 -91 50 -161 127 -161c89 0 142 68 147 75l35 248
s-37 61 -114 61c-109 0 -195 -97 -195 -223zM518 518c-2 -1 -5 -1 -7 2l-2 4c-2 5 -1 9 3 11c1 0 51 25 59 83c4 30 1 47 -3 57c-5 -5 -11 -10 -19 -10c-12 0 -19 10 -19 20c0 14 12 25 25 25c17 0 36 -20 36 -68c0 -89 -68 -121 -73 -124z" />
    <glyph glyph-name="dcroat" unicode="&#x111;" 
d="M40 169c0 137 96 241 213 241c76 0 117 -53 117 -53l27 191h-203c-4 0 -6 3 -6 7l1 4c0 4 4 7 8 7h203l17 127c1 4 4 7 9 7h3c3 0 6 -3 5 -7l-18 -127h40c4 0 7 -3 6 -7l-1 -4c-1 -4 -4 -7 -8 -7h-39l-76 -541c-1 -4 -3 -7 -7 -7h-4c-3 0 -7 2 -6 7l7 48
c-25 -27 -76 -65 -147 -65c-84 0 -141 79 -141 179zM57 171c0 -91 51 -163 127 -163c90 0 143 68 148 75l35 248s-37 61 -117 61c-106 0 -193 -95 -193 -221z" />
    <glyph glyph-name="eth" unicode="&#xf0;" horiz-adv-x="523" 
d="M41 191c0 153 116 252 230 252c106 0 159 -75 181 -118c4 125 -46 213 -102 272l-130 -77c-3 -2 -7 -1 -8 3l-1 3c-2 3 0 7 4 9l123 73c-44 43 -91 68 -115 79c-3 2 -4 4 -2 8l3 7c1 3 5 4 8 3c26 -11 77 -39 124 -87l67 39c3 2 6 1 8 -2l1 -3c2 -4 0 -8 -4 -10l-61 -36
c55 -59 103 -154 103 -273c0 -188 -102 -343 -257 -343c-99 0 -172 90 -172 201zM58 193c0 -102 67 -185 158 -185c124 0 211 117 232 268c1 5 2 12 2 14c-4 9 -49 135 -181 135c-105 0 -211 -90 -211 -232z" />
    <glyph glyph-name="egrave" unicode="&#xe8;" horiz-adv-x="434" 
d="M40 164c0 137 90 246 210 246c85 0 141 -50 141 -110c0 -74 -86 -118 -222 -117c-34 0 -70 3 -109 9c-1 -9 -2 -18 -2 -27c-1 -90 48 -157 136 -157c56 0 104 25 127 43c5 4 7 1 8 -1l3 -6c1 -2 0 -4 -2 -6c-18 -18 -81 -48 -136 -48c-104 0 -154 79 -154 174zM62 209
c38 -5 74 -8 106 -8c127 -1 206 38 205 99c0 44 -47 92 -123 92c-99 0 -172 -79 -188 -183zM350 560l-151 90c-3 2 -4 5 -1 9l2 3c3 5 6 4 9 3l150 -91c3 -2 4 -4 2 -7l-2 -4c-2 -3 -5 -5 -9 -3z" />
    <glyph glyph-name="eacute" unicode="&#xe9;" horiz-adv-x="434" 
d="M40 164c0 137 90 246 210 246c85 0 141 -50 141 -110c0 -74 -86 -118 -222 -117c-34 0 -70 3 -109 9c-1 -9 -2 -18 -2 -27c-1 -90 48 -157 136 -157c56 0 104 25 127 43c5 4 7 1 8 -1l3 -6c1 -2 0 -4 -2 -6c-18 -18 -81 -48 -136 -48c-104 0 -154 79 -154 174zM62 209
c38 -5 74 -8 106 -8c127 -1 206 38 205 99c0 44 -47 92 -123 92c-99 0 -172 -79 -188 -183zM194 559c-5 -2 -6 -1 -8 3l-3 6c-1 2 0 5 4 7l176 91c3 1 5 2 8 -3l3 -5c2 -4 0 -7 -4 -9z" />
    <glyph glyph-name="ecircumflex" unicode="&#xea;" horiz-adv-x="434" 
d="M40 164c0 137 90 246 210 246c85 0 141 -50 141 -110c0 -74 -86 -118 -222 -117c-34 0 -70 3 -109 9c-1 -9 -2 -18 -2 -27c-1 -90 48 -157 136 -157c56 0 104 25 127 43c5 4 7 1 8 -1l3 -6c1 -2 0 -4 -2 -6c-18 -18 -81 -48 -136 -48c-104 0 -154 79 -154 174zM62 209
c38 -5 74 -8 106 -8c127 -1 206 38 205 99c0 44 -47 92 -123 92c-99 0 -172 -79 -188 -183zM158 548c-5 -3 -6 0 -7 1l-3 5c-3 6 -1 6 6 12l127 102c3 2 6 2 8 0l101 -106c3 -3 4 -5 1 -8l-4 -4c-1 -1 -3 -4 -7 -1l-96 101z" />
    <glyph glyph-name="ecaron" unicode="&#x11b;" horiz-adv-x="434" 
d="M40 164c0 137 90 246 210 246c85 0 141 -50 141 -110c0 -74 -86 -118 -222 -117c-34 0 -70 3 -109 9c-1 -9 -2 -18 -2 -27c-1 -90 48 -157 136 -157c56 0 104 25 127 43c5 4 7 1 8 -1l3 -6c1 -2 0 -4 -2 -6c-18 -18 -81 -48 -136 -48c-104 0 -154 79 -154 174zM62 209
c38 -5 74 -8 106 -8c127 -1 206 38 205 99c0 44 -47 92 -123 92c-99 0 -172 -79 -188 -183zM266 553l-101 106c-3 3 -4 5 -1 8l4 4c1 1 3 4 7 1l96 -101l126 102c5 3 6 0 7 -1l3 -5c3 -6 1 -6 -6 -12l-127 -102c-3 -2 -6 -2 -8 0z" />
    <glyph glyph-name="edieresis" unicode="&#xeb;" horiz-adv-x="434" 
d="M40 164c0 137 90 246 210 246c85 0 141 -50 141 -110c0 -74 -86 -118 -222 -117c-34 0 -70 3 -109 9c-1 -9 -2 -18 -2 -27c-1 -90 48 -157 136 -157c56 0 104 25 127 43c5 4 7 1 8 -1l3 -6c1 -2 0 -4 -2 -6c-18 -18 -81 -48 -136 -48c-104 0 -154 79 -154 174zM62 209
c38 -5 74 -8 106 -8c127 -1 206 38 205 99c0 44 -47 92 -123 92c-99 0 -172 -79 -188 -183zM363 607c-10 0 -16 8 -16 17c0 13 10 24 22 24c10 0 17 -8 17 -18c0 -13 -10 -23 -23 -23zM193 607c-10 0 -17 8 -17 17c0 14 11 24 23 24c10 0 16 -8 16 -18c0 -13 -9 -23 -22 -23
z" />
    <glyph glyph-name="emacron" unicode="&#x113;" horiz-adv-x="434" 
d="M40 164c0 137 90 246 210 246c85 0 141 -50 141 -110c0 -74 -86 -118 -222 -117c-34 0 -70 3 -109 9c-1 -9 -2 -18 -2 -27c-1 -90 48 -157 136 -157c56 0 104 25 127 43c5 4 7 1 8 -1l3 -6c1 -2 0 -4 -2 -6c-18 -18 -81 -48 -136 -48c-104 0 -154 79 -154 174zM62 209
c38 -5 74 -8 106 -8c127 -1 206 38 205 99c0 44 -47 92 -123 92c-99 0 -172 -79 -188 -183zM149 607c-5 0 -7 3 -6 7l1 4c1 4 4 7 8 7h258c4 0 7 -3 6 -7l-1 -4c-1 -4 -3 -7 -7 -7h-259z" />
    <glyph glyph-name="ebreve" unicode="&#x115;" horiz-adv-x="434" 
d="M40 164c0 137 90 246 210 246c85 0 141 -50 141 -110c0 -74 -86 -118 -222 -117c-34 0 -70 3 -109 9c-1 -9 -2 -18 -2 -27c-1 -90 48 -157 136 -157c56 0 104 25 127 43c5 4 7 1 8 -1l3 -6c1 -2 0 -4 -2 -6c-18 -18 -81 -48 -136 -48c-104 0 -154 79 -154 174zM62 209
c38 -5 74 -8 106 -8c127 -1 206 38 205 99c0 44 -47 92 -123 92c-99 0 -172 -79 -188 -183zM272 545c-60 0 -99 47 -99 107c0 5 2 8 5 8h5c4 0 5 -3 5 -6c-1 -54 35 -93 86 -93c49 0 96 39 112 93c1 4 3 6 6 6h6c5 0 5 -4 4 -8c-18 -60 -70 -107 -130 -107z" />
    <glyph glyph-name="edotaccent" unicode="&#x117;" horiz-adv-x="434" 
d="M40 164c0 137 90 246 210 246c85 0 141 -50 141 -110c0 -74 -86 -118 -222 -117c-34 0 -70 3 -109 9c-1 -9 -2 -18 -2 -27c-1 -90 48 -157 136 -157c56 0 104 25 127 43c5 4 7 1 8 -1l3 -6c1 -2 0 -4 -2 -6c-18 -18 -81 -48 -136 -48c-104 0 -154 79 -154 174zM62 209
c38 -5 74 -8 106 -8c127 -1 206 38 205 99c0 44 -47 92 -123 92c-99 0 -172 -79 -188 -183zM277 599c-8 0 -15 8 -15 17c0 11 10 20 21 20c9 0 15 -7 15 -16c0 -11 -9 -21 -21 -21z" />
    <glyph glyph-name="eogonek" unicode="&#x119;" horiz-adv-x="436" 
d="M41 164c0 137 90 246 210 246c85 0 141 -50 141 -110c0 -78 -96 -122 -246 -116c-27 1 -55 4 -85 8c-1 -10 -2 -19 -2 -29c0 -89 48 -155 136 -155c56 0 104 25 127 43c5 4 7 1 8 -1l3 -6c1 -2 0 -4 -2 -6c-15 -15 -58 -36 -102 -44c-23 -13 -93 -62 -93 -133
c0 -46 34 -64 72 -64c30 0 55 10 62 14c6 3 7 0 9 -8c3 -8 -28 -23 -74 -23c-39 0 -86 21 -86 77c0 65 45 110 78 133h-2c-104 0 -154 79 -154 174zM63 209c29 -4 56 -7 82 -8c141 -6 230 34 229 99c0 44 -47 92 -123 92c-99 0 -172 -79 -188 -183z" />
    <glyph glyph-name="gcircumflex" unicode="&#x11d;" horiz-adv-x="457" 
d="M166 548c-5 -3 -6 0 -7 1l-3 5c-3 6 -1 6 6 12l127 102c3 2 6 2 8 0l101 -106c3 -3 4 -5 1 -8l-4 -4c-1 -1 -3 -4 -7 -1l-96 101z" />
    <glyph glyph-name="gbreve" unicode="&#x11f;" horiz-adv-x="457" 
d="M284 545c-60 0 -99 47 -99 107c0 5 2 8 5 8h5c4 0 5 -3 5 -6c-1 -54 35 -93 86 -93c49 0 96 39 112 93c1 4 3 6 6 6h6c5 0 5 -4 4 -8c-18 -60 -70 -107 -130 -107z" />
    <glyph glyph-name="gdotaccent" unicode="&#x121;" horiz-adv-x="457" 
d="M285 599c-8 0 -15 8 -15 17c0 11 10 20 21 20c9 0 15 -7 15 -16c0 -11 -9 -21 -21 -21z" />
    <glyph glyph-name="gcommaaccent" unicode="&#x123;" horiz-adv-x="457" 
d="M41 170c0 135 94 240 207 240c66 0 105 -33 123 -54l6 37c1 4 4 7 7 7h4c3 0 6 -3 5 -7l-61 -459c-20 -144 -91 -194 -173 -194c-73 0 -118 54 -129 68c-3 4 -2 6 1 9l5 4c3 2 5 1 7 -1c12 -15 53 -63 117 -63c79 0 138 60 154 179l13 103c-22 -20 -64 -49 -124 -49
c-101 0 -162 79 -162 180zM59 170c0 -90 54 -162 144 -162c74 0 120 49 127 58l37 263c-3 7 -39 63 -119 63c-105 0 -189 -96 -189 -222zM284 712c0 14 12 25 25 25c17 0 36 -20 36 -68c0 -89 -68 -121 -73 -124c-2 -1 -5 -1 -7 2l-2 4c-2 5 -1 9 3 11c1 0 51 25 59 83
c4 30 1 47 -3 57c-5 -5 -11 -10 -19 -10c-12 0 -19 10 -19 20z" />
    <glyph glyph-name="hcircumflex" unicode="&#x125;" horiz-adv-x="462" 
d="M42 7l97 686c1 4 4 7 8 7h4c4 0 7 -3 6 -7l-51 -358c26 27 80 75 151 75c96 0 140 -65 122 -186l-30 -217c-1 -4 -4 -7 -8 -7h-4c-4 0 -7 3 -6 7l31 217c15 109 -23 168 -105 168c-83 0 -146 -74 -155 -85l-42 -300c-1 -4 -4 -7 -8 -7h-4c-4 0 -7 3 -6 7zM47 765
c-5 -3 -6 0 -7 1l-3 5c-3 6 -1 6 6 12l127 102c3 2 6 2 8 0l101 -106c3 -3 4 -5 1 -8l-4 -4c-1 -1 -3 -4 -7 -1l-96 101z" />
    <glyph glyph-name="hbar" unicode="&#x127;" horiz-adv-x="470" 
d="M42 7l77 541h-40c-4 0 -6 3 -5 7l1 4c1 4 3 7 7 7h39l18 127c0 4 4 7 8 7h4c4 0 7 -3 6 -7l-18 -127h202c4 0 7 -3 6 -7l-1 -4c-1 -4 -4 -7 -8 -7h-202l-30 -213c25 27 80 75 151 75c95 0 147 -65 130 -186l-30 -217c-1 -4 -2 -7 -8 -7h-4c-4 0 -7 3 -6 7l30 217
c16 109 -29 168 -115 168c-81 0 -144 -74 -152 -85l-42 -300c0 -4 -4 -7 -8 -7h-4c-4 0 -7 3 -6 7z" />
    <glyph glyph-name="dotlessi" unicode="&#x131;" horiz-adv-x="177" 
d="M41 7l55 386c1 5 4 7 8 7h4c4 0 7 -3 6 -7l-55 -386c-1 -4 -4 -7 -8 -7h-4c-4 0 -7 3 -6 7z" />
    <glyph glyph-name="igrave" unicode="&#xec;" horiz-adv-x="177" 
d="M41 7l55 386c1 5 4 7 8 7h4c4 0 7 -3 6 -7l-55 -386c-1 -4 -4 -7 -8 -7h-4c-4 0 -7 3 -6 7zM208 560l-151 90c-3 2 -4 5 -1 9l2 3c3 5 6 4 9 3l150 -91c3 -2 4 -4 2 -7l-2 -4c-2 -3 -5 -5 -9 -3z" />
    <glyph glyph-name="iacute" unicode="&#xed;" horiz-adv-x="177" 
d="M41 7l55 386c1 5 4 7 8 7h4c4 0 7 -3 6 -7l-55 -386c-1 -4 -4 -7 -8 -7h-4c-4 0 -7 3 -6 7zM51 559c-5 -2 -6 -1 -8 3l-3 6c-1 2 0 5 4 7l176 91c3 1 5 2 8 -3l3 -5c2 -4 0 -7 -4 -9z" />
    <glyph glyph-name="ibreve" unicode="&#x12d;" horiz-adv-x="177" 
d="M41 7l55 386c1 5 4 7 8 7h4c4 0 7 -3 6 -7l-55 -386c-1 -4 -4 -7 -8 -7h-4c-4 0 -7 3 -6 7zM132 545c-60 0 -99 47 -99 107c0 5 2 8 5 8h5c4 0 5 -3 5 -6c-1 -54 35 -93 86 -93c49 0 96 39 112 93c1 4 3 6 6 6h6c5 0 5 -4 4 -8c-18 -60 -70 -107 -130 -107z" />
    <glyph glyph-name="icircumflex" unicode="&#xee;" horiz-adv-x="177" 
d="M41 7l55 386c1 5 4 7 8 7h4c4 0 7 -3 6 -7l-55 -386c-1 -4 -4 -7 -8 -7h-4c-4 0 -7 3 -6 7zM16 548c-5 -3 -6 0 -7 1l-3 5c-3 6 -1 6 6 12l127 102c3 2 6 2 8 0l101 -106c3 -3 4 -5 1 -8l-4 -4c-1 -1 -3 -4 -7 -1l-96 101z" />
    <glyph glyph-name="itilde" unicode="&#x129;" horiz-adv-x="177" 
d="M41 7l55 386c1 5 4 7 8 7h4c4 0 7 -3 6 -7l-55 -386c-1 -4 -4 -7 -8 -7h-4c-4 0 -7 3 -6 7zM12 583l-7 2c-4 1 -5 4 -3 9c8 19 37 84 90 84c71 0 38 -108 94 -108c41 0 62 52 70 72c2 5 4 7 7 6l7 -2c4 -1 6 -4 3 -9c-8 -18 -35 -84 -89 -84c-69 0 -41 108 -94 108
c-39 0 -65 -58 -71 -73c-2 -5 -5 -6 -7 -5z" />
    <glyph glyph-name="idieresis" unicode="&#xef;" horiz-adv-x="177" 
d="M41 7l55 386c1 5 4 7 8 7h4c4 0 7 -3 6 -7l-55 -386c-1 -4 -4 -7 -8 -7h-4c-4 0 -7 3 -6 7zM221 607c-10 0 -16 8 -16 17c0 13 10 24 22 24c10 0 17 -8 17 -18c0 -13 -10 -23 -23 -23zM51 607c-10 0 -17 8 -17 17c0 14 11 24 23 24c10 0 16 -8 16 -18
c0 -13 -9 -23 -22 -23z" />
    <glyph glyph-name="imacron" unicode="&#x12b;" horiz-adv-x="177" 
d="M41 7l55 386c1 5 4 7 8 7h4c4 0 7 -3 6 -7l-55 -386c-1 -4 -4 -7 -8 -7h-4c-4 0 -7 3 -6 7zM7 607c-5 0 -7 3 -6 7l1 4c1 4 4 7 8 7h258c4 0 7 -3 6 -7l-1 -4c-1 -4 -3 -7 -7 -7h-259z" />
    <glyph glyph-name="iogonek" unicode="&#x12f;" horiz-adv-x="178" 
d="M137 607c-10 0 -17 8 -17 17c0 13 10 24 22 24c10 0 16 -9 16 -18c0 -13 -10 -23 -21 -23zM43 12l54 381c1 4 4 7 8 7h4c4 0 7 -3 6 -7l-55 -384c-1 -5 -2 -7 -7 -10c-6 -3 -100 -54 -100 -138c0 -46 34 -64 72 -64c30 0 55 10 62 14c6 3 7 0 9 -8c3 -8 -28 -23 -74 -23
c-39 0 -86 21 -86 77c0 91 87 144 107 155z" />
    <glyph glyph-name="dotlessj" unicode="&#x237;" horiz-adv-x="178" 
d="M22 -134l75 527c1 4 3 7 7 7h4c4 0 7 -3 6 -7l-74 -527c-17 -120 -69 -176 -151 -176c-49 0 -83 25 -96 43c-2 3 -2 7 2 10l3 2c3 2 6 3 9 0c13 -15 39 -38 82 -38c73 0 118 51 133 159z" />
    <glyph glyph-name="jcircumflex" unicode="&#x135;" horiz-adv-x="178" 
d="M22 -134l75 527c1 4 3 7 7 7h4c4 0 7 -3 6 -7l-74 -527c-17 -120 -69 -176 -151 -176c-49 0 -83 25 -96 43c-2 3 -2 7 2 10l3 2c3 2 6 3 9 0c13 -15 39 -38 82 -38c73 0 118 51 133 159zM15 548c-5 -3 -6 0 -7 1l-3 5c-3 6 -1 6 6 12l127 102c3 2 6 2 8 0l101 -106
c3 -3 4 -5 1 -8l-4 -4c-1 -1 -3 -4 -7 -1l-96 101z" />
    <glyph glyph-name="kcommaaccent" unicode="&#x137;" horiz-adv-x="382" 
d="M42 7l97 686c1 4 4 7 8 7h4c4 0 7 -3 6 -7l-66 -462l257 174c3 2 6 2 8 -1l4 -7c2 -3 0 -6 -3 -8l-249 -169l209 -209c3 -3 2 -8 0 -10l-5 -4c-3 -2 -7 -2 -10 1l-213 216l-29 -207c-1 -4 -4 -7 -8 -7h-4c-4 0 -7 3 -6 7zM113 -136c0 14 12 25 25 25c17 0 36 -20 36 -68
c0 -89 -68 -121 -73 -124c-2 -1 -5 -1 -7 2l-2 4c-2 5 -1 9 3 11c1 0 51 25 59 83c4 30 1 47 -3 57c-5 -5 -11 -10 -19 -10c-12 0 -19 10 -19 20z" />
    <glyph glyph-name="kgreenlandic" unicode="&#x138;" horiz-adv-x="381" 
d="M41 7l55 386c0 4 4 7 8 7h3c4 0 6 -3 6 -7l-26 -185l261 197c3 2 5 2 7 -1l4 -7c2 -3 0 -6 -2 -8l-256 -191l215 -187c3 -2 3 -6 0 -9l-4 -5c-2 -3 -5 -3 -7 -1l-221 195l-26 -184c0 -4 -4 -7 -8 -7h-3c-4 0 -6 3 -6 7z" />
    <glyph glyph-name="lacute" unicode="&#x13a;" horiz-adv-x="178" 
d="M42 7l97 686c1 4 4 7 7 7h5c3 0 6 -3 5 -7l-96 -686c-1 -4 -4 -7 -8 -7h-4c-4 0 -7 3 -6 7zM81 776c-5 -2 -6 -1 -8 3l-3 6c-1 2 0 5 4 7l176 91c3 1 5 2 8 -3l3 -5c2 -4 0 -7 -4 -9z" />
    <glyph glyph-name="lcaron" unicode="&#x13e;" horiz-adv-x="208" 
d="M42 7l97 686c1 4 4 7 7 7h5c3 0 6 -3 5 -7l-96 -686c-1 -4 -4 -7 -8 -7h-4c-4 0 -7 3 -6 7zM254 518c-2 -1 -5 -1 -7 2l-2 4c-2 5 -1 9 3 11c1 0 51 25 59 83c4 30 1 47 -3 57c-5 -5 -11 -10 -19 -10c-12 0 -19 10 -19 20c0 14 12 25 25 25c17 0 36 -20 36 -68
c0 -89 -68 -121 -73 -124z" />
    <glyph glyph-name="lcommaaccent" unicode="&#x13c;" horiz-adv-x="178" 
d="M42 7l97 686c1 4 4 7 7 7h5c3 0 6 -3 5 -7l-96 -686c-1 -4 -4 -7 -8 -7h-4c-4 0 -7 3 -6 7zM7 -136c0 14 12 25 25 25c17 0 36 -20 36 -68c0 -89 -68 -121 -73 -124c-2 -1 -5 -1 -7 2l-2 4c-2 5 -1 9 3 11c1 0 51 25 59 83c4 30 1 47 -3 57c-5 -5 -11 -10 -19 -10
c-12 0 -19 10 -19 20z" />
    <glyph glyph-name="lslash" unicode="&#x142;" horiz-adv-x="217" 
d="M59 7l48 341l-81 -39c-3 -1 -5 -1 -6 2l-2 6c-1 4 1 7 4 8l88 43l46 325c1 4 3 7 7 7h5c2 0 5 -3 4 -7l-44 -318l132 66c6 3 7 1 9 -3l2 -5c1 -2 0 -5 -4 -7l-142 -69l-49 -350c-1 -4 -4 -7 -7 -7h-4c-4 0 -6 3 -6 7z" />
    <glyph glyph-name="ldot" unicode="&#x140;" horiz-adv-x="321" 
d="M42 7l97 686c1 4 4 7 7 7h5c3 0 6 -3 5 -7l-96 -686c-1 -4 -4 -7 -8 -7h-4c-4 0 -7 3 -6 7zM262 281c-11 0 -19 10 -19 21c0 15 13 26 26 26c12 0 19 -9 19 -20c0 -14 -11 -27 -26 -27z" />
    <glyph glyph-name="nacute" unicode="&#x144;" horiz-adv-x="460" 
d="M41 7l55 386c1 4 4 7 7 7h4c4 0 6 -3 6 -7l-8 -55c26 27 80 72 151 72c94 0 140 -65 122 -186l-30 -217c-1 -4 -4 -7 -8 -7h-4c-4 0 -7 3 -6 7l31 217c15 109 -23 168 -105 168c-83 0 -146 -71 -154 -82l-43 -303c-1 -4 -4 -7 -8 -7h-4c-4 0 -7 3 -6 7zM192 560
c-5 -2 -6 -1 -8 3l-3 6c-1 2 0 5 4 7l176 91c3 1 5 2 8 -3l3 -5c2 -4 0 -7 -4 -9z" />
    <glyph glyph-name="ncaron" unicode="&#x148;" horiz-adv-x="460" 
d="M41 7l55 386c1 4 4 7 7 7h4c4 0 6 -3 6 -7l-8 -55c26 27 80 72 151 72c94 0 140 -65 122 -186l-30 -217c-1 -4 -4 -7 -8 -7h-4c-4 0 -7 3 -6 7l31 217c15 109 -23 168 -105 168c-83 0 -146 -71 -154 -82l-43 -303c-1 -4 -4 -7 -8 -7h-4c-4 0 -7 3 -6 7zM263 554l-101 106
c-3 3 -4 5 -1 8l4 4c1 1 3 4 7 1l96 -101l126 102c5 3 6 0 7 -1l3 -5c3 -6 1 -6 -6 -12l-127 -102c-3 -2 -6 -2 -8 0z" />
    <glyph glyph-name="ntilde" unicode="&#xf1;" horiz-adv-x="460" 
d="M41 7l55 386c1 4 4 7 7 7h4c4 0 6 -3 6 -7l-8 -55c26 27 80 72 151 72c94 0 140 -65 122 -186l-30 -217c-1 -4 -4 -7 -8 -7h-4c-4 0 -7 3 -6 7l31 217c15 109 -23 168 -105 168c-83 0 -146 -71 -154 -82l-43 -303c-1 -4 -4 -7 -8 -7h-4c-4 0 -7 3 -6 7zM150 584l-7 2
c-4 1 -5 4 -3 9c8 19 37 84 90 84c71 0 38 -108 94 -108c41 0 62 52 70 72c2 5 4 7 7 6l7 -2c4 -1 6 -4 3 -9c-8 -18 -35 -84 -89 -84c-69 0 -41 108 -94 108c-39 0 -65 -58 -71 -73c-2 -5 -5 -6 -7 -5z" />
    <glyph glyph-name="ncommaaccent" unicode="&#x146;" horiz-adv-x="461" 
d="M41 7l55 386c1 4 4 7 7 7h4c4 0 6 -3 6 -7l-8 -55c26 27 80 72 151 72c94 0 140 -65 122 -186l-30 -217c-1 -4 -4 -7 -8 -7h-4c-4 0 -7 3 -6 7l31 217c15 109 -23 168 -105 168c-83 0 -146 -71 -154 -82l-43 -303c-1 -4 -4 -7 -8 -7h-4c-4 0 -7 3 -6 7zM154 -135
c0 14 12 25 25 25c17 0 36 -20 36 -68c0 -89 -68 -121 -73 -124c-2 -1 -5 -1 -7 2l-2 4c-2 5 -1 9 3 11c1 0 51 25 59 83c4 30 1 47 -3 57c-5 -5 -11 -10 -19 -10c-12 0 -19 10 -19 20z" />
    <glyph glyph-name="napostrophe" unicode="&#x149;" horiz-adv-x="461" 
d="M41 7l55 386c1 4 4 7 7 7h4c4 0 6 -3 6 -7l-8 -55c26 27 80 72 151 72c94 0 140 -65 122 -186l-30 -217c-1 -4 -4 -7 -8 -7h-4c-4 0 -7 3 -6 7l31 217c15 109 -23 168 -105 168c-83 0 -146 -71 -154 -82l-43 -303c-1 -4 -4 -7 -8 -7h-4c-4 0 -7 3 -6 7zM-35 685
c0 14 12 25 25 25c17 0 36 -20 36 -68c0 -89 -68 -121 -73 -124c-2 -1 -5 -1 -7 2l-2 4c-2 5 -1 9 3 11c1 0 51 25 59 83c4 30 1 47 -3 57c-5 -5 -11 -10 -19 -10c-12 0 -19 10 -19 20z" />
    <glyph glyph-name="ograve" unicode="&#xf2;" horiz-adv-x="472" 
d="M40 171c0 132 102 239 215 239c92 0 155 -81 155 -180c0 -133 -101 -240 -214 -240c-93 0 -156 80 -156 181zM58 171c0 -92 57 -163 138 -163c105 0 196 100 196 222c0 91 -57 162 -137 162c-105 0 -197 -100 -197 -221zM360 560l-151 90c-3 2 -4 5 -1 9l2 3c3 5 6 4 9 3
l150 -91c3 -2 4 -4 2 -7l-2 -4c-2 -3 -5 -5 -9 -3z" />
    <glyph glyph-name="oacute" unicode="&#xf3;" horiz-adv-x="472" 
d="M40 171c0 132 102 239 215 239c92 0 155 -81 155 -180c0 -133 -101 -240 -214 -240c-93 0 -156 80 -156 181zM58 171c0 -92 57 -163 138 -163c105 0 196 100 196 222c0 91 -57 162 -137 162c-105 0 -197 -100 -197 -221zM204 559c-5 -2 -6 -1 -8 3l-3 6c-1 2 0 5 4 7
l176 91c3 1 5 2 8 -3l3 -5c2 -4 0 -7 -4 -9z" />
    <glyph glyph-name="ocircumflex" unicode="&#xf4;" horiz-adv-x="472" 
d="M40 171c0 132 102 239 215 239c92 0 155 -81 155 -180c0 -133 -101 -240 -214 -240c-93 0 -156 80 -156 181zM58 171c0 -92 57 -163 138 -163c105 0 196 100 196 222c0 91 -57 162 -137 162c-105 0 -197 -100 -197 -221zM167 548c-5 -3 -6 0 -7 1l-3 5c-3 6 -1 6 6 12
l127 102c3 2 6 2 8 0l101 -106c3 -3 4 -5 1 -8l-4 -4c-1 -1 -3 -4 -7 -1l-96 101z" />
    <glyph glyph-name="otilde" unicode="&#xf5;" horiz-adv-x="472" 
d="M40 171c0 132 102 239 215 239c92 0 155 -81 155 -180c0 -133 -101 -240 -214 -240c-93 0 -156 80 -156 181zM58 171c0 -92 57 -163 138 -163c105 0 196 100 196 222c0 91 -57 162 -137 162c-105 0 -197 -100 -197 -221zM163 583l-7 2c-4 1 -5 4 -3 9c8 19 37 84 90 84
c71 0 38 -108 94 -108c41 0 62 52 70 72c2 5 4 7 7 6l7 -2c4 -1 6 -4 3 -9c-8 -18 -35 -84 -89 -84c-69 0 -41 108 -94 108c-39 0 -65 -58 -71 -73c-2 -5 -5 -6 -7 -5z" />
    <glyph glyph-name="odieresis" unicode="&#xf6;" horiz-adv-x="472" 
d="M40 171c0 132 102 239 215 239c92 0 155 -81 155 -180c0 -133 -101 -240 -214 -240c-93 0 -156 80 -156 181zM58 171c0 -92 57 -163 138 -163c105 0 196 100 196 222c0 91 -57 162 -137 162c-105 0 -197 -100 -197 -221zM373 607c-10 0 -16 8 -16 17c0 13 10 24 22 24
c10 0 17 -8 17 -18c0 -13 -10 -23 -23 -23zM203 607c-10 0 -17 8 -17 17c0 14 11 24 23 24c10 0 16 -8 16 -18c0 -13 -9 -23 -22 -23z" />
    <glyph glyph-name="omacron" unicode="&#x14d;" horiz-adv-x="472" 
d="M40 171c0 132 102 239 215 239c92 0 155 -81 155 -180c0 -133 -101 -240 -214 -240c-93 0 -156 80 -156 181zM58 171c0 -92 57 -163 138 -163c105 0 196 100 196 222c0 91 -57 162 -137 162c-105 0 -197 -100 -197 -221zM158 607c-5 0 -7 3 -6 7l1 4c1 4 4 7 8 7h258
c4 0 7 -3 6 -7l-1 -4c-1 -4 -3 -7 -7 -7h-259z" />
    <glyph glyph-name="obreve" unicode="&#x14f;" horiz-adv-x="472" 
d="M40 171c0 132 102 239 215 239c92 0 155 -81 155 -180c0 -133 -101 -240 -214 -240c-93 0 -156 80 -156 181zM58 171c0 -92 57 -163 138 -163c105 0 196 100 196 222c0 91 -57 162 -137 162c-105 0 -197 -100 -197 -221zM283 545c-60 0 -99 47 -99 107c0 5 2 8 5 8h5
c4 0 5 -3 5 -6c-1 -54 35 -93 86 -93c49 0 96 39 112 93c1 4 3 6 6 6h6c5 0 5 -4 4 -8c-18 -60 -70 -107 -130 -107z" />
    <glyph glyph-name="ohungarumlaut" unicode="&#x151;" horiz-adv-x="472" 
d="M40 171c0 132 102 239 215 239c92 0 155 -81 155 -180c0 -133 -101 -240 -214 -240c-93 0 -156 80 -156 181zM58 171c0 -92 57 -163 138 -163c105 0 196 100 196 222c0 91 -57 162 -137 162c-105 0 -197 -100 -197 -221zM349 513l-4 3c-3 2 -4 4 -1 9l120 173
c3 4 5 4 8 2l5 -3c3 -2 5 -4 1 -9l-120 -173c-3 -4 -5 -4 -9 -2zM200 513l-5 3c-2 2 -4 4 0 9l119 173c4 4 6 4 9 2l5 -3c3 -2 5 -4 1 -9l-121 -173c-3 -4 -5 -4 -8 -2z" />
    <glyph glyph-name="oslash" unicode="&#xf8;" horiz-adv-x="472" 
d="M41 40l-2 3c-2 4 -1 7 2 10l23 20c-14 27 -23 61 -23 94c0 133 92 243 215 243c54 0 94 -28 121 -68l28 25c3 2 7 3 9 0l2 -3c2 -4 2 -7 -1 -10l-29 -26c15 -28 25 -66 25 -100c0 -134 -91 -238 -214 -238c-50 0 -97 26 -124 68l-23 -19c-3 -3 -7 -2 -9 1zM78 85l285 246
c-24 38 -63 61 -110 61c-102 0 -195 -101 -195 -222c0 -29 7 -60 20 -85zM87 71c24 -39 64 -63 112 -63c103 0 194 95 194 218c0 31 -7 66 -20 92z" />
    <glyph glyph-name="oslashacute" unicode="&#x1ff;" horiz-adv-x="472" 
d="M41 40l-2 3c-2 4 -1 7 2 10l23 20c-14 27 -23 61 -23 94c0 133 92 243 215 243c54 0 94 -28 121 -68l28 25c3 2 7 3 9 0l2 -3c2 -4 2 -7 -1 -10l-29 -26c15 -28 25 -66 25 -100c0 -134 -91 -238 -214 -238c-50 0 -97 26 -124 68l-23 -19c-3 -3 -7 -2 -9 1zM78 85l285 246
c-24 38 -63 61 -110 61c-102 0 -195 -101 -195 -222c0 -29 7 -60 20 -85zM87 71c24 -39 64 -63 112 -63c103 0 194 95 194 218c0 31 -7 66 -20 92zM203 559c-5 -2 -6 -1 -8 3l-3 6c-1 2 0 5 4 7l176 91c3 1 5 2 8 -3l3 -5c2 -4 0 -7 -4 -9z" />
    <glyph glyph-name="oe" unicode="&#x153;" horiz-adv-x="725" 
d="M40 172c0 133 102 238 214 238c58 0 104 -33 131 -81c36 48 90 81 160 81c78 0 138 -46 138 -110c0 -102 -169 -130 -309 -113l-14 -98c19 -46 65 -81 122 -81c56 0 104 25 127 43c5 4 7 1 8 -1l3 -6c1 -2 0 -4 -2 -6c-18 -18 -81 -48 -136 -48c-63 0 -110 34 -134 80
c-40 -49 -94 -80 -153 -80c-92 0 -155 80 -155 182zM377 204c126 -16 288 9 288 96c0 47 -49 92 -120 92c-65 0 -120 -35 -154 -83zM58 172c0 -92 57 -164 137 -164c56 0 113 37 148 82l31 219c-23 45 -69 83 -120 83c-104 0 -196 -99 -196 -220z" />
    <glyph glyph-name="racute" unicode="&#x155;" horiz-adv-x="294" 
d="M42 7l54 386c1 4 4 7 7 7h5c3 0 6 -3 5 -7l-7 -53c21 28 67 70 126 70c44 0 60 -15 64 -18c3 -3 3 -6 1 -9l-3 -4c-1 -2 -5 -5 -9 -2c-6 4 -23 16 -53 16c-74 0 -122 -71 -130 -83l-43 -303c-1 -4 -3 -7 -7 -7h-5c-4 0 -6 3 -5 7zM115 559c-5 -2 -6 -1 -8 3l-3 6
c-1 2 0 5 4 7l176 91c3 1 5 2 8 -3l3 -5c2 -4 0 -7 -4 -9z" />
    <glyph glyph-name="rcaron" unicode="&#x159;" horiz-adv-x="294" 
d="M42 7l54 386c1 4 4 7 7 7h5c3 0 6 -3 5 -7l-7 -53c21 28 67 70 126 70c44 0 60 -15 64 -18c3 -3 3 -6 1 -9l-3 -4c-1 -2 -5 -5 -9 -2c-6 4 -23 16 -53 16c-74 0 -122 -71 -130 -83l-43 -303c-1 -4 -3 -7 -7 -7h-5c-4 0 -6 3 -5 7zM169 553l-101 106c-3 3 -4 5 -1 8l4 4
c1 1 3 4 7 1l96 -101l126 102c5 3 6 0 7 -1l3 -5c3 -6 1 -6 -6 -12l-127 -102c-3 -2 -6 -2 -8 0z" />
    <glyph glyph-name="rcommaaccent" unicode="&#x157;" horiz-adv-x="295" 
d="M42 7l54 386c1 4 4 7 7 7h5c3 0 6 -3 5 -7l-7 -53c21 28 67 70 126 70c44 0 60 -15 64 -18c3 -3 3 -6 1 -9l-3 -4c-1 -2 -5 -5 -9 -2c-6 4 -23 16 -53 16c-74 0 -122 -71 -130 -83l-43 -303c-1 -4 -3 -7 -7 -7h-5c-4 0 -6 3 -5 7zM14 -136c0 14 12 25 25 25
c17 0 36 -20 36 -68c0 -89 -68 -121 -73 -124c-2 -1 -5 -1 -7 2l-2 4c-2 5 -1 9 3 11c1 0 51 25 59 83c4 30 1 47 -3 57c-5 -5 -11 -10 -19 -10c-12 0 -19 10 -19 20z" />
    <glyph glyph-name="sacute" unicode="&#x15b;" horiz-adv-x="357" 
d="M29 35c-2 2 -3 4 -1 7l6 7c3 3 6 3 9 0c15 -16 46 -41 102 -41c68 0 125 39 125 97c0 49 -48 71 -109 94c-67 25 -103 54 -103 106c0 45 46 105 134 105c52 0 85 -19 101 -32c3 -2 3 -5 1 -8l-3 -5c-2 -3 -5 -5 -9 -2c-15 12 -46 29 -90 29c-78 0 -115 -49 -115 -87
c0 -43 33 -66 92 -89c62 -24 120 -46 120 -111c0 -67 -69 -115 -144 -115c-65 0 -98 28 -116 45zM144 562c-5 -2 -6 -1 -8 3l-3 6c-1 2 0 5 4 7l176 91c3 1 5 2 8 -3l3 -5c2 -4 0 -7 -4 -9z" />
    <glyph glyph-name="scircumflex" unicode="&#x15d;" horiz-adv-x="357" 
d="M29 35c-2 2 -3 4 -1 7l6 7c3 3 6 3 9 0c15 -16 46 -41 102 -41c68 0 125 39 125 97c0 49 -48 71 -109 94c-67 25 -103 54 -103 106c0 45 46 105 134 105c52 0 85 -19 101 -32c3 -2 3 -5 1 -8l-3 -5c-2 -3 -5 -5 -9 -2c-15 12 -46 29 -90 29c-78 0 -115 -49 -115 -87
c0 -43 33 -66 92 -89c62 -24 120 -46 120 -111c0 -67 -69 -115 -144 -115c-65 0 -98 28 -116 45zM102 551c-5 -3 -6 0 -7 1l-3 5c-3 6 -1 6 6 12l127 102c3 2 6 2 8 0l101 -106c3 -3 4 -5 1 -8l-4 -4c-1 -1 -3 -4 -7 -1l-96 101z" />
    <glyph glyph-name="scaron" unicode="&#x161;" horiz-adv-x="357" 
d="M29 35c-2 2 -3 4 -1 7l6 7c3 3 6 3 9 0c15 -16 46 -41 102 -41c68 0 125 39 125 97c0 49 -48 71 -109 94c-67 25 -103 54 -103 106c0 45 46 105 134 105c52 0 85 -19 101 -32c3 -2 3 -5 1 -8l-3 -5c-2 -3 -5 -5 -9 -2c-15 12 -46 29 -90 29c-78 0 -115 -49 -115 -87
c0 -43 33 -66 92 -89c62 -24 120 -46 120 -111c0 -67 -69 -115 -144 -115c-65 0 -98 28 -116 45zM212 556l-101 106c-3 3 -4 5 -1 8l4 4c1 1 3 4 7 1l96 -101l126 102c5 3 6 0 7 -1l3 -5c3 -6 1 -6 -6 -12l-127 -102c-3 -2 -6 -2 -8 0z" />
    <glyph glyph-name="scedilla" unicode="&#x15f;" horiz-adv-x="359" 
d="M30 35c-2 2 -3 4 -1 7l6 7c3 3 6 3 9 0c15 -16 46 -41 102 -41c68 0 125 39 125 97c0 49 -48 71 -109 94c-67 25 -103 54 -103 106c0 45 46 105 134 105c52 0 85 -19 101 -32c3 -2 3 -5 1 -8l-3 -5c-2 -3 -5 -5 -9 -2c-15 12 -46 29 -90 29c-78 0 -115 -49 -115 -87
c0 -43 33 -66 92 -89c62 -24 120 -46 120 -111c0 -67 -69 -115 -144 -115h-11l-6 -44c48 -5 86 -28 86 -78c0 -57 -39 -103 -96 -103c-29 0 -53 16 -65 34c-2 3 -3 7 1 9l5 3c4 3 6 3 10 -2c8 -11 22 -26 52 -26c43 0 75 38 75 82c0 43 -38 64 -81 64c-3 0 -5 2 -5 6l7 57
c-47 7 -73 28 -88 43z" />
    <glyph glyph-name="scommaaccent" unicode="&#x219;" horiz-adv-x="357" 
d="M29 35c-2 2 -3 4 -1 7l6 7c3 3 6 3 9 0c15 -16 46 -41 102 -41c68 0 125 39 125 97c0 49 -48 71 -109 94c-67 25 -103 54 -103 106c0 45 46 105 134 105c52 0 85 -19 101 -32c3 -2 3 -5 1 -8l-3 -5c-2 -3 -5 -5 -9 -2c-15 12 -46 29 -90 29c-78 0 -115 -49 -115 -87
c0 -43 33 -66 92 -89c62 -24 120 -46 120 -111c0 -67 -69 -115 -144 -115c-65 0 -98 28 -116 45zM114 -133c0 14 12 25 25 25c17 0 36 -20 36 -68c0 -89 -68 -121 -73 -124c-2 -1 -5 -1 -7 2l-2 4c-2 5 -1 9 3 11c1 0 51 25 59 83c4 30 1 47 -3 57c-5 -5 -11 -10 -19 -10
c-12 0 -19 10 -19 20z" />
    <glyph glyph-name="germandbls" unicode="&#xdf;" horiz-adv-x="523" 
d="M200 20l2 3c2 4 5 5 8 3c9 -6 41 -18 79 -18c75 0 155 44 155 148c0 98 -101 149 -101 193c0 53 109 127 109 227c0 82 -57 116 -121 116c-113 0 -189 -94 -215 -282l-97 -703c0 -4 -4 -7 -8 -7h-4c-4 0 -6 3 -5 7l96 703c28 200 107 300 236 300c72 0 136 -39 136 -131
c0 -111 -108 -185 -108 -228c0 -37 100 -95 100 -192c0 -118 -83 -169 -175 -169c-46 0 -75 13 -86 21c-3 2 -4 5 -1 9z" />
    <glyph glyph-name="tcaron" unicode="&#x165;" horiz-adv-x="294" 
d="M62 107l39 275h-39c-3 0 -5 3 -4 7l1 4c1 4 3 7 6 7h38l15 108c1 4 4 7 7 7h4c4 0 7 -3 6 -7l-15 -108h145c4 0 7 -3 6 -7l-1 -4c-1 -4 -4 -7 -7 -7h-146l-38 -275c-8 -56 -12 -99 47 -99c41 0 88 23 101 32c4 3 6 2 8 -1l4 -7c1 -3 0 -5 -3 -7c-13 -9 -66 -35 -110 -35
c-79 0 -73 51 -64 117zM332 518c-2 -1 -5 -1 -7 2l-2 4c-2 5 -1 9 3 11c1 0 51 25 59 83c4 30 1 47 -3 57c-5 -5 -11 -10 -19 -10c-12 0 -19 10 -19 20c0 14 12 25 25 25c17 0 36 -20 36 -68c0 -89 -68 -121 -73 -124z" />
    <glyph glyph-name="tcommaaccent" unicode="&#x163;" horiz-adv-x="293" 
d="M62 107l39 275h-39c-3 0 -5 3 -4 7l1 4c1 4 3 7 6 7h38l15 108c1 4 4 7 7 7h4c4 0 7 -3 6 -7l-15 -108h145c4 0 7 -3 6 -7l-1 -4c-1 -4 -4 -7 -7 -7h-146l-38 -275c-8 -56 -12 -99 47 -99c41 0 88 23 101 32c4 3 6 2 8 -1l4 -7c1 -3 0 -5 -3 -7c-13 -9 -66 -35 -110 -35
c-79 0 -73 51 -64 117zM73 -136c0 14 12 25 25 25c17 0 36 -20 36 -68c0 -89 -68 -121 -73 -124c-2 -1 -5 -1 -7 2l-2 4c-2 5 -1 9 3 11c1 0 51 25 59 83c4 30 1 47 -3 57c-5 -5 -11 -10 -19 -10c-12 0 -19 10 -19 20z" />
    <glyph glyph-name="uni021B" unicode="&#x21b;" horiz-adv-x="293" 
d="M62 107l39 275h-39c-3 0 -5 3 -4 7l1 4c1 4 3 7 6 7h38l15 108c1 4 4 7 7 7h4c4 0 7 -3 6 -7l-15 -108h145c4 0 7 -3 6 -7l-1 -4c-1 -4 -4 -7 -7 -7h-146l-38 -275c-8 -56 -12 -99 47 -99c41 0 88 23 101 32c4 3 6 2 8 -1l4 -7c1 -3 0 -5 -3 -7c-13 -9 -66 -35 -110 -35
c-79 0 -73 51 -64 117zM73 -136c0 14 12 25 25 25c17 0 36 -20 36 -68c0 -89 -68 -121 -73 -124c-2 -1 -5 -1 -7 2l-2 4c-2 5 -1 9 3 11c1 0 51 25 59 83c4 30 1 47 -3 57c-5 -5 -11 -10 -19 -10c-12 0 -19 10 -19 20z" />
    <glyph glyph-name="tbar" unicode="&#x167;" horiz-adv-x="294" 
d="M62 107l13 92h-28c-4 0 -7 3 -6 7l1 4c0 3 3 6 7 6h28l24 166h-39c-3 0 -5 3 -4 7l1 4c1 4 3 7 6 7h38l15 108c1 7 7 7 11 7s7 -3 6 -7l-15 -108h145c4 0 6 -3 6 -6c0 -7 -2 -12 -8 -12h-146l-23 -166h127c4 0 7 -2 6 -6l-1 -4c-1 -4 -3 -7 -7 -7h-127l-13 -92
c-8 -56 -12 -99 49 -99c43 0 88 23 101 32c4 3 7 1 8 -2l1 -3c1 -4 -1 -7 -5 -10c-16 -13 -63 -35 -107 -35c-73 0 -73 51 -64 117z" />
    <glyph glyph-name="thorn" unicode="&#xfe;" horiz-adv-x="458" 
d="M64 41l-47 -334c0 -4 -4 -7 -7 -7h-5c-3 0 -5 3 -5 7l139 986c1 4 4 7 7 7h4c4 0 6 -3 6 -7l-48 -339c23 21 71 56 138 56c91 0 149 -79 149 -179c0 -137 -85 -241 -217 -241c-63 0 -97 31 -114 51zM68 68c3 -7 35 -60 112 -60c112 0 198 95 198 221
c0 91 -53 163 -134 163s-133 -56 -140 -65z" />
    <glyph glyph-name="ugrave" unicode="&#xf9;" horiz-adv-x="452" 
d="M183 8c83 0 139 73 145 82l43 303c1 4 3 7 7 7h5c3 0 6 -3 5 -7l-54 -386c-1 -4 -4 -7 -8 -7h-4c-3 0 -6 3 -5 7l7 53c-24 -28 -74 -70 -141 -70c-97 0 -140 63 -123 184l31 219c1 4 4 7 7 7h5c4 0 6 -3 5 -7l-30 -219c-16 -109 23 -166 105 -166zM340 560l-151 90
c-3 2 -4 5 -1 9l2 3c3 5 6 4 9 3l150 -91c3 -2 4 -4 2 -7l-2 -4c-2 -3 -5 -5 -9 -3z" />
    <glyph glyph-name="uacute" unicode="&#xfa;" horiz-adv-x="452" 
d="M183 8c83 0 139 73 145 82l43 303c1 4 3 7 7 7h5c3 0 6 -3 5 -7l-54 -386c-1 -4 -4 -7 -8 -7h-4c-3 0 -6 3 -5 7l7 53c-24 -28 -74 -70 -141 -70c-97 0 -140 63 -123 184l31 219c1 4 4 7 7 7h5c4 0 6 -3 5 -7l-30 -219c-16 -109 23 -166 105 -166zM184 559
c-5 -2 -6 -1 -8 3l-3 6c-1 2 0 5 4 7l176 91c3 1 5 2 8 -3l3 -5c2 -4 0 -7 -4 -9z" />
    <glyph glyph-name="ucircumflex" unicode="&#xfb;" horiz-adv-x="452" 
d="M183 8c83 0 139 73 145 82l43 303c1 4 3 7 7 7h5c3 0 6 -3 5 -7l-54 -386c-1 -4 -4 -7 -8 -7h-4c-3 0 -6 3 -5 7l7 53c-24 -28 -74 -70 -141 -70c-97 0 -140 63 -123 184l31 219c1 4 4 7 7 7h5c4 0 6 -3 5 -7l-30 -219c-16 -109 23 -166 105 -166zM148 548
c-5 -3 -6 0 -7 1l-3 5c-3 6 -1 6 6 12l127 102c3 2 6 2 8 0l101 -106c3 -3 4 -5 1 -8l-4 -4c-1 -1 -3 -4 -7 -1l-96 101z" />
    <glyph glyph-name="utilde" unicode="&#x169;" horiz-adv-x="452" 
d="M183 8c83 0 139 73 145 82l43 303c1 4 3 7 7 7h5c3 0 6 -3 5 -7l-54 -386c-1 -4 -4 -7 -8 -7h-4c-3 0 -6 3 -5 7l7 53c-24 -28 -74 -70 -141 -70c-97 0 -140 63 -123 184l31 219c1 4 4 7 7 7h5c4 0 6 -3 5 -7l-30 -219c-16 -109 23 -166 105 -166zM144 583l-7 2
c-4 1 -5 4 -3 9c8 19 37 84 90 84c71 0 38 -108 94 -108c41 0 62 52 70 72c2 5 4 7 7 6l7 -2c4 -1 6 -4 3 -9c-8 -18 -35 -84 -89 -84c-69 0 -41 108 -94 108c-39 0 -65 -58 -71 -73c-2 -5 -5 -6 -7 -5z" />
    <glyph glyph-name="udieresis" unicode="&#xfc;" horiz-adv-x="452" 
d="M183 8c83 0 139 73 145 82l43 303c1 4 3 7 7 7h5c3 0 6 -3 5 -7l-54 -386c-1 -4 -4 -7 -8 -7h-4c-3 0 -6 3 -5 7l7 53c-24 -28 -74 -70 -141 -70c-97 0 -140 63 -123 184l31 219c1 4 4 7 7 7h5c4 0 6 -3 5 -7l-30 -219c-16 -109 23 -166 105 -166zM352 607
c-10 0 -16 8 -16 17c0 13 10 24 22 24c10 0 17 -8 17 -18c0 -13 -10 -23 -23 -23zM182 607c-10 0 -17 8 -17 17c0 14 11 24 23 24c10 0 16 -8 16 -18c0 -13 -9 -23 -22 -23z" />
    <glyph glyph-name="umacron" unicode="&#x16b;" horiz-adv-x="452" 
d="M183 8c83 0 139 73 145 82l43 303c1 4 3 7 7 7h5c3 0 6 -3 5 -7l-54 -386c-1 -4 -4 -7 -8 -7h-4c-3 0 -6 3 -5 7l7 53c-24 -28 -74 -70 -141 -70c-97 0 -140 63 -123 184l31 219c1 4 4 7 7 7h5c4 0 6 -3 5 -7l-30 -219c-16 -109 23 -166 105 -166zM139 607
c-5 0 -7 3 -6 7l1 4c1 4 4 7 8 7h258c4 0 7 -3 6 -7l-1 -4c-1 -4 -3 -7 -7 -7h-259z" />
    <glyph glyph-name="ubreve" unicode="&#x16d;" horiz-adv-x="452" 
d="M183 8c83 0 139 73 145 82l43 303c1 4 3 7 7 7h5c3 0 6 -3 5 -7l-54 -386c-1 -4 -4 -7 -8 -7h-4c-3 0 -6 3 -5 7l7 53c-24 -28 -74 -70 -141 -70c-97 0 -140 63 -123 184l31 219c1 4 4 7 7 7h5c4 0 6 -3 5 -7l-30 -219c-16 -109 23 -166 105 -166zM264 545
c-60 0 -99 47 -99 107c0 5 2 8 5 8h5c4 0 5 -3 5 -6c-1 -54 35 -93 86 -93c49 0 96 39 112 93c1 4 3 6 6 6h6c5 0 5 -4 4 -8c-18 -60 -70 -107 -130 -107z" />
    <glyph glyph-name="uring" unicode="&#x16f;" horiz-adv-x="452" 
d="M183 8c83 0 139 73 145 82l43 303c1 4 3 7 7 7h5c3 0 6 -3 5 -7l-54 -386c-1 -4 -4 -7 -8 -7h-4c-3 0 -6 3 -5 7l7 53c-24 -28 -74 -70 -141 -70c-97 0 -140 63 -123 184l31 219c1 4 4 7 7 7h5c4 0 6 -3 5 -7l-30 -219c-16 -109 23 -166 105 -166zM254 500
c-48 0 -81 39 -81 89c0 66 52 119 110 119c47 0 80 -40 80 -90c0 -66 -52 -118 -109 -118zM256 516c46 0 91 45 91 99c0 41 -25 77 -66 77c-47 0 -91 -46 -91 -99c0 -42 22 -77 66 -77z" />
    <glyph glyph-name="uhungarumlaut" unicode="&#x171;" horiz-adv-x="452" 
d="M183 8c83 0 139 73 145 82l43 303c1 4 3 7 7 7h5c3 0 6 -3 5 -7l-54 -386c-1 -4 -4 -7 -8 -7h-4c-3 0 -6 3 -5 7l7 53c-24 -28 -74 -70 -141 -70c-97 0 -140 63 -123 184l31 219c1 4 4 7 7 7h5c4 0 6 -3 5 -7l-30 -219c-16 -109 23 -166 105 -166zM321 513l-4 3
c-3 2 -4 4 -1 9l120 173c3 4 5 4 8 2l5 -3c3 -2 5 -4 1 -9l-120 -173c-3 -4 -5 -4 -9 -2zM172 513l-5 3c-2 2 -4 4 0 9l119 173c4 4 6 4 9 2l5 -3c3 -2 5 -4 1 -9l-121 -173c-3 -4 -5 -4 -8 -2z" />
    <glyph glyph-name="uogonek" unicode="&#x173;" horiz-adv-x="452" 
d="M183 8c83 0 139 73 145 82l43 303c1 4 3 7 7 7h5c3 0 6 -3 5 -7l-54 -383c-1 -5 -4 -9 -8 -11c-6 -3 -100 -54 -100 -138c0 -46 34 -64 72 -64c30 0 55 10 62 14c6 3 7 0 9 -8c3 -8 -28 -23 -74 -23c-39 0 -86 21 -86 77c0 92 90 145 108 155l7 48
c-24 -28 -74 -70 -141 -70c-97 0 -140 63 -123 184l31 219c1 4 4 7 7 7h5c4 0 6 -3 5 -7l-30 -219c-16 -109 23 -166 105 -166z" />
    <glyph glyph-name="wacute" unicode="&#x1e83;" horiz-adv-x="551" 
d="M115 -10l-63 406c-1 4 0 7 4 8l6 2c4 1 6 -1 7 -4l57 -375l161 384c3 8 12 9 14 -1l53 -383l164 376c1 3 3 4 7 3l6 -2c4 -1 4 -4 2 -8l-176 -406c-3 -6 -12 -7 -13 0l-55 385l-161 -385c-3 -6 -12 -7 -13 0zM236 559c-5 -2 -6 -1 -8 3l-3 6c-1 2 0 5 4 7l176 91
c3 1 5 2 8 -3l3 -5c2 -4 0 -7 -4 -9z" />
    <glyph glyph-name="wcircumflex" unicode="&#x175;" horiz-adv-x="551" 
d="M115 -10l-63 406c-1 4 0 7 4 8l6 2c4 1 6 -1 7 -4l57 -375l161 384c3 8 12 9 14 -1l53 -383l164 376c1 3 3 4 7 3l6 -2c4 -1 4 -4 2 -8l-176 -406c-3 -6 -12 -7 -13 0l-55 385l-161 -385c-3 -6 -12 -7 -13 0zM201 548c-5 -3 -6 0 -7 1l-3 5c-3 6 -1 6 6 12l127 102
c3 2 6 2 8 0l101 -106c3 -3 4 -5 1 -8l-4 -4c-1 -1 -3 -4 -7 -1l-96 101z" />
    <glyph glyph-name="wdieresis" unicode="&#x1e85;" horiz-adv-x="551" 
d="M115 -10l-63 406c-1 4 0 7 4 8l6 2c4 1 6 -1 7 -4l57 -375l161 384c3 8 12 9 14 -1l53 -383l164 376c1 3 3 4 7 3l6 -2c4 -1 4 -4 2 -8l-176 -406c-3 -6 -12 -7 -13 0l-55 385l-161 -385c-3 -6 -12 -7 -13 0zM404 607c-10 0 -16 8 -16 17c0 13 10 24 22 24
c10 0 17 -8 17 -18c0 -13 -10 -23 -23 -23zM234 607c-10 0 -17 8 -17 17c0 14 11 24 23 24c10 0 16 -8 16 -18c0 -13 -9 -23 -22 -23z" />
    <glyph glyph-name="wgrave" unicode="&#x1e81;" horiz-adv-x="551" 
d="M115 -10l-63 406c-1 4 0 7 4 8l6 2c4 1 6 -1 7 -4l57 -375l161 384c3 8 12 9 14 -1l53 -383l164 376c1 3 3 4 7 3l6 -2c4 -1 4 -4 2 -8l-176 -406c-3 -6 -12 -7 -13 0l-55 385l-161 -385c-3 -6 -12 -7 -13 0zM392 560l-151 90c-3 2 -4 5 -1 9l2 3c3 5 6 4 9 3l150 -91
c3 -2 4 -4 2 -7l-2 -4c-2 -3 -5 -5 -9 -3z" />
    <glyph glyph-name="yacute" unicode="&#xfd;" horiz-adv-x="390" 
d="M150 9l-120 386c-1 4 0 7 3 8l5 2c4 2 7 -1 8 -4l114 -374l212 376c1 2 3 5 7 3l5 -3c3 -2 3 -4 1 -8l-390 -696c-2 -4 -5 -5 -8 -3l-5 3c-2 1 -4 3 -1 8zM156 559c-5 -2 -6 -1 -8 3l-3 6c-1 2 0 5 4 7l176 91c3 1 5 2 8 -3l3 -5c2 -4 0 -7 -4 -9z" />
    <glyph glyph-name="ycircumflex" unicode="&#x177;" horiz-adv-x="390" 
d="M150 9l-120 386c-1 4 0 7 3 8l5 2c4 2 7 -1 8 -4l114 -374l212 376c1 2 3 5 7 3l5 -3c3 -2 3 -4 1 -8l-390 -696c-2 -4 -5 -5 -8 -3l-5 3c-2 1 -4 3 -1 8zM119 548c-5 -3 -6 0 -7 1l-3 5c-3 6 -1 6 6 12l127 102c3 2 6 2 8 0l101 -106c3 -3 4 -5 1 -8l-4 -4
c-1 -1 -3 -4 -7 -1l-96 101z" />
    <glyph glyph-name="ydieresis" unicode="&#xff;" horiz-adv-x="390" 
d="M150 9l-120 386c-1 4 0 7 3 8l5 2c4 2 7 -1 8 -4l114 -374l212 376c1 2 3 5 7 3l5 -3c3 -2 3 -4 1 -8l-390 -696c-2 -4 -5 -5 -8 -3l-5 3c-2 1 -4 3 -1 8zM324 607c-10 0 -16 8 -16 17c0 13 10 24 22 24c10 0 17 -8 17 -18c0 -13 -10 -23 -23 -23zM154 607
c-10 0 -17 8 -17 17c0 14 11 24 23 24c10 0 16 -8 16 -18c0 -13 -9 -23 -22 -23z" />
    <glyph glyph-name="ygrave" unicode="&#x1ef3;" horiz-adv-x="390" 
d="M150 9l-120 386c-1 4 0 7 3 8l5 2c4 2 7 -1 8 -4l114 -374l212 376c1 2 3 5 7 3l5 -3c3 -2 3 -4 1 -8l-390 -696c-2 -4 -5 -5 -8 -3l-5 3c-2 1 -4 3 -1 8zM312 560l-151 90c-3 2 -4 5 -1 9l2 3c3 5 6 4 9 3l150 -91c3 -2 4 -4 2 -7l-2 -4c-2 -3 -5 -5 -9 -3z" />
    <glyph glyph-name="zacute" unicode="&#x17a;" horiz-adv-x="349" 
d="M0 0c-6 0 -8 6 -4 11l299 371h-216c-4 0 -7 3 -6 7l1 4c1 4 3 7 7 7h240c6 0 9 -6 4 -11l-301 -371h233c4 0 7 -3 6 -7l-1 -4c-1 -4 -4 -7 -7 -7h-255zM145 559c-5 -2 -6 -1 -8 3l-3 6c-1 2 0 5 4 7l176 91c3 1 5 2 8 -3l3 -5c2 -4 0 -7 -4 -9z" />
    <glyph glyph-name="zcaron" unicode="&#x17e;" horiz-adv-x="349" 
d="M0 0c-6 0 -8 6 -4 11l299 371h-216c-4 0 -7 3 -6 7l1 4c1 4 3 7 7 7h240c6 0 9 -6 4 -11l-301 -371h233c4 0 7 -3 6 -7l-1 -4c-1 -4 -4 -7 -7 -7h-255zM209 553l-101 106c-3 3 -4 5 -1 8l4 4c1 1 3 4 7 1l96 -101l126 102c5 3 6 0 7 -1l3 -5c3 -6 1 -6 -6 -12l-127 -102
c-3 -2 -6 -2 -8 0z" />
    <glyph glyph-name="zdotaccent" unicode="&#x17c;" horiz-adv-x="349" 
d="M0 0c-6 0 -8 6 -4 11l299 371h-216c-4 0 -7 3 -6 7l1 4c1 4 3 7 7 7h240c6 0 9 -6 4 -11l-301 -371h233c4 0 7 -3 6 -7l-1 -4c-1 -4 -4 -7 -7 -7h-255zM223 599c-8 0 -15 8 -15 17c0 11 10 20 21 20c9 0 15 -7 15 -16c0 -11 -9 -21 -21 -21z" />
    <glyph glyph-name="IJ" unicode="&#x132;" horiz-adv-x="588" 
d="M73 7l96 686c1 4 4 7 8 7h4c4 0 7 -3 6 -7l-96 -686c-1 -4 -4 -7 -8 -7h-4c-4 0 -7 3 -6 7zM305 -10c-80 0 -118 54 -129 77c-1 3 -2 7 2 9l4 2c5 3 7 2 9 -1c12 -22 43 -70 115 -70c98 0 162 75 181 207l68 479c0 4 3 7 7 7h4c4 0 6 -3 5 -7l-67 -479
c-20 -141 -91 -224 -199 -224z" />
    <glyph glyph-name="ij" unicode="&#x133;" horiz-adv-x="391" 
d="M136 607c-10 0 -17 8 -17 17c0 13 10 24 22 24c10 0 16 -9 16 -18c0 -13 -10 -23 -21 -23zM42 7l54 386c1 4 4 7 8 7h4c4 0 7 -3 6 -7l-55 -386c-1 -4 -3 -7 -7 -7h-5c-4 0 -6 3 -5 7zM348 607c-10 0 -17 8 -17 17c0 13 11 24 23 24c10 0 16 -9 16 -18
c0 -13 -10 -23 -22 -23zM235 -134l75 527c1 4 3 7 7 7h4c4 0 7 -3 6 -7l-74 -527c-17 -120 -66 -176 -151 -176c-49 0 -83 25 -96 43c-2 3 -2 7 2 10l3 2c3 2 6 3 9 0c13 -15 39 -38 82 -38c73 0 118 51 133 159z" />
    <glyph glyph-name="grave.cap" horiz-adv-x="272" 
d="M254 779l-151 90c-3 2 -4 5 -1 9l2 3c3 5 6 4 9 3l150 -91c3 -2 4 -4 2 -7l-2 -4c-2 -3 -5 -5 -9 -3z" />
    <glyph glyph-name="acute" unicode="&#xb4;" horiz-adv-x="272" 
d="M95 559c-5 -2 -6 -1 -8 3l-3 6c-1 2 0 5 4 7l176 91c3 1 5 2 8 -3l3 -5c2 -4 0 -7 -4 -9z" />
    <glyph glyph-name="acute.cap" horiz-adv-x="272" 
d="M95 777c-5 -2 -6 -1 -8 3l-3 6c-1 2 0 5 4 7l176 91c3 1 5 2 8 -3l3 -5c2 -4 0 -7 -4 -9z" />
    <glyph glyph-name="circumflex" unicode="&#x2c6;" horiz-adv-x="336" 
d="M73 548c-5 -3 -6 0 -7 1l-3 5c-3 6 -1 6 6 12l127 102c3 2 6 2 8 0l101 -106c3 -3 4 -5 1 -8l-4 -4c-1 -1 -3 -4 -7 -1l-96 101z" />
    <glyph glyph-name="circumflex.cap" horiz-adv-x="336" 
d="M83 763c-5 -3 -6 0 -7 1l-3 5c-3 6 -1 6 6 12l127 102c3 2 6 2 8 0l101 -106c3 -3 4 -5 1 -8l-4 -4c-1 -1 -3 -4 -7 -1l-96 101z" />
    <glyph glyph-name="caron" unicode="&#x2c7;" horiz-adv-x="336" 
d="M180 553l-101 106c-3 3 -4 5 -1 8l4 4c1 1 3 4 7 1l96 -101l126 102c5 3 6 0 7 -1l3 -5c3 -6 1 -6 -6 -12l-127 -102c-3 -2 -6 -2 -8 0z" />
    <glyph glyph-name="caron.cap" horiz-adv-x="336" 
d="M191 771l-101 106c-3 3 -4 5 -1 8l4 4c1 1 3 4 7 1l96 -101l126 102c5 3 6 0 7 -1l3 -5c3 -6 1 -6 -6 -12l-127 -102c-3 -2 -6 -2 -8 0z" />
    <glyph glyph-name="caron.alt" horiz-adv-x="336" 
d="M175 687c0 14 12 25 25 25c17 0 36 -20 36 -68c0 -89 -68 -121 -73 -124c-2 -1 -5 -1 -7 2l-2 4c-2 5 -1 9 3 11c1 0 51 25 59 83c4 30 1 47 -3 57c-5 -5 -11 -10 -19 -10c-12 0 -19 10 -19 20z" />
    <glyph glyph-name="tilde" unicode="&#x2dc;" horiz-adv-x="342" 
d="M63 583l-7 2c-4 1 -5 4 -3 9c8 19 37 84 90 84c71 0 38 -108 94 -108c41 0 62 52 70 72c2 5 4 7 7 6l7 -2c4 -1 6 -4 3 -9c-8 -18 -35 -84 -89 -84c-69 0 -41 108 -94 108c-39 0 -65 -58 -71 -73c-2 -5 -5 -6 -7 -5z" />
    <glyph glyph-name="tilde.cap" horiz-adv-x="342" 
d="M81 802l-7 2c-4 1 -5 4 -3 9c8 19 37 84 90 84c71 0 38 -108 94 -108c41 0 62 52 70 72c2 5 4 7 7 6l7 -2c4 -1 6 -4 3 -9c-8 -18 -35 -84 -89 -84c-69 0 -41 108 -94 108c-39 0 -65 -58 -71 -73c-2 -5 -5 -6 -7 -5z" />
    <glyph glyph-name="dieresis" unicode="&#xa8;" horiz-adv-x="373" 
d="M312 607c-10 0 -16 8 -16 17c0 13 10 24 22 24c10 0 17 -8 17 -18c0 -13 -10 -23 -23 -23zM142 607c-10 0 -17 8 -17 17c0 14 11 24 23 24c10 0 16 -8 16 -18c0 -13 -9 -23 -22 -23z" />
    <glyph glyph-name="dieresis.cap" horiz-adv-x="427" 
d="M341 810c-10 0 -17 8 -17 17c0 14 10 24 23 24c10 0 16 -8 16 -18c0 -13 -10 -23 -22 -23zM154 810c-10 0 -17 8 -17 17c0 14 11 24 23 24c10 0 17 -8 17 -18c0 -13 -10 -23 -23 -23z" />
    <glyph glyph-name="macron" unicode="&#xaf;" horiz-adv-x="373" 
d="M43 607c-5 0 -7 3 -6 7l1 4c1 4 4 7 8 7h258c4 0 7 -3 6 -7l-1 -4c-1 -4 -3 -7 -7 -7h-259z" />
    <glyph glyph-name="macron.cap" horiz-adv-x="373" 
d="M95 842c-5 0 -7 3 -6 7l1 4c1 4 4 7 8 7h258c4 0 7 -3 6 -7l-1 -4c-1 -4 -3 -7 -7 -7h-259z" />
    <glyph glyph-name="uni02C9" unicode="&#x2c9;" horiz-adv-x="373" 
d="M82 607c-5 0 -7 3 -6 7l1 4c1 4 4 7 8 7h258c4 0 7 -3 6 -7l-1 -4c-1 -4 -3 -7 -7 -7h-259z" />
    <glyph glyph-name="breve" unicode="&#x2d8;" horiz-adv-x="311" 
d="M172 545c-60 0 -99 47 -99 107c0 5 2 8 5 8h5c4 0 5 -3 5 -6c-1 -54 35 -93 86 -93c49 0 96 39 112 93c1 4 3 6 6 6h6c5 0 5 -4 4 -8c-18 -60 -70 -107 -130 -107z" />
    <glyph glyph-name="breve.cap" horiz-adv-x="311" 
d="M185 780c-60 0 -99 47 -99 107c0 5 2 8 5 8h5c4 0 5 -3 5 -6c-1 -54 35 -93 86 -93c49 0 96 39 112 93c1 4 3 6 6 6h6c5 0 5 -4 4 -8c-18 -60 -70 -107 -130 -107z" />
    <glyph glyph-name="ring" unicode="&#x2da;" horiz-adv-x="261" 
d="M141 500c-48 0 -81 39 -81 89c0 66 52 119 110 119c47 0 80 -40 80 -90c0 -66 -52 -118 -109 -118zM143 516c46 0 91 45 91 99c0 41 -25 77 -66 77c-47 0 -91 -46 -91 -99c0 -42 22 -77 66 -77z" />
    <glyph glyph-name="ring.cap" horiz-adv-x="261" 
d="M157 750c-48 0 -81 39 -81 89c0 66 52 119 110 119c47 0 80 -40 80 -90c0 -66 -52 -118 -109 -118zM159 766c46 0 91 45 91 99c0 41 -25 77 -66 77c-47 0 -91 -46 -91 -99c0 -42 22 -77 66 -77z" />
    <glyph glyph-name="hungarumlaut" unicode="&#x2dd;" horiz-adv-x="353" 
d="M223 513l-4 3c-3 2 -4 4 -1 9l120 173c3 4 5 4 8 2l5 -3c3 -2 5 -4 1 -9l-120 -173c-3 -4 -5 -4 -9 -2zM74 513l-5 3c-2 2 -4 4 0 9l119 173c4 4 6 4 9 2l5 -3c3 -2 5 -4 1 -9l-121 -173c-3 -4 -5 -4 -8 -2z" />
    <glyph glyph-name="hungarumlaut.cap" horiz-adv-x="353" 
d="M226 757l-5 3c-2 2 -4 4 0 9l120 173c3 4 5 4 8 2l5 -3c3 -2 5 -4 1 -9l-120 -173c-4 -4 -6 -4 -9 -2zM77 757l-5 3c-3 2 -4 4 -1 9l120 173c3 4 5 4 9 2l5 -3c3 -2 4 -4 1 -9l-121 -173c-3 -4 -5 -4 -8 -2z" />
    <glyph glyph-name="dotaccent" unicode="&#x2d9;" horiz-adv-x="197" 
d="M121 599c-8 0 -15 8 -15 17c0 11 10 20 21 20c9 0 15 -7 15 -16c0 -11 -9 -21 -21 -21z" />
    <glyph glyph-name="dotaccent.cap" horiz-adv-x="197" 
d="M133 825c-9 0 -16 7 -16 16c0 12 11 21 21 21s16 -7 16 -16c0 -12 -9 -21 -21 -21z" />
    <glyph glyph-name="cedilla" unicode="&#xb8;" horiz-adv-x="222" 
d="M102 -6c0 3 3 6 7 6h6c4 0 4 -2 4 -6l-7 -48c48 -5 86 -28 86 -78c0 -57 -39 -103 -96 -103c-29 0 -53 16 -65 34c-2 3 -3 7 1 9l5 3c4 3 6 3 10 -2c8 -11 22 -26 52 -26c43 0 75 38 75 82c0 43 -38 64 -81 64c-3 0 -5 2 -5 6z" />
    <glyph glyph-name="cedilla.cap" horiz-adv-x="222" 
d="M102 -6c0 3 2 6 7 6h6c4 0 4 -3 4 -6l-7 -48c48 -5 86 -28 86 -78c0 -57 -39 -103 -96 -103c-29 0 -53 16 -65 34c-2 3 -3 7 1 9l5 3c4 3 6 3 10 -2c8 -11 22 -26 52 -26c43 0 75 38 75 82c0 43 -38 64 -81 64c-3 0 -5 2 -5 6z" />
    <glyph glyph-name="ogonek" unicode="&#x2db;" horiz-adv-x="249" 
d="M37 -143c0 102 111 157 112 157c3 2 6 0 7 -2l3 -7c0 -2 -2 -5 -5 -6c-1 0 -100 -54 -100 -138c0 -46 34 -64 72 -64c30 0 55 10 62 14c6 3 7 0 9 -8c3 -8 -28 -23 -74 -23c-39 0 -86 21 -86 77z" />
    <glyph glyph-name="ogonek.cap" horiz-adv-x="249" 
d="M37 -143c0 102 111 157 112 157c3 2 6 0 7 -2l3 -7c0 -2 -2 -5 -5 -6c-1 0 -100 -54 -100 -138c0 -46 34 -64 72 -64c30 0 55 10 62 14c6 3 7 0 9 -8c3 -8 -28 -23 -74 -23c-39 0 -86 21 -86 77z" />
    <glyph glyph-name="commaaccent" horiz-adv-x="263" 
d="M146 -136c0 14 12 25 25 25c17 0 36 -20 36 -68c0 -89 -68 -121 -73 -124c-2 -1 -5 -1 -7 2l-2 4c-2 5 -1 9 3 11c1 0 51 25 59 83c4 30 1 47 -3 57c-5 -5 -11 -10 -19 -10c-12 0 -19 10 -19 20z" />
    <glyph glyph-name="commaaccent.alt" horiz-adv-x="263" 
d="M146 -136c0 14 12 25 25 25c17 0 36 -20 36 -68c0 -89 -68 -121 -73 -124c-2 -1 -5 -1 -7 2l-2 4c-2 5 -1 9 3 11c1 0 51 25 59 83c4 30 1 47 -3 57c-5 -5 -11 -10 -19 -10c-12 0 -19 10 -19 20z" />
    <glyph glyph-name="commaaccent.cap" horiz-adv-x="263" 
d="M146 -136c0 14 12 25 25 25c17 0 36 -20 36 -68c0 -89 -68 -121 -73 -124c-2 -1 -5 -1 -7 2l-2 4c-2 5 -1 9 3 11c1 0 51 25 59 83c4 30 1 47 -3 57c-5 -5 -11 -10 -19 -10c-12 0 -19 10 -19 20z" />
    <glyph glyph-name="ellipsis" unicode="&#x2026;" horiz-adv-x="562" 
d="M395 18c0 15 12 26 25 26c12 0 20 -9 20 -20c0 -14 -12 -27 -27 -27c-11 0 -18 10 -18 21zM221 18c0 15 12 26 25 26c12 0 20 -9 20 -20c0 -14 -12 -27 -26 -27c-11 0 -19 10 -19 21zM50 18c0 15 13 26 26 26c12 0 19 -9 19 -20c0 -14 -11 -27 -26 -27
c-11 0 -19 10 -19 21z" />
    <glyph glyph-name="uni00AD" unicode="&#xad;" horiz-adv-x="313" 
d="M81 243c-3 0 -6 3 -5 7l1 4c1 4 3 7 7 7h218c3 0 5 -3 4 -7l-1 -4c-1 -4 -3 -7 -6 -7h-218z" />
    <glyph glyph-name="exclamdown" unicode="&#xa1;" horiz-adv-x="225" 
d="M121 363c-11 0 -19 9 -19 20c0 14 12 27 26 27c11 0 20 -10 20 -21c0 -15 -13 -26 -27 -26zM80 126c0 4 4 7 7 7h4c4 0 6 -3 6 -7l-59 -419c0 -5 -4 -7 -9 -7h-3c-4 0 -6 3 -6 7z" />
    <glyph glyph-name="questiondown" unicode="&#xbf;" horiz-adv-x="242" 
d="M139 362c-11 0 -19 9 -19 20c0 14 12 27 26 27c11 0 19 -10 19 -21c0 -15 -12 -26 -26 -26zM22 -1c39 23 67 39 72 78l8 58c1 4 4 7 8 7h5c3 0 6 -3 5 -7l-9 -60c-6 -48 -43 -68 -82 -91c-29 -17 -118 -72 -118 -165c0 -59 48 -112 124 -112c105 0 164 82 164 82
c3 4 6 6 11 3l4 -3c3 -2 4 -5 1 -9c0 0 -64 -90 -180 -90c-88 0 -141 55 -141 128c0 103 99 164 128 181z" />
    <glyph glyph-name="quoteleft" unicode="&#x2018;" horiz-adv-x="170" 
d="M126 516c-16 0 -36 20 -36 68c0 89 71 123 72 123c4 2 7 3 9 -1l2 -6c1 -4 1 -7 -4 -9c0 0 -50 -25 -59 -83c-4 -30 0 -47 3 -57c6 5 12 10 20 10c11 0 18 -10 18 -20c0 -14 -11 -25 -25 -25z" />
    <glyph glyph-name="quoteright" unicode="&#x2019;" horiz-adv-x="170" 
d="M99 518c-2 -1 -5 -1 -7 2l-2 4c-2 5 -1 9 3 11c1 0 51 25 59 83c4 30 1 47 -3 57c-5 -5 -11 -10 -19 -10c-12 0 -19 10 -19 20c0 14 12 25 25 25c17 0 36 -20 36 -68c0 -89 -68 -121 -73 -124z" />
    <glyph glyph-name="quotedblleft" unicode="&#x201c;" horiz-adv-x="330" 
d="M287 516c-17 0 -37 20 -37 68c0 89 72 123 73 123c4 2 7 3 8 -1l2 -6c2 -4 1 -7 -4 -9c0 0 -50 -25 -58 -83c-5 -30 -1 -47 3 -57c5 5 11 10 19 10c11 0 19 -10 19 -20c0 -14 -12 -25 -25 -25zM126 516c-16 0 -36 20 -36 68c0 89 71 123 72 123c5 2 8 3 9 -1l2 -6
c1 -4 1 -7 -4 -9c0 0 -50 -25 -59 -83c-4 -30 0 -47 4 -57c5 5 11 10 19 10c11 0 18 -10 18 -20c0 -14 -11 -25 -25 -25z" />
    <glyph glyph-name="quotedblright" unicode="&#x201d;" horiz-adv-x="330" 
d="M252 520l-2 4c-2 5 -1 9 3 11c1 0 51 25 59 83c4 30 1 47 -3 57c-5 -5 -11 -10 -19 -10c-12 0 -19 10 -19 20c0 14 12 25 25 25c17 0 36 -20 36 -68c0 -89 -68 -121 -73 -124c-2 -1 -5 -1 -7 2zM99 518c-2 -1 -5 -1 -7 2l-2 4c-2 5 -1 9 3 11c1 0 51 25 59 83
c4 30 1 47 -3 57c-5 -5 -11 -10 -19 -10c-12 0 -19 10 -19 20c0 14 12 25 25 25c17 0 36 -20 36 -68c0 -89 -68 -121 -73 -124z" />
    <glyph glyph-name="quotesinglbase" unicode="&#x201a;" horiz-adv-x="255" 
d="M73 10c0 14 12 25 25 25c17 0 36 -20 36 -68c0 -89 -68 -121 -73 -124c-2 -1 -5 -1 -7 2l-2 4c-2 5 -1 9 3 11c1 0 51 25 59 83c4 30 1 47 -3 57c-5 -5 -11 -10 -19 -10c-12 0 -19 10 -19 20z" />
    <glyph glyph-name="quotedblbase" unicode="&#x201e;" horiz-adv-x="415" 
d="M233 10c0 14 12 25 25 25c17 0 36 -20 36 -68c0 -89 -68 -121 -73 -124c-2 -1 -5 -1 -7 2l-2 4c-2 5 -1 9 3 11c1 0 51 25 59 83c4 30 1 47 -3 57c-5 -5 -11 -10 -19 -10c-12 0 -19 10 -19 20zM73 10c0 14 12 25 25 25c17 0 36 -20 36 -68c0 -89 -68 -121 -73 -124
c-2 -1 -5 -1 -7 2l-2 4c-2 5 -1 9 3 11c1 0 51 25 59 83c4 30 1 47 -3 57c-5 -5 -11 -10 -19 -10c-12 0 -19 10 -19 20z" />
    <glyph glyph-name="guilsinglleft" unicode="&#x2039;" horiz-adv-x="228" 
d="M124 32l-85 172c-2 3 -1 5 1 8l133 170c2 3 5 4 9 2l4 -3c4 -3 4 -5 1 -8l-129 -166l81 -167c1 -3 1 -6 -3 -8l-4 -2c-4 -2 -7 -1 -8 2z" />
    <glyph glyph-name="guilsinglright" unicode="&#x203a;" horiz-adv-x="226" 
d="M26 30l-3 3c-3 3 -3 5 -1 8l128 168l-81 165c-2 3 -1 6 3 8l4 2c3 2 6 1 8 -2l85 -170c1 -3 1 -5 -1 -8l-133 -172c-3 -3 -6 -5 -9 -2z" />
    <glyph glyph-name="guillemotleft" unicode="&#xab;" horiz-adv-x="372" 
d="M266 32l-85 172c-1 3 -1 5 1 8l133 170c3 3 6 4 9 1l4 -4c3 -3 3 -5 0 -8l-127 -165l81 -166c1 -3 1 -6 -3 -8l-5 -2c-4 -2 -6 -1 -8 2zM122 32l-85 172c-1 3 -1 5 1 8l133 170c3 3 6 4 9 1l4 -4c3 -3 3 -5 0 -8l-127 -165l81 -166c1 -3 1 -6 -3 -8l-5 -2
c-4 -2 -6 -1 -8 2z" />
    <glyph glyph-name="guillemotright" unicode="&#xbb;" horiz-adv-x="371" 
d="M167 34c-3 3 -3 5 -1 8l128 168l-81 164c-2 3 -1 6 3 8l5 2c3 1 6 1 8 -2l85 -170c1 -3 1 -5 -1 -8l-133 -172c-3 -3 -6 -5 -9 -2zM27 31l-4 4c-3 3 -3 5 -1 8l128 167l-81 164c-2 3 -1 6 3 8l5 2c3 1 6 1 8 -2l85 -170c1 -3 1 -5 -1 -8l-133 -172c-3 -3 -6 -4 -9 -1z
" />
    <glyph glyph-name="endash" unicode="&#x2013;" horiz-adv-x="698" 
d="M167 243c-4 0 -7 3 -6 7l1 4c1 4 3 7 7 7h358c4 0 7 -3 6 -7l-1 -4c-1 -4 -3 -7 -7 -7h-358z" />
    <glyph glyph-name="emdash" unicode="&#x2014;" horiz-adv-x="893" 
d="M166 243c-3 0 -6 3 -5 7l1 4c1 4 3 7 7 7h553c3 0 7 -3 6 -7l-1 -4c-1 -4 -4 -7 -8 -7h-553z" />
    <glyph glyph-name="bullet" unicode="&#x2022;" horiz-adv-x="319" 
d="M154 189c-18 0 -30 15 -30 32c0 24 19 44 41 44c19 0 32 -15 32 -34c0 -23 -20 -42 -43 -42z" />
    <glyph glyph-name="periodcentered" unicode="&#xb7;" horiz-adv-x="254" 
d="M125 238c-11 0 -19 10 -19 21c0 15 13 26 26 26c12 0 19 -9 19 -20c0 -14 -11 -27 -26 -27z" />
    <glyph glyph-name="uni2219" unicode="&#x2219;" horiz-adv-x="318" 
d="M201 238c-11 0 -19 10 -19 21c0 15 13 26 26 26c12 0 19 -9 19 -20c0 -14 -11 -27 -26 -27z" />
    <glyph glyph-name="dagger" unicode="&#x2020;" horiz-adv-x="473" 
d="M147 -293l95 675h-193c-4 0 -7 3 -6 7l1 4c1 4 4 7 7 7h193l42 293c0 4 3 7 7 7h5c4 0 6 -3 6 -7l-41 -293h193c4 0 7 -3 6 -7l-1 -4c-1 -4 -3 -7 -7 -7h-194l-95 -675c-1 -4 -4 -7 -8 -7h-4c-4 0 -7 3 -6 7z" />
    <glyph glyph-name="daggerdbl" unicode="&#x2021;" horiz-adv-x="473" 
d="M17 9l1 4c1 4 3 5 7 5h166l53 382h-193c-4 0 -6 4 -5 9l1 4c1 4 3 5 7 5h193l39 275c0 5 4 7 9 7h3c4 0 6 -3 6 -7l-39 -275h194c4 0 7 -3 6 -7l-1 -4c-1 -4 -4 -7 -8 -7h-193l-54 -382h167c3 0 7 -3 6 -7l-1 -4c-1 -4 -4 -7 -8 -7h-167l-41 -293c-1 -4 -4 -7 -8 -7h-4
c-4 0 -7 3 -6 7l41 293h-166c-4 0 -6 4 -5 9z" />
    <glyph glyph-name="section" unicode="&#xa7;" horiz-adv-x="502" 
d="M23 -120c3 2 6 2 8 -1c9 -12 63 -74 158 -74s192 71 192 166c0 84 -64 123 -158 150c-91 26 -164 73 -164 162c0 52 21 97 63 136c-18 23 -29 55 -29 91c0 91 57 200 222 200c89 0 145 -51 145 -51c2 -1 3 -4 1 -7l-5 -7c-2 -2 -5 -6 -9 -3c0 0 -53 50 -135 50
c-143 0 -202 -98 -202 -179c0 -82 61 -125 151 -150c101 -30 171 -72 171 -162c0 -56 -36 -100 -69 -132c22 -23 35 -56 35 -96c0 -106 -96 -185 -211 -185c-96 0 -160 65 -170 77c-3 3 -4 6 0 9zM229 137c50 -15 92 -32 121 -57c30 27 63 68 63 118c0 83 -65 122 -159 149
c-49 14 -91 32 -120 61c-37 -35 -57 -75 -57 -122c0 -81 62 -124 152 -149z" />
    <glyph glyph-name="paragraph" unicode="&#xb6;" horiz-adv-x="610" 
d="M216 274c-92 0 -160 82 -160 185c0 131 89 241 212 241h373c4 0 6 -3 6 -7l-1 -4c0 -4 -4 -7 -7 -7h-90l-136 -975c-1 -4 -4 -7 -8 -7c-5 0 -11 1 -10 7l136 975h-172l-136 -975c-1 -4 -4 -7 -8 -7c-6 0 -10 1 -10 7l137 975h-77c-102 0 -190 -101 -190 -222
c0 -95 60 -170 146 -170c4 0 4 -4 2 -10c-1 -4 -4 -6 -7 -6z" />
    <glyph glyph-name="brokenbar.case" horiz-adv-x="361" 
d="M216 504c-4 0 -6 3 -5 7l50 361c1 4 4 7 8 7h4c3 0 6 -3 5 -7l-51 -361c0 -4 -3 -7 -7 -7h-4zM166 189c0 3 4 6 7 6h4c4 0 6 -3 6 -6l-51 -361c0 -4 -4 -7 -7 -7h-4c-4 0 -6 3 -6 7z" />
    <glyph glyph-name="copyright" unicode="&#xa9;" horiz-adv-x="779" 
d="M70 303c0 223 181 407 380 407c159 0 279 -141 279 -313c0 -224 -181 -407 -380 -407c-159 0 -279 141 -279 313zM88 305c0 -164 110 -297 263 -297c186 0 360 174 360 387c0 163 -110 297 -264 297c-185 0 -359 -174 -359 -387zM232 323c0 121 94 218 202 218
c37 0 73 -13 100 -39c3 -2 3 -5 1 -8l-5 -5c-2 -3 -4 -3 -7 -1c-25 25 -58 36 -91 36c-94 0 -183 -89 -183 -199c0 -83 56 -151 134 -151c34 0 68 10 102 39c4 3 6 3 9 -2l2 -5c1 -3 0 -5 -2 -7c-36 -30 -73 -43 -114 -43c-83 0 -148 75 -148 167z" />
    <glyph glyph-name="registered" unicode="&#xae;" horiz-adv-x="778" 
d="M70 303c0 223 180 407 379 407c159 0 279 -141 279 -313c0 -224 -181 -407 -380 -407c-158 0 -278 141 -278 313zM88 305c0 -164 110 -297 263 -297c185 0 360 174 360 387c0 163 -111 297 -264 297c-186 0 -359 -174 -359 -387zM256 173l51 359c0 4 3 7 6 7h135
c54 0 102 -33 102 -96c0 -82 -56 -124 -115 -132l51 -135c1 -3 2 -5 -2 -7l-7 -3c-3 -2 -5 0 -6 3l-53 141h-126l-19 -137c-1 -4 -4 -7 -8 -7h-4c-3 0 -6 3 -5 7zM294 326h124c52 0 115 36 115 114c0 56 -42 82 -88 82h-123z" />
    <glyph glyph-name="trademark" unicode="&#x2122;" horiz-adv-x="649" 
d="M282 389c-4 2 -4 4 -3 8l118 309c3 7 12 7 12 0l43 -281l120 281c2 7 13 7 14 0l31 -309c0 -5 0 -7 -5 -8l-9 -2c-3 -1 -3 1 -4 4l-26 270l-120 -278c-3 -7 -12 -7 -13 0l-42 278l-103 -270c-2 -5 -5 -5 -9 -4zM127 389c-3 0 -6 3 -5 7l40 286h-94c-3 0 -5 3 -5 7v4
c0 4 4 7 7 7h202c4 0 5 -3 5 -7v-4c0 -4 -3 -7 -7 -7h-92l-40 -286c-1 -4 -4 -7 -7 -7h-4z" />
    <glyph glyph-name="currency" unicode="&#xa4;" horiz-adv-x="419" 
d="M131 230c16 -23 41 -35 68 -35c64 0 122 68 122 136c0 56 -38 97 -88 97c-67 0 -122 -70 -122 -134c0 -24 6 -46 20 -64zM60 151c-9 -6 -16 4 -11 12l64 62c-12 20 -18 43 -18 67c-1 39 13 79 42 110l-45 61c-5 8 7 17 13 12l47 -61c25 21 54 31 82 31s54 -11 73 -33
l66 63c3 2 6 2 8 0c3 -4 6 -8 2 -12l-65 -64c13 -19 19 -42 19 -66c1 -39 -14 -80 -41 -110l45 -60c4 -8 -8 -17 -14 -12l-46 59c-26 -22 -55 -33 -83 -32s-55 12 -75 34z" />
    <glyph glyph-name="Euro" unicode="&#x20ac;" horiz-adv-x="692" 
d="M41 265c-4 0 -6 3 -5 8l1 4c1 4 3 5 6 5h48c0 33 1 66 10 100h-44c-3 0 -6 3 -5 7l1 4c1 4 4 7 6 7h46c48 176 202 310 368 310c91 0 152 -36 205 -93c2 -2 2 -5 0 -8l-6 -6c-3 -3 -6 -2 -8 0c-50 56 -108 89 -194 89c-156 0 -301 -126 -346 -292h327c4 0 7 -3 6 -7
l-1 -4c-1 -4 -4 -7 -8 -7h-329c-7 -27 -11 -54 -10 -100h290c3 0 7 -2 6 -6l-1 -5c-1 -4 -4 -6 -7 -6h-286c13 -150 118 -257 263 -257c77 0 151 32 220 93c2 2 6 3 8 0l4 -6c1 -2 1 -5 -1 -7c-72 -66 -154 -98 -234 -98c-154 0 -267 116 -279 275h-51z" />
    <glyph glyph-name="cent" unicode="&#xa2;" horiz-adv-x="425" 
d="M98 -81l31 85c-59 25 -100 90 -100 169c0 137 102 237 224 237c11 0 22 -1 31 -3l15 38c1 4 4 6 8 5l3 -1c4 -1 6 -3 4 -9l-14 -36c54 -14 81 -47 83 -49c3 -3 1 -6 -1 -8l-5 -4c-3 -3 -7 -2 -9 1c0 0 -26 30 -75 43l-141 -373c14 -4 29 -6 45 -6c79 0 139 63 140 63
c3 3 6 3 8 1l3 -4c2 -2 3 -5 1 -7c-1 0 -66 -71 -155 -71c-18 0 -34 4 -49 9l-32 -85c-2 -4 -5 -6 -8 -5l-4 1c-4 1 -5 5 -3 9zM137 20l140 370c-9 1 -17 2 -26 2c-105 0 -205 -90 -205 -217c0 -71 37 -132 91 -155z" />
    <glyph glyph-name="sterling" unicode="&#xa3;" horiz-adv-x="499" 
d="M47 10c48 94 84 192 80 301h-38c-4 0 -7 3 -6 7l1 4c1 3 3 6 7 6h36c-3 39 -7 87 -7 124c0 166 100 258 209 258c90 0 139 -48 158 -72c2 -3 1 -6 -2 -9l-4 -4c-2 -2 -6 -4 -8 -1c-17 21 -58 68 -146 68c-91 0 -190 -82 -190 -237c0 -37 4 -87 7 -127h214c4 0 7 -2 6 -6
l-1 -4c-1 -4 -3 -7 -7 -7h-213c2 -98 -23 -192 -72 -293h310c4 0 7 -3 6 -7l-1 -4c-1 -4 -3 -7 -7 -7h-327c-5 0 -7 5 -5 10z" />
    <glyph glyph-name="florin" unicode="&#x192;" horiz-adv-x="315" 
d="M59 -134l72 516h-97c-4 0 -7 3 -6 7l1 4c1 4 3 7 7 7h98l19 134c17 120 79 176 159 176c50 0 82 -25 96 -43c3 -3 2 -7 -1 -10l-4 -3c-3 -3 -7 -3 -9 0c-13 16 -40 38 -85 38c-70 0 -123 -50 -139 -158l-18 -134h161c3 0 7 -3 6 -7l-1 -4c-1 -4 -4 -7 -8 -7h-161
l-72 -516c-17 -120 -79 -176 -159 -176c-51 0 -83 25 -97 43c-2 3 -2 7 1 10l4 3c3 3 7 3 9 0c13 -16 40 -38 85 -38c70 0 124 50 139 158z" />
    <glyph glyph-name="yen" unicode="&#xa5;" horiz-adv-x="558" 
d="M99 155c-3 0 -6 3 -5 7l1 4c1 4 4 6 7 6h151l14 101h-151c-4 0 -6 3 -5 6l1 6c1 4 3 5 6 5h151l8 53l-189 345c-2 3 -3 7 2 10l6 3c4 2 6 -1 7 -3l184 -339l278 339c2 3 7 6 10 3l5 -4c4 -3 3 -6 0 -9l-285 -344l-8 -54h152c3 0 6 -3 5 -7l-1 -4c-1 -4 -4 -6 -6 -6h-152
l-15 -101h152c3 0 7 -2 6 -6l-1 -5c-1 -4 -4 -6 -7 -6h-152l-21 -148c0 -4 -4 -7 -7 -7h-5c-4 0 -6 3 -6 7l21 148h-151z" />
    <glyph glyph-name="ordfeminine" unicode="&#xaa;" horiz-adv-x="314" 
d="M154 401c-49 0 -87 39 -78 101c8 56 56 98 130 98c28 0 56 -7 70 -13l4 26c7 55 -5 79 -56 79c-50 0 -81 -21 -81 -21c-3 -2 -5 -1 -6 1l-3 6c-1 3 0 6 3 8c0 0 35 24 89 24c60 0 80 -33 71 -97l-28 -196c-1 -4 -4 -7 -8 -7h-3c-4 0 -7 3 -6 7l4 25
c-22 -18 -62 -41 -102 -41zM156 419c44 0 87 29 103 48l14 102c-9 4 -37 15 -69 15c-61 0 -105 -36 -111 -82c-7 -53 20 -83 63 -83z" />
    <glyph glyph-name="ordmasculine" unicode="&#xba;" horiz-adv-x="317" 
d="M173 394c-65 0 -100 61 -86 158c13 98 60 158 131 158c65 0 101 -60 88 -158c-14 -97 -62 -158 -133 -158zM176 412c59 0 99 53 112 140c12 88 -14 141 -73 141c-58 0 -99 -53 -111 -141c-13 -87 14 -140 72 -140z" />
    <glyph glyph-name="onesuperior" unicode="&#xb9;" horiz-adv-x="176" 
d="M135 504c-4 0 -6 3 -6 7l38 266l-54 -39c-4 -3 -6 -1 -8 1l-4 5c-1 2 -2 4 3 7l73 53c5 4 10 0 9 -6l-40 -287c0 -4 -4 -7 -8 -7h-3z" />
    <glyph glyph-name="twosuperior" unicode="&#xb2;" horiz-adv-x="306" 
d="M103 504c-7 0 -8 9 -3 13l133 111c31 25 58 53 63 91c5 37 -17 73 -66 73c-48 0 -72 -36 -72 -36c-2 -4 -5 -5 -8 -3l-4 3c-1 1 -4 4 0 9c0 0 27 45 87 45c56 0 87 -44 80 -91c-5 -40 -33 -74 -69 -104l-113 -93h147c3 0 6 -3 5 -7l-1 -4c-1 -4 -4 -7 -7 -7h-172z" />
    <glyph glyph-name="threesuperior" unicode="&#xb3;" horiz-adv-x="310" 
d="M190 494c-52 0 -80 31 -90 42c-2 3 -2 6 2 10l3 3c3 3 6 3 9 0c8 -9 27 -37 80 -37c52 0 88 29 94 69c4 35 -18 65 -65 65h-59c-3 0 -6 3 -5 7l1 4c1 4 3 7 6 7h59c39 0 70 29 75 65c6 39 -18 63 -63 63c-53 0 -84 -36 -84 -36c-1 -2 -5 -3 -7 -1l-3 3c-5 5 -3 7 0 10
c0 0 33 42 97 42c50 0 85 -30 78 -81c-4 -31 -30 -64 -56 -73c30 -13 48 -43 44 -75c-8 -50 -52 -87 -116 -87z" />
    <glyph glyph-name="fraction" unicode="&#x2044;" horiz-adv-x="90" 
d="M-141 2c-2 -3 -7 -3 -9 -1l-4 3c-3 2 -3 6 -1 9l472 686c2 3 5 3 8 1l5 -4c1 -1 4 -3 0 -8z" />
    <glyph glyph-name="uni2215" unicode="&#x2215;" horiz-adv-x="90" 
d="M-141 2c-2 -3 -7 -3 -9 -1l-4 3c-3 2 -3 6 -1 9l472 686c2 3 5 3 8 1l5 -4c1 -1 4 -3 0 -8z" />
    <glyph glyph-name="onehalf" unicode="&#xbd;" horiz-adv-x="581" 
d="M145 404c-4 0 -6 3 -6 7l38 266l-54 -39c-4 -3 -6 -1 -8 1l-4 5c-1 2 -2 4 3 7l73 53c5 4 10 0 9 -6l-40 -287c0 -4 -4 -7 -8 -7h-3zM32 4c-3 2 -3 6 -1 9l472 686c2 3 5 3 8 1l5 -4c1 -1 4 -3 0 -8l-471 -686c-2 -3 -7 -3 -9 -1zM285 13l133 111c31 25 58 53 63 91
c5 37 -17 73 -66 73c-48 0 -72 -36 -72 -36c-2 -4 -5 -5 -8 -3l-4 3c-1 1 -4 4 0 9c0 0 27 45 87 45c56 0 87 -44 80 -91c-5 -40 -33 -74 -69 -104l-113 -93h147c3 0 6 -3 5 -7l-1 -4c-1 -4 -4 -7 -7 -7h-172c-7 0 -8 9 -3 13z" />
    <glyph glyph-name="onethird" unicode="&#x2153;" horiz-adv-x="599" 
d="M112 404c-4 0 -6 3 -6 7l38 266l-54 -39c-4 -3 -6 -1 -8 1l-4 5c-1 2 -2 4 3 7l73 53c5 4 10 0 9 -6l-40 -287c0 -4 -4 -7 -8 -7h-3zM3 1l-4 3c-3 2 -3 6 -1 9l472 686c2 3 5 3 8 1l5 -4c1 -1 4 -3 0 -8l-471 -686c-2 -3 -7 -3 -9 -1zM265 32c-2 3 -2 6 2 10l3 3
c3 3 6 3 9 0c8 -9 27 -37 80 -37c52 0 88 29 94 69c4 35 -18 65 -65 65h-59c-3 0 -6 3 -5 7l1 4c1 4 3 7 6 7h59c39 0 70 29 75 65c6 39 -18 63 -63 63c-53 0 -84 -36 -84 -36c-1 -2 -5 -3 -7 -1l-3 3c-5 5 -3 7 0 10c0 0 33 42 97 42c50 0 85 -30 78 -81
c-4 -31 -30 -64 -56 -73c30 -13 48 -43 44 -75c-8 -50 -52 -87 -116 -87c-52 0 -80 31 -90 42z" />
    <glyph glyph-name="onequarter" unicode="&#xbc;" horiz-adv-x="591" 
d="M145 404c-4 0 -6 3 -6 7l38 266l-54 -39c-4 -3 -6 -1 -8 1l-4 5c-1 2 -2 4 3 7l73 53c5 4 10 0 9 -6l-40 -287c0 -4 -4 -7 -8 -7h-3zM32 4c-3 2 -3 6 -1 9l472 686c2 3 5 3 8 1l5 -4c1 -1 4 -3 0 -8l-471 -686c-2 -3 -7 -3 -9 -1zM257 79l214 223c6 4 12 2 11 -5
l-30 -212h45c3 0 6 -3 5 -7l-1 -5c-1 -3 -3 -5 -6 -5h-45l-9 -61c-1 -4 -4 -7 -7 -7h-4c-4 0 -6 3 -5 7l9 61h-173c-6 0 -8 6 -4 11zM285 85h151l26 183z" />
    <glyph glyph-name="oneeighth" unicode="&#x215b;" horiz-adv-x="624" 
d="M113 404c-4 0 -6 3 -6 7l38 266l-54 -39c-4 -3 -6 -1 -8 1l-4 5c-1 2 -2 4 3 7l73 53c5 4 10 0 9 -6l-40 -287c0 -4 -4 -7 -8 -7h-3zM1 4c-3 2 -3 6 -1 9l472 686c2 3 5 3 8 1l5 -4c1 -1 4 -3 0 -8l-471 -686c-2 -3 -7 -3 -9 -1zM278 74c5 38 36 68 79 79
c-33 11 -54 36 -49 70c6 43 33 83 103 83c63 0 91 -40 85 -83c-5 -34 -32 -61 -70 -72c42 -11 62 -39 57 -77c-8 -59 -54 -84 -112 -84c-53 0 -101 25 -93 84zM327 223c-5 -34 22 -57 67 -59c45 2 77 25 82 59c5 35 -14 67 -66 67c-53 0 -78 -32 -83 -67zM298 74
c-7 -47 29 -68 74 -68s85 21 92 68c5 38 -22 63 -74 66c-52 -3 -87 -28 -92 -66z" />
    <glyph glyph-name="twothirds" unicode="&#x2154;" horiz-adv-x="599" 
d="M-16 404c-7 0 -8 9 -3 13l133 111c31 25 58 53 63 91c5 37 -17 73 -66 73c-48 0 -72 -36 -72 -36c-2 -4 -5 -5 -8 -3l-4 3c-1 1 -4 4 0 9c0 0 27 45 87 45c56 0 87 -44 80 -91c-5 -40 -33 -74 -69 -104l-113 -93h147c3 0 6 -3 5 -7l-1 -4c-1 -4 -4 -7 -7 -7h-172zM1 1
l-4 3c-3 2 -3 6 -1 9l472 686c2 3 5 3 8 1l5 -4c1 -1 4 -3 0 -8l-471 -686c-2 -3 -7 -3 -9 -1zM261 32c-2 3 -2 6 2 10l3 3c3 3 6 3 9 0c8 -9 27 -37 80 -37c52 0 88 29 94 69c4 35 -18 65 -65 65h-59c-3 0 -6 3 -5 7l1 4c1 4 3 7 6 7h59c39 0 70 29 75 65
c6 39 -18 63 -63 63c-53 0 -84 -36 -84 -36c-1 -2 -5 -3 -7 -1l-3 3c-5 5 -3 7 0 10c0 0 33 42 97 42c50 0 85 -30 78 -81c-4 -31 -30 -64 -56 -73c30 -13 48 -43 44 -75c-8 -50 -52 -87 -116 -87c-52 0 -80 31 -90 42z" />
    <glyph glyph-name="threequarters" unicode="&#xbe;" horiz-adv-x="639" 
d="M168 394c-52 0 -80 31 -90 42c-2 3 -2 6 2 10l3 3c3 3 6 3 9 0c8 -9 27 -37 80 -37c52 0 88 29 94 69c4 35 -18 65 -65 65h-59c-3 0 -6 3 -5 7l1 4c1 4 3 7 6 7h59c39 0 70 29 75 65c6 39 -18 63 -63 63c-53 0 -84 -36 -84 -36c-1 -2 -5 -3 -7 -1l-3 3c-5 5 -3 7 0 10
c0 0 33 42 97 42c50 0 85 -30 78 -81c-4 -31 -30 -64 -56 -73c30 -13 48 -43 44 -75c-8 -50 -52 -87 -116 -87zM79 13l472 686c2 3 5 3 8 1l5 -4c1 -1 4 -3 0 -8l-471 -686c-2 -3 -7 -3 -9 -1l-4 3c-3 2 -3 6 -1 9zM305 79l214 223c6 4 12 2 11 -5l-30 -212h45
c3 0 6 -3 5 -7l-1 -5c-1 -3 -3 -5 -6 -5h-45l-9 -61c-1 -4 -4 -7 -7 -7h-4c-4 0 -6 3 -5 7l9 61h-173c-6 0 -8 6 -4 11zM333 85h151l26 183z" />
    <glyph glyph-name="threeeighths" unicode="&#x215c;" horiz-adv-x="684" 
d="M144 394c-52 0 -80 31 -90 42c-2 3 -2 6 2 10l3 3c3 3 6 3 9 0c8 -9 27 -37 80 -37c52 0 88 29 94 69c4 35 -18 65 -65 65h-59c-3 0 -6 3 -5 7l1 4c1 4 3 7 6 7h59c39 0 70 29 75 65c6 39 -18 63 -63 63c-53 0 -84 -36 -84 -36c-1 -2 -5 -3 -7 -1l-3 3c-5 5 -3 7 0 10
c0 0 33 42 97 42c50 0 85 -30 78 -81c-4 -31 -30 -64 -56 -73c30 -13 48 -43 44 -75c-8 -50 -52 -87 -116 -87zM57 4c-3 2 -3 6 -1 9l472 686c2 3 5 3 8 1l5 -4c1 -1 4 -3 0 -8l-471 -686c-2 -3 -7 -3 -9 -1zM325 74c5 38 36 68 79 79c-33 11 -54 36 -49 70
c6 43 33 83 103 83c63 0 91 -40 85 -83c-5 -34 -32 -61 -70 -72c42 -11 62 -39 57 -77c-8 -59 -54 -84 -112 -84c-53 0 -101 25 -93 84zM374 223c-5 -34 22 -57 67 -59c45 2 77 25 82 59c5 35 -14 67 -66 67c-53 0 -78 -32 -83 -67zM345 74c-7 -47 29 -68 74 -68
s85 21 92 68c5 38 -22 63 -74 66c-52 -3 -87 -28 -92 -66z" />
    <glyph glyph-name="fiveeighths" unicode="&#x215d;" horiz-adv-x="684" 
d="M57 4c-3 2 -3 6 -1 9l472 686c2 3 5 3 8 1l5 -4c1 -1 4 -3 0 -8l-471 -686c-2 -3 -7 -3 -9 -1zM148 394c-49 0 -73 26 -84 39c-2 3 -2 7 2 10l3 4c4 3 8 3 9 0c9 -12 26 -35 73 -35c55 0 97 40 104 87c7 49 -19 79 -81 78h-77c-4 0 -7 3 -6 7l15 109c1 4 4 7 8 7h144
c3 0 6 -3 5 -7l-1 -4c-1 -4 -4 -7 -7 -7h-134l-12 -87h67c72 1 105 -36 97 -96c-8 -57 -58 -105 -125 -105zM325 74c5 38 36 68 79 79c-33 11 -54 36 -49 70c6 43 33 83 103 83c63 0 91 -40 85 -83c-5 -34 -32 -61 -70 -72c42 -11 62 -39 57 -77c-8 -59 -54 -84 -112 -84
c-53 0 -101 25 -93 84zM374 223c-5 -34 22 -57 67 -59c45 2 77 25 82 59c5 35 -14 67 -66 67c-53 0 -78 -32 -83 -67zM345 74c-7 -47 29 -68 74 -68s85 21 92 68c5 38 -22 63 -74 66c-52 -3 -87 -28 -92 -66z" />
    <glyph glyph-name="seveneighths" unicode="&#x215e;" horiz-adv-x="684" 
d="M62 4c-3 2 -3 6 -1 9l472 686c2 3 5 3 8 1l5 -4c1 -1 4 -3 0 -8l-471 -686c-2 -3 -7 -3 -9 -1zM141 403l-3 2c-5 3 -3 6 -1 10l170 267h-156c-3 0 -6 3 -5 7l1 4c1 4 4 7 7 7h175c6 0 7 -5 4 -10l-182 -285c-2 -3 -7 -4 -10 -2zM328 74c5 38 36 68 79 79
c-33 11 -54 36 -49 70c6 43 33 83 103 83c63 0 91 -40 85 -83c-5 -34 -32 -61 -70 -72c42 -11 62 -39 57 -77c-8 -59 -54 -84 -112 -84c-53 0 -101 25 -93 84zM377 223c-5 -34 22 -57 67 -59c45 2 77 25 82 59c5 35 -14 67 -66 67c-53 0 -78 -32 -83 -67zM348 74
c-7 -47 29 -68 74 -68s85 21 92 68c5 38 -22 63 -74 66c-52 -3 -87 -28 -92 -66z" />
    <glyph glyph-name="perthousand" unicode="&#x2030;" horiz-adv-x="1018" 
d="M192 427c-63 0 -110 55 -110 123c0 91 69 160 146 160c63 0 110 -55 110 -122c0 -92 -69 -161 -146 -161zM70 4c-2 2 -2 5 0 8l470 686c2 3 5 3 7 1l6 -3c2 -1 5 -3 1 -8l-470 -686c-2 -3 -4 -5 -7 -3zM193 445c66 0 128 63 128 140c0 59 -39 107 -94 107
c-67 0 -127 -63 -127 -140c0 -59 37 -107 93 -107zM594 112c0 92 69 161 147 161c62 0 110 -55 110 -123c0 -91 -70 -160 -146 -160c-64 0 -111 55 -111 122zM299 112c0 92 69 161 147 161c62 0 110 -55 110 -123c0 -91 -70 -160 -146 -160c-64 0 -111 55 -111 122zM612 115
c0 -59 38 -107 93 -107c67 0 127 63 127 140c0 59 -37 107 -92 107c-67 0 -128 -63 -128 -140zM317 115c0 -59 38 -107 93 -107c67 0 127 63 127 140c0 59 -37 107 -92 107c-67 0 -128 -63 -128 -140z" />
    <glyph glyph-name="minus" unicode="&#x2212;" horiz-adv-x="503" 
d="M35 340c-3 0 -6 3 -5 7l1 4c1 4 4 7 7 7h351c3 0 6 -3 5 -7l-1 -4c-1 -4 -4 -7 -7 -7h-351z" />
    <glyph glyph-name="plusminus" unicode="&#xb1;" horiz-adv-x="588" 
d="M287 218c-3 0 -6 3 -5 7l22 156h-166c-4 0 -7 3 -6 7l1 4c1 4 3 7 7 7h166l26 185c1 4 4 7 7 7h6c3 0 6 -3 5 -7l-26 -185h166c3 0 7 -3 6 -7l-1 -4c-1 -4 -4 -7 -7 -7h-166l-22 -156c-1 -4 -4 -7 -7 -7h-6zM98 85c-3 0 -6 3 -5 7v4c1 4 4 7 7 7h350c4 0 7 -3 6 -7v-4
c-1 -4 -4 -7 -8 -7h-350z" />
    <glyph glyph-name="multiply" unicode="&#xd7;" horiz-adv-x="403" 
d="M63 203l-3 4c-2 2 -2 7 1 9l138 133l-100 131c-2 3 -2 8 1 10l3 2c3 2 7 3 9 0l99 -131l137 131c3 3 7 3 9 0l3 -4c2 -3 3 -7 -1 -10l-136 -131l98 -131c3 -3 2 -6 0 -8l-4 -4c-3 -3 -6 -2 -8 1l-99 130l-139 -132c-3 -3 -6 -3 -8 0z" />
    <glyph glyph-name="divide" unicode="&#xf7;" horiz-adv-x="663" 
d="M354 465c-11 0 -20 11 -18 24s13 23 24 23c13 0 21 -10 19 -23s-12 -24 -25 -24zM164 340c-3 0 -6 3 -5 7l1 4c1 4 4 7 7 7h351c3 0 6 -3 5 -7l-1 -4c-1 -4 -4 -7 -7 -7h-351zM297 209c2 13 13 23 24 23c13 0 21 -10 19 -23s-12 -24 -25 -24c-11 0 -20 11 -18 24z" />
    <glyph glyph-name="notequal" unicode="&#x2260;" horiz-adv-x="445" 
d="M101 80l-5 3c-4 2 -5 6 -2 9l55 84h-89c-4 0 -7 3 -6 7l1 4c1 4 3 7 7 7h99l124 188h-196c-4 0 -7 3 -6 7l1 4c1 4 3 7 7 7h205l43 66c2 4 7 3 10 2l4 -2c4 -2 6 -6 3 -10l-38 -56h70c4 0 8 -3 7 -7l-1 -4c-1 -4 -4 -7 -8 -7h-80l-124 -188h177c4 0 8 -3 7 -7l-1 -4
c-1 -4 -4 -7 -8 -7h-187l-61 -93c-2 -3 -5 -4 -8 -3z" />
    <glyph glyph-name="approxequal" unicode="&#x2248;" horiz-adv-x="559" 
d="M69 345l-5 3c-2 1 -4 3 -1 7c0 0 43 80 109 80c33 0 54 -28 67 -50c12 -21 28 -45 56 -45c56 0 93 71 93 71c2 4 4 4 6 3l5 -4c3 -2 5 -4 2 -8c0 0 -42 -78 -109 -78c-33 0 -53 27 -66 50c-11 19 -26 44 -56 44c-55 0 -94 -70 -94 -70c-2 -4 -5 -5 -7 -3zM46 179l-5 3
c-2 1 -4 3 -1 7c0 0 43 80 109 80c33 0 54 -28 67 -50c12 -21 28 -45 56 -45c56 0 93 71 93 71c2 4 4 4 6 3l5 -4c3 -2 5 -4 2 -8c0 0 -42 -78 -109 -78c-33 0 -53 27 -66 50c-11 19 -26 44 -56 44c-55 0 -94 -70 -94 -70c-2 -4 -5 -5 -7 -3z" />
    <glyph glyph-name="lessequal" unicode="&#x2264;" horiz-adv-x="448" 
d="M61 393c-5 3 -4 9 1 12l375 205c4 2 7 0 8 -3l2 -5c1 -3 1 -7 -3 -9l-360 -195l305 -187c4 -2 3 -6 1 -9l-3 -5c-2 -4 -4 -4 -8 -2zM22 85c-3 0 -6 3 -5 7l1 4c1 4 4 7 7 7h350c4 0 7 -3 6 -7l-1 -4c-1 -4 -4 -7 -8 -7h-350z" />
    <glyph glyph-name="greaterequal" unicode="&#x2265;" horiz-adv-x="448" 
d="M44 195c-4 -2 -6 -1 -8 3l-2 5c-1 3 -1 7 3 9l359 188l-304 195c-4 2 -3 6 -1 9l2 3c2 4 6 5 9 3l317 -205c5 -3 4 -9 -1 -12zM19 85c-4 0 -7 3 -6 7l1 4c1 4 4 7 8 7h350c3 0 6 -3 5 -7l-1 -4c-1 -4 -4 -7 -7 -7h-350z" />
    <glyph glyph-name="logicalnot" unicode="&#xac;" horiz-adv-x="513" 
d="M83 340c-3 0 -6 3 -5 7l1 4c1 4 3 7 6 7h351c4 0 6 -3 5 -7l-27 -197c-1 -4 -4 -7 -7 -7h-5c-4 0 -6 3 -5 7l26 186h-340z" />
    <glyph glyph-name="Delta" unicode="&#x2206;" horiz-adv-x="658" 
d="M-26 0c-6 0 -17 -1 -7 19l370 698c1 2 3 4 5 4h2c1 0 3 -2 4 -4l169 -700c5 -17 -8 -17 -13 -17h-530zM-14 18h511l-158 664z" />
    <glyph glyph-name="uni0394" unicode="&#x394;" horiz-adv-x="658" 
d="M-26 0c-6 0 -17 -1 -7 19l370 698c1 2 3 4 5 4h2c1 0 3 -2 4 -4l169 -700c5 -17 -8 -17 -13 -17h-530zM-14 18h511l-158 664z" />
    <glyph glyph-name="Omega" unicode="&#x2126;" horiz-adv-x="781" 
d="M3 7l1 4c1 4 3 7 7 7h167c-110 54 -175 180 -153 331c28 201 191 361 375 361c178 0 304 -160 276 -361c-21 -149 -120 -279 -243 -331h166c4 0 7 -3 6 -7l-1 -4c-1 -4 -3 -7 -7 -7h-214c-4 0 -6 3 -5 7l1 4c1 4 2 7 6 7c137 39 250 172 273 331c27 191 -88 343 -260 343
s-328 -152 -355 -343c-23 -161 53 -294 182 -331c3 0 7 -3 6 -7l-1 -4c-1 -4 -4 -7 -7 -7h-214c-4 0 -7 3 -6 7z" />
    <glyph glyph-name="uni03A9" unicode="&#x3a9;" horiz-adv-x="781" 
d="M3 7l1 4c1 4 3 7 7 7h167c-110 54 -175 180 -153 331c28 201 191 361 375 361c178 0 304 -160 276 -361c-21 -149 -120 -279 -243 -331h166c4 0 7 -3 6 -7l-1 -4c-1 -4 -3 -7 -7 -7h-214c-4 0 -6 3 -5 7l1 4c1 4 2 7 6 7c137 39 250 172 273 331c27 191 -88 343 -260 343
s-328 -152 -355 -343c-23 -161 53 -294 182 -331c3 0 7 -3 6 -7l-1 -4c-1 -4 -4 -7 -7 -7h-214c-4 0 -7 3 -6 7z" />
    <glyph glyph-name="mu" unicode="&#xb5;" horiz-adv-x="469" 
d="M70 78l-52 -371c0 -4 -4 -7 -8 -7h-5c-4 0 -6 3 -6 7l97 686c0 4 4 7 8 7h4c4 0 6 -3 6 -7l-31 -219c-15 -109 24 -166 111 -166c81 0 136 73 142 82l44 303c0 4 4 7 8 7h4c4 0 5 -3 5 -7l-55 -386c0 -4 -3 -7 -7 -7h-5c-4 0 -6 3 -6 7l8 53c-24 -28 -75 -70 -141 -70
c-63 0 -110 29 -121 88z" />
    <glyph glyph-name="uni03BC" unicode="&#x3bc;" horiz-adv-x="469" 
d="M70 78l-52 -371c0 -4 -4 -7 -8 -7h-5c-4 0 -6 3 -6 7l97 686c0 4 4 7 8 7h4c4 0 6 -3 6 -7l-31 -219c-15 -109 24 -166 111 -166c81 0 136 73 142 82l44 303c0 4 4 7 8 7h4c4 0 5 -3 5 -7l-55 -386c0 -4 -3 -7 -7 -7h-5c-4 0 -6 3 -6 7l8 53c-24 -28 -75 -70 -141 -70
c-63 0 -110 29 -121 88z" />
    <glyph glyph-name="pi" unicode="&#x3c0;" horiz-adv-x="773" 
d="M215 7l53 375h-113c-3 0 -6 3 -5 7l1 4c1 4 4 7 7 7h491c3 0 6 -3 5 -7l-1 -4c-1 -4 -4 -7 -7 -7h-113l-53 -375c0 -4 -3 -7 -7 -7h-4c-3 0 -5 3 -5 7l53 375h-232l-53 -375c0 -4 -4 -7 -7 -7h-5c-4 0 -5 3 -5 7z" />
    <glyph glyph-name="degree" unicode="&#xb0;" horiz-adv-x="340" 
d="M189 427c-68 0 -119 63 -107 142c11 78 74 141 146 141c67 0 119 -63 108 -141c-12 -79 -76 -142 -147 -142zM191 445c61 0 116 55 126 124c9 68 -30 123 -91 123c-62 0 -117 -55 -126 -123c-10 -69 29 -124 91 -124z" />
    <glyph glyph-name="afii61289" unicode="&#x2113;" horiz-adv-x="505" 
d="M159 -10c-116 0 -108 128 -75 231l6 16c-24 -8 -50 -16 -68 -20c-4 -1 -6 2 -6 5l-1 8c-1 4 2 7 7 8c23 5 49 12 75 21l33 105c72 220 138 346 227 346c52 0 82 -48 72 -121c-25 -180 -170 -289 -316 -344l-10 -28c-25 -79 -48 -207 59 -207c96 0 155 43 160 47
c4 2 8 2 9 -1l3 -4c1 -3 2 -7 -2 -10c-5 -4 -72 -52 -173 -52zM119 266c136 53 267 159 290 323c9 61 -9 101 -54 101c-78 0 -139 -124 -206 -328z" />
    <glyph glyph-name="estimated" unicode="&#x212e;" horiz-adv-x="823" 
d="M93 148c42 -83 129 -140 230 -140c77 0 153 32 222 93c2 2 5 3 7 0l4 -6c0 -2 0 -5 -1 -7c-72 -66 -157 -98 -234 -98c-184 0 -303 158 -275 359c29 201 191 361 376 361c177 0 302 -158 276 -358v-1l-1 -4c0 -4 -4 -7 -7 -7h-570zM123 358h502l26 191
c-43 86 -127 143 -231 143c-103 0 -202 -55 -270 -141z" />
    <glyph glyph-name="eng" unicode="&#x14b;" horiz-adv-x="461" 
d="M41 7l55 386c1 4 4 7 7 7h4c4 0 6 -3 6 -7l-8 -55c26 27 80 72 151 72c94 0 140 -65 122 -186l-50 -358c-17 -120 -66 -176 -151 -176c-49 0 -83 25 -96 43c-2 3 -2 7 2 10l3 2c3 2 6 3 9 0c13 -15 39 -38 82 -38c73 0 118 51 133 159l51 358c16 109 -23 168 -105 168
c-83 0 -146 -71 -154 -82l-43 -303c-1 -4 -4 -7 -8 -7h-4c-4 0 -7 3 -6 7z" />
    <glyph glyph-name="Eng" unicode="&#x14a;" horiz-adv-x="715" 
d="M72 7l99 703c1 7 10 10 13 4c367 -689 367 -688 367 -688l94 667c1 4 4 7 8 7h4c4 0 7 -3 6 -7l-116 -827c-17 -120 -66 -176 -151 -176c-49 0 -83 25 -96 43c-2 3 -2 7 2 10l3 2c3 2 6 3 9 0c13 -15 39 -38 82 -38c73 0 118 51 133 159l18 129l-363 681l-94 -669
c-1 -4 -4 -7 -8 -7h-4c-4 0 -7 3 -6 7z" />
    <glyph glyph-name="infinity" unicode="&#x221e;" horiz-adv-x="697" 
d="M193 157c-64 0 -109 55 -109 122c0 92 71 161 149 161c51 0 91 -38 104 -89c25 54 77 89 133 89c62 0 108 -55 108 -123c0 -91 -72 -160 -148 -160c-53 0 -93 37 -105 88c-26 -53 -78 -88 -132 -88zM339 282c0 -59 38 -107 93 -107c67 0 127 63 127 140
c0 59 -37 107 -92 107c-77 0 -123 -70 -128 -140zM195 175c67 0 127 63 127 140c0 59 -37 107 -92 107c-67 0 -128 -63 -128 -140c0 -59 38 -107 93 -107z" />
    <glyph glyph-name="partialdiff" unicode="&#x2202;" horiz-adv-x="600" 
d="M75 222c19 135 121 221 228 221c102 0 157 -75 180 -118c9 238 -169 338 -229 363c-3 2 -4 4 -2 8l3 6c2 4 6 4 9 3c64 -27 271 -152 232 -429c-22 -160 -113 -286 -252 -286c-105 0 -187 103 -169 232zM92 222c-17 -119 54 -214 155 -214c126 0 211 117 232 268l2 14
c-4 9 -48 135 -181 135c-95 0 -191 -78 -208 -203z" />
    <glyph glyph-name="integral" unicode="&#x222b;" horiz-adv-x="314" 
d="M55 -134l93 668c17 120 80 176 160 176c50 0 82 -25 97 -43c2 -3 3 -7 0 -9l-5 -4c-3 -3 -6 -3 -9 0c-13 16 -39 38 -85 38c-71 0 -125 -50 -141 -158l-93 -668c-17 -120 -78 -176 -158 -176c-50 0 -83 25 -97 43c-2 3 -3 6 0 9l5 5c3 3 6 2 9 -1c12 -16 39 -38 85 -38
c71 0 123 50 139 158z" />
    <glyph glyph-name="radical" unicode="&#x221a;" horiz-adv-x="638" 
d="M273 -16l-99 410c-1 4 0 6 3 7l6 2c3 1 5 0 6 -5l92 -382l360 676c3 7 6 8 11 8h101c4 0 7 -3 6 -7l-1 -4c-1 -4 -3 -7 -7 -7h-97l-370 -698c-4 -6 -10 -6 -11 0z" />
    <glyph glyph-name="summation" unicode="&#x2211;" horiz-adv-x="515" 
d="M24 0c-9 0 -9 14 -3 19l364 348l-271 316c-5 6 -1 17 9 17h366c4 0 7 -3 6 -7l-1 -4c-1 -4 -4 -7 -8 -7h-346l260 -306c3 -3 6 -6 5 -10l-1 -5c-1 -4 -4 -6 -7 -9l-353 -334h349c4 0 7 -3 6 -7l-1 -4c-1 -4 -4 -7 -8 -7h-366z" />
    <glyph glyph-name="product" unicode="&#x220f;" horiz-adv-x="624" 
d="M25 7l97 686c0 4 4 7 8 7h462c4 0 6 -3 6 -7l-97 -686c0 -4 -4 -7 -8 -7h-3c-4 0 -7 3 -6 7l95 675h-442l-95 -675c0 -4 -4 -7 -8 -7h-3c-4 0 -7 3 -6 7z" />
    <glyph glyph-name="lozenge" unicode="&#x25ca;" horiz-adv-x="658" 
d="M275 3l-147 335c-9 22 -9 22 6 43l242 336c1 2 3 4 5 4h2c2 0 3 -1 4 -4l144 -334c11 -23 11 -23 -7 -46l-238 -334c-1 -2 -3 -4 -5 -4h-2c-2 0 -3 2 -4 4zM284 35l234 326l-139 327l-238 -330z" />
    <glyph glyph-name="uniF8FF" unicode="&#xf8ff;" horiz-adv-x="599" 
d="M50 30v640c0 21 9 30 30 30h439c21 0 30 -9 30 -30v-640c0 -21 -9 -30 -30 -30h-439c-21 0 -30 9 -30 30zM262 314c0 -7 7 -12 14 -12h36c9 0 15 4 15 13v26c0 48 105 63 105 150c0 65 -54 111 -125 111c-87 0 -130 -61 -130 -61c-4 -6 -6 -13 0 -18l22 -22
c6 -4 11 -4 17 0c13 12 36 41 84 41c40 0 61 -25 61 -52c0 -63 -99 -72 -99 -147v-29zM245 156c0 -26 22 -48 48 -48c27 0 49 22 49 48s-22 48 -49 48c-26 0 -48 -22 -48 -48z" />
    <glyph glyph-name="zero.tf" horiz-adv-x="604" 
d="M264 -11c-118 0 -181 104 -181 265c0 263 108 439 280 439c117 0 180 -104 180 -264c0 -263 -108 -440 -279 -440zM266 7c162 0 258 169 258 421c0 151 -56 247 -164 247c-162 0 -258 -169 -258 -421c0 -151 56 -247 164 -247z" />
    <glyph glyph-name="one.tf" horiz-adv-x="604" 
d="M83 0c-3 0 -6 3 -5 7l1 4c1 4 3 7 7 7h194l90 635l-224 -151c-3 -2 -5 -2 -7 1l-4 6c-1 2 -1 5 3 8l243 166c5 4 11 0 10 -6l-93 -659h171c3 0 5 -3 4 -7l-1 -4c-1 -4 -3 -7 -6 -7h-176h-1h-4h-1h-201z" />
    <glyph glyph-name="two.tf" horiz-adv-x="604" 
d="M70 12l293 267c83 75 140 145 140 240c0 82 -51 156 -158 156c-100 0 -154 -93 -155 -93c-2 -4 -5 -4 -7 -3l-6 4c-3 2 -4 4 -1 9c0 0 62 100 171 100c118 0 174 -80 174 -170c0 -103 -58 -176 -146 -256l-271 -248h336c4 0 6 -3 6 -7l-1 -4c0 -4 -4 -7 -7 -7h-365
c-6 0 -8 8 -3 12z" />
    <glyph glyph-name="three.tf" horiz-adv-x="604" 
d="M80 80c-2 4 -2 7 1 9l5 4c3 2 6 1 8 -2c13 -18 58 -83 155 -83c128 0 217 88 217 196c0 71 -52 141 -139 141h-120c-4 0 -7 4 -6 8l1 4c1 4 4 6 7 6h118c80 0 170 73 170 178c0 77 -52 134 -136 134c-110 0 -169 -76 -175 -83c-2 -3 -5 -4 -8 -2l-5 4c-3 2 -3 5 -1 8
c9 11 74 90 192 90c93 0 151 -64 151 -149c0 -93 -65 -165 -135 -188v-1c64 -19 104 -84 104 -149c0 -117 -96 -215 -235 -215c-99 0 -159 68 -169 90z" />
    <glyph glyph-name="four.tf" horiz-adv-x="604" 
d="M56 159c-7 0 -8 6 -4 11l463 524c4 4 10 3 9 -3l-72 -515h64c4 0 7 -2 6 -6l-1 -5c-1 -4 -3 -6 -9 -6h-62l-22 -152c0 -3 -3 -7 -7 -7h-5c-3 0 -6 3 -5 7l22 152h-377zM80 176h355l68 480z" />
    <glyph glyph-name="five.tf" horiz-adv-x="604" 
d="M99 76c-2 4 -3 7 1 9l6 4c4 3 6 2 8 -2c17 -28 58 -79 149 -79c129 0 231 110 231 251c0 96 -55 151 -168 151h-165c-4 0 -6 3 -6 7l36 258c1 4 4 7 8 7h294c4 0 6 -3 5 -7l-1 -3c-1 -4 -4 -7 -8 -7h-281l-34 -238h152c123 2 186 -61 186 -168
c0 -150 -112 -269 -249 -269c-100 0 -146 54 -164 86z" />
    <glyph glyph-name="six.tf" horiz-adv-x="604" 
d="M107 221c0 316 279 456 359 484c3 1 7 0 7 -3l1 -7c1 -4 -1 -7 -5 -8c-68 -24 -287 -134 -334 -362c34 43 112 118 217 118c94 0 169 -75 169 -188c0 -147 -117 -265 -238 -265c-116 0 -176 103 -176 231zM125 223c0 -120 54 -215 158 -215c114 0 220 109 220 247
c0 102 -68 170 -153 170c-132 0 -214 -126 -220 -135c-1 -5 -5 -34 -5 -67z" />
    <glyph glyph-name="seven.tf" horiz-adv-x="604" 
d="M151 9l351 656h-368c-4 0 -6 2 -5 6l1 5c1 4 2 6 5 6h386c4 0 6 -5 4 -9l-360 -672c-2 -4 -4 -5 -8 -3l-5 2c-3 1 -4 4 -1 9z" />
    <glyph glyph-name="eight.tf" horiz-adv-x="604" 
d="M91 147c0 112 74 180 185 201c-74 17 -121 71 -121 142c0 92 64 198 208 198c117 0 165 -79 165 -156c0 -96 -73 -164 -169 -185c86 -17 138 -80 138 -153c0 -143 -104 -204 -230 -204c-101 0 -176 51 -176 157zM320 357c105 7 190 69 190 175c0 70 -42 141 -148 141
c-132 0 -190 -98 -190 -182c0 -78 62 -129 148 -134zM109 148c0 -97 68 -142 161 -142c113 0 210 60 210 187c0 76 -62 136 -163 144c-124 -10 -208 -76 -208 -189z" />
    <glyph glyph-name="nine.tf" horiz-adv-x="604" 
d="M152 -9c-1 4 1 7 5 8c68 24 287 134 334 362c-34 -43 -112 -118 -217 -118c-94 0 -169 75 -169 188c0 147 117 265 238 265c116 0 176 -103 176 -231c0 -316 -279 -456 -359 -484c-3 -1 -7 0 -7 3zM276 261c132 0 214 126 220 135c1 5 5 34 5 67c0 120 -54 215 -158 215
c-114 0 -220 -109 -220 -247c0 -102 68 -170 153 -170z" />
    <glyph glyph-name="zerosuperior" unicode="&#x2070;" horiz-adv-x="343" 
d="M218 494c-65 0 -100 61 -86 158c13 98 60 158 131 158c65 0 101 -60 88 -158c-14 -97 -62 -158 -133 -158zM221 512c59 0 99 53 112 140c12 88 -14 141 -73 141c-58 0 -99 -53 -111 -141c-13 -87 14 -140 72 -140z" />
    <glyph glyph-name="foursuperior" unicode="&#x2074;" horiz-adv-x="374" 
d="M297 504c-4 0 -6 3 -5 7l9 61h-173c-6 0 -8 6 -4 11l214 223c6 4 12 2 11 -5l-30 -212h45c3 0 6 -3 5 -7l-1 -5c-1 -3 -3 -5 -6 -5h-45l-9 -61c-1 -4 -4 -7 -7 -7h-4zM152 589h151l26 183z" />
    <glyph glyph-name="fivesuperior" unicode="&#x2075;" horiz-adv-x="324" 
d="M201 494c-49 0 -73 26 -84 39c-2 3 -2 7 2 10l3 4c4 3 8 3 9 0c9 -12 26 -35 73 -35c55 0 97 40 104 87c7 49 -19 79 -81 78h-77c-4 0 -7 3 -6 7l15 109c1 4 4 7 8 7h144c3 0 6 -3 5 -7l-1 -4c-1 -4 -4 -7 -7 -7h-134l-12 -87h67c72 1 105 -36 97 -96
c-8 -57 -58 -105 -125 -105z" />
    <glyph glyph-name="sixsuperior" unicode="&#x2076;" horiz-adv-x="330" 
d="M216 494c-65 0 -100 60 -90 133c18 125 136 179 172 192c3 1 8 1 8 -4v-7c0 -3 -2 -6 -4 -7c-31 -11 -120 -52 -151 -139c20 18 51 42 96 42c49 0 91 -40 83 -103c-9 -59 -57 -107 -114 -107zM218 512c45 0 87 40 94 89c7 52 -25 84 -68 84c-64 0 -99 -54 -99 -54
c-9 -66 15 -119 73 -119z" />
    <glyph glyph-name="sevensuperior" unicode="&#x2077;" horiz-adv-x="308" 
d="M144 503l-3 2c-5 3 -3 6 -1 10l170 267h-156c-3 0 -6 3 -5 7l1 4c1 4 4 7 7 7h175c6 0 7 -5 4 -10l-182 -285c-2 -3 -7 -4 -10 -2z" />
    <glyph glyph-name="eightsuperior" unicode="&#x2078;" horiz-adv-x="327" 
d="M213 494c-53 0 -101 25 -93 84c5 38 36 68 79 79c-33 11 -54 36 -49 70c6 43 33 83 103 83c63 0 91 -40 85 -83c-5 -34 -32 -61 -70 -72c42 -11 62 -39 57 -77c-8 -59 -54 -84 -112 -84zM236 668c45 2 77 25 82 59c5 35 -14 67 -66 67c-53 0 -78 -32 -83 -67
c-5 -34 22 -57 67 -59zM214 510c45 0 85 21 92 68c5 38 -22 63 -74 66c-52 -3 -87 -28 -92 -66c-7 -47 29 -68 74 -68z" />
    <glyph glyph-name="ninesuperior" unicode="&#x2079;" horiz-adv-x="330" 
d="M171 485c-3 -1 -8 -2 -8 4v7c0 3 1 6 4 7c31 11 117 52 148 139c-20 -18 -45 -42 -93 -42c-49 0 -92 40 -84 103c9 59 57 107 115 107c65 0 99 -59 89 -132c-18 -125 -135 -180 -171 -193zM225 619c64 0 96 54 96 54c9 66 -12 119 -70 119c-45 0 -87 -40 -94 -89
c-7 -52 25 -84 68 -84z" />
    <glyph glyph-name="zeroinferior" unicode="&#x2080;" horiz-adv-x="343" 
d="M32 -2c13 98 60 158 131 158c65 0 101 -60 88 -158c-14 -97 -62 -158 -133 -158c-65 0 -100 61 -86 158zM49 -2c-13 -87 14 -140 72 -140c59 0 99 53 112 140c12 88 -14 141 -73 141c-58 0 -99 -53 -111 -141z" />
    <glyph glyph-name="oneinferior" unicode="&#x2081;" horiz-adv-x="187" 
d="M41 85l-4 5c-1 2 -2 4 3 7l73 53c5 4 10 0 9 -6l-40 -287c0 -4 -4 -7 -8 -7h-3c-4 0 -6 3 -6 7l38 266l-54 -39c-4 -3 -6 -1 -8 1z" />
    <glyph glyph-name="twoinferior" unicode="&#x2082;" horiz-adv-x="309" 
d="M63 99l-4 3c-1 1 -4 4 0 9c0 0 27 45 87 45c56 0 87 -44 80 -91c-5 -40 -33 -74 -69 -104l-113 -93h147c3 0 6 -3 5 -7l-1 -4c-1 -4 -4 -7 -7 -7h-172c-7 0 -8 9 -3 13l133 111c31 25 58 53 63 91c5 37 -17 73 -66 73c-48 0 -72 -36 -72 -36c-2 -4 -5 -5 -8 -3z" />
    <glyph glyph-name="threeinferior" unicode="&#x2083;" horiz-adv-x="324" 
d="M76 -1l1 4c1 4 3 7 6 7h59c39 0 70 29 75 65c6 39 -18 63 -63 63c-53 0 -84 -36 -84 -36c-1 -2 -5 -3 -7 -1l-3 3c-5 5 -3 7 0 10c0 0 33 42 97 42c50 0 85 -30 78 -81c-4 -31 -30 -64 -56 -73c30 -13 48 -43 44 -75c-8 -50 -52 -87 -116 -87c-52 0 -80 31 -90 42
c-2 3 -2 6 2 10l3 3c3 3 6 3 9 0c8 -9 27 -37 80 -37c52 0 88 29 94 69c4 35 -18 65 -65 65h-59c-3 0 -6 3 -5 7z" />
    <glyph glyph-name="fourinferior" unicode="&#x2084;" horiz-adv-x="374" 
d="M24 -71l214 223c6 4 12 2 11 -5l-30 -212h45c3 0 6 -3 5 -7l-1 -5c-1 -3 -3 -5 -6 -5h-45l-9 -61c-1 -4 -4 -7 -7 -7h-4c-4 0 -6 3 -5 7l9 61h-173c-6 0 -8 6 -4 11zM52 -65h151l26 183z" />
    <glyph glyph-name="fiveinferior" unicode="&#x2085;" horiz-adv-x="324" 
d="M44 30l15 109c1 4 4 7 8 7h144c3 0 6 -3 5 -7l-1 -4c-1 -4 -4 -7 -7 -7h-134l-12 -87h67c72 1 105 -36 97 -96c-8 -57 -58 -105 -125 -105c-49 0 -73 26 -84 39c-2 3 -2 7 2 10l3 4c4 3 8 3 9 0c9 -12 26 -35 73 -35c55 0 97 40 104 87c7 49 -19 79 -81 78h-77
c-4 0 -7 3 -6 7z" />
    <glyph glyph-name="sixinferior" unicode="&#x2086;" horiz-adv-x="330" 
d="M26 -27c18 125 136 179 172 192c3 1 8 1 8 -4v-7c0 -3 -2 -6 -4 -7c-31 -11 -120 -52 -151 -139c20 18 51 42 96 42c49 0 91 -40 83 -103c-9 -59 -57 -107 -114 -107c-65 0 -100 60 -90 133zM45 -23c-9 -66 15 -119 73 -119c45 0 87 40 94 89c7 52 -25 84 -68 84
c-64 0 -99 -54 -99 -54z" />
    <glyph glyph-name="seveninferior" unicode="&#x2087;" horiz-adv-x="308" 
d="M54 128c-3 0 -6 3 -5 7l1 4c1 4 4 7 7 7h175c6 0 7 -5 4 -10l-182 -285c-2 -3 -7 -4 -10 -2l-3 2c-5 3 -3 6 -1 10l170 267h-156z" />
    <glyph glyph-name="eightinferior" unicode="&#x2088;" horiz-adv-x="327" 
d="M20 -76c5 38 36 68 79 79c-33 11 -54 36 -49 70c6 43 33 83 103 83c63 0 91 -40 85 -83c-5 -34 -32 -61 -70 -72c42 -11 62 -39 57 -77c-8 -59 -54 -84 -112 -84c-53 0 -101 25 -93 84zM69 73c-5 -34 22 -57 67 -59c45 2 77 25 82 59c5 35 -14 67 -66 67
c-53 0 -78 -32 -83 -67zM40 -76c-7 -47 29 -68 74 -68s85 21 92 68c5 38 -22 63 -74 66c-52 -3 -87 -28 -92 -66z" />
    <glyph glyph-name="nineinferior" unicode="&#x2089;" horiz-adv-x="330" 
d="M38 49c9 59 57 107 115 107c65 0 99 -59 89 -132c-18 -125 -135 -180 -171 -193c-3 -1 -8 -2 -8 4v7c0 3 1 6 4 7c31 11 117 52 148 139c-20 -18 -45 -42 -93 -42c-49 0 -92 40 -84 103zM57 49c-7 -52 25 -84 68 -84c64 0 96 54 96 54c9 66 -12 119 -70 119
c-45 0 -87 -40 -94 -89z" />
    <glyph glyph-name="zero.denom" horiz-adv-x="343" 
d="M148 -10c-65 0 -100 61 -86 158c13 98 60 158 131 158c65 0 101 -60 88 -158c-14 -97 -62 -158 -133 -158zM151 8c59 0 99 53 112 140c12 88 -14 141 -73 141c-58 0 -99 -53 -111 -141c-13 -87 14 -140 72 -140z" />
    <glyph glyph-name="one.denom" horiz-adv-x="187" 
d="M95 7l38 266l-54 -39c-4 -3 -6 -1 -8 1l-4 5c-1 2 -2 4 3 7l73 53c5 4 10 0 9 -6l-40 -287c0 -4 -4 -7 -8 -7h-3c-4 0 -6 3 -6 7z" />
    <glyph glyph-name="two.denom" horiz-adv-x="309" 
d="M43 13l133 111c31 25 58 53 63 91c5 37 -17 73 -66 73c-48 0 -72 -36 -72 -36c-2 -4 -5 -5 -8 -3l-4 3c-1 1 -4 4 0 9c0 0 27 45 87 45c56 0 87 -44 80 -91c-5 -40 -33 -74 -69 -104l-113 -93h147c3 0 6 -3 5 -7l-1 -4c-1 -4 -4 -7 -7 -7h-172c-7 0 -8 9 -3 13z" />
    <glyph glyph-name="three.denom" horiz-adv-x="324" 
d="M47 32c-2 3 -2 6 2 10l3 3c3 3 6 3 9 0c8 -9 27 -37 80 -37c52 0 88 29 94 69c4 35 -18 65 -65 65h-59c-3 0 -6 3 -5 7l1 4c1 4 3 7 6 7h59c39 0 70 29 75 65c6 39 -18 63 -63 63c-53 0 -84 -36 -84 -36c-1 -2 -5 -3 -7 -1l-3 3c-5 5 -3 7 0 10c0 0 33 42 97 42
c50 0 85 -30 78 -81c-4 -31 -30 -64 -56 -73c30 -13 48 -43 44 -75c-8 -50 -52 -87 -116 -87c-52 0 -80 31 -90 42z" />
    <glyph glyph-name="four.denom" horiz-adv-x="374" 
d="M58 68c-6 0 -8 6 -4 11l214 223c6 4 12 2 11 -5l-30 -212h45c3 0 6 -3 5 -7l-1 -5c-1 -3 -3 -5 -6 -5h-45l-9 -61c-1 -4 -4 -7 -7 -7h-4c-4 0 -6 3 -5 7l9 61h-173zM82 85h151l26 183z" />
    <glyph glyph-name="five.denom" horiz-adv-x="324" 
d="M47 29c-2 3 -2 7 2 10l3 4c4 3 8 3 9 0c9 -12 26 -35 73 -35c55 0 97 40 104 87c7 49 -19 79 -81 78h-77c-4 0 -7 3 -6 7l15 109c1 4 4 7 8 7h144c3 0 6 -3 5 -7l-1 -4c-1 -4 -4 -7 -7 -7h-134l-12 -87h67c72 1 105 -36 97 -96c-8 -57 -58 -105 -125 -105
c-49 0 -73 26 -84 39z" />
    <glyph glyph-name="six.denom" horiz-adv-x="330" 
d="M56 123c18 125 136 179 172 192c3 1 8 1 8 -4v-7c0 -3 -2 -6 -4 -7c-31 -11 -120 -52 -151 -139c20 18 51 42 96 42c49 0 91 -40 83 -103c-9 -59 -57 -107 -114 -107c-65 0 -100 60 -90 133zM75 127c-9 -66 15 -119 73 -119c45 0 87 40 94 89c7 52 -25 84 -68 84
c-64 0 -99 -54 -99 -54z" />
    <glyph glyph-name="seven.denom" horiz-adv-x="308" 
d="M70 11l170 267h-156c-3 0 -6 3 -5 7l1 4c1 4 4 7 7 7h175c6 0 7 -5 4 -10l-182 -285c-2 -3 -7 -4 -10 -2l-3 2c-5 3 -3 6 -1 10z" />
    <glyph glyph-name="eight.denom" horiz-adv-x="327" 
d="M50 74c5 38 36 68 79 79c-33 11 -54 36 -49 70c6 43 33 83 103 83c63 0 91 -40 85 -83c-5 -34 -32 -61 -70 -72c42 -11 62 -39 57 -77c-8 -59 -54 -84 -112 -84c-53 0 -101 25 -93 84zM166 164c45 2 77 25 82 59c5 35 -14 67 -66 67c-53 0 -78 -32 -83 -67
c-5 -34 22 -57 67 -59zM70 74c-7 -47 29 -68 74 -68s85 21 92 68c5 38 -22 63 -74 66c-52 -3 -87 -28 -92 -66z" />
    <glyph glyph-name="nine.denom" horiz-adv-x="330" 
d="M93 -8c0 3 1 6 4 7c31 11 117 52 148 139c-20 -18 -45 -42 -93 -42c-49 0 -92 40 -84 103c9 59 57 107 115 107c65 0 99 -59 89 -132c-18 -125 -135 -180 -171 -193c-3 -1 -8 -2 -8 4v7zM155 115c64 0 96 54 96 54c9 66 -12 119 -70 119c-45 0 -87 -40 -94 -89
c-7 -52 25 -84 68 -84z" />
    <glyph glyph-name="zero.num" horiz-adv-x="343" 
d="M198 394c-65 0 -100 61 -86 158c13 98 60 158 131 158c65 0 101 -60 88 -158c-14 -97 -62 -158 -133 -158zM201 412c59 0 99 53 112 140c12 88 -14 141 -73 141c-58 0 -99 -53 -111 -141c-13 -87 14 -140 72 -140z" />
    <glyph glyph-name="one.num" horiz-adv-x="176" 
d="M115 404c-4 0 -6 3 -6 7l38 266l-54 -39c-4 -3 -6 -1 -8 1l-4 5c-1 2 -2 4 3 7l73 53c5 4 10 0 9 -6l-40 -287c0 -4 -4 -7 -8 -7h-3z" />
    <glyph glyph-name="two.num" horiz-adv-x="309" 
d="M96 404c-7 0 -8 9 -3 13l133 111c31 25 58 53 63 91c5 37 -17 73 -66 73c-48 0 -72 -36 -72 -36c-2 -4 -5 -5 -8 -3l-4 3c-1 1 -4 4 0 9c0 0 27 45 87 45c56 0 87 -44 80 -91c-5 -40 -33 -74 -69 -104l-113 -93h147c3 0 6 -3 5 -7l-1 -4c-1 -4 -4 -7 -7 -7h-172z" />
    <glyph glyph-name="three.num" horiz-adv-x="324" 
d="M187 394c-52 0 -80 31 -90 42c-2 3 -2 6 2 10l3 3c3 3 6 3 9 0c8 -9 27 -37 80 -37c52 0 88 29 94 69c4 35 -18 65 -65 65h-59c-3 0 -6 3 -5 7l1 4c1 4 3 7 6 7h59c39 0 70 29 75 65c6 39 -18 63 -63 63c-53 0 -84 -36 -84 -36c-1 -2 -5 -3 -7 -1l-3 3c-5 5 -3 7 0 10
c0 0 33 42 97 42c50 0 85 -30 78 -81c-4 -31 -30 -64 -56 -73c30 -13 48 -43 44 -75c-8 -50 -52 -87 -116 -87z" />
    <glyph glyph-name="four.num" horiz-adv-x="374" 
d="M108 472c-6 0 -8 6 -4 11l214 223c6 4 12 2 11 -5l-30 -212h45c3 0 6 -3 5 -7l-1 -5c-1 -3 -3 -5 -6 -5h-45l-9 -61c-1 -4 -4 -7 -7 -7h-4c-4 0 -6 3 -5 7l9 61h-173zM132 489h151l26 183z" />
    <glyph glyph-name="five.num" horiz-adv-x="324" 
d="M181 394c-49 0 -73 26 -84 39c-2 3 -2 7 2 10l3 4c4 3 8 3 9 0c9 -12 26 -35 73 -35c55 0 97 40 104 87c7 49 -19 79 -81 78h-77c-4 0 -7 3 -6 7l15 109c1 4 4 7 8 7h144c3 0 6 -3 5 -7l-1 -4c-1 -4 -4 -7 -7 -7h-134l-12 -87h67c72 1 105 -36 97 -96
c-8 -57 -58 -105 -125 -105z" />
    <glyph glyph-name="six.num" horiz-adv-x="330" 
d="M196 394c-65 0 -100 60 -90 133c18 125 136 179 172 192c3 1 8 1 8 -4v-7c0 -3 -2 -6 -4 -7c-31 -11 -120 -52 -151 -139c20 18 51 42 96 42c49 0 91 -40 83 -103c-9 -59 -57 -107 -114 -107zM198 412c45 0 87 40 94 89c7 52 -25 84 -68 84c-64 0 -99 -54 -99 -54
c-9 -66 15 -119 73 -119z" />
    <glyph glyph-name="seven.num" horiz-adv-x="308" 
d="M124 403l-3 2c-5 3 -3 6 -1 10l170 267h-156c-3 0 -6 3 -5 7l1 4c1 4 4 7 7 7h175c6 0 7 -5 4 -10l-182 -285c-2 -3 -7 -4 -10 -2z" />
    <glyph glyph-name="eight.num" horiz-adv-x="327" 
d="M193 394c-53 0 -101 25 -93 84c5 38 36 68 79 79c-33 11 -54 36 -49 70c6 43 33 83 103 83c63 0 91 -40 85 -83c-5 -34 -32 -61 -70 -72c42 -11 62 -39 57 -77c-8 -59 -54 -84 -112 -84zM216 568c45 2 77 25 82 59c5 35 -14 67 -66 67c-53 0 -78 -32 -83 -67
c-5 -34 22 -57 67 -59zM194 410c45 0 85 21 92 68c5 38 -22 63 -74 66c-52 -3 -87 -28 -92 -66c-7 -47 29 -68 74 -68z" />
    <glyph glyph-name="nine.num" horiz-adv-x="330" 
d="M151 385c-3 -1 -8 -2 -8 4v7c0 3 1 6 4 7c31 11 117 52 148 139c-20 -18 -45 -42 -93 -42c-49 0 -92 40 -84 103c9 59 57 107 115 107c65 0 99 -59 89 -132c-18 -125 -135 -180 -171 -193zM205 519c64 0 96 54 96 54c9 66 -12 119 -70 119c-45 0 -87 -40 -94 -89
c-7 -52 25 -84 68 -84z" />
    <glyph glyph-name="parenleft.case" horiz-adv-x="328" 
d="M92 239c0 370 154 494 281 501c4 0 7 -3 6 -7v-4c0 -4 -4 -7 -8 -7c-121 -7 -261 -127 -261 -483c0 -194 75 -265 155 -270c4 0 6 -3 6 -7l-1 -4c0 -3 -4 -6 -7 -6c-87 4 -171 80 -171 287z" />
    <glyph glyph-name="parenright.case" horiz-adv-x="326" 
d="M7 -31c121 12 261 127 261 483c0 197 -75 265 -155 270c-4 0 -7 3 -6 7l1 5c1 4 4 6 7 6c87 -5 171 -81 171 -287c0 -369 -154 -495 -281 -501c-4 0 -6 3 -6 6v4c0 4 4 7 8 7z" />
    <glyph glyph-name="hyphen.case" horiz-adv-x="572" 
d="M189 333c-3 0 -6 3 -5 7l1 4c1 4 3 7 7 7h218c3 0 5 -3 4 -7l-1 -4c-1 -4 -3 -7 -6 -7h-218z" />
    <glyph glyph-name="bracketleft.case" horiz-adv-x="310" 
d="M45 -162h171c4 0 7 -3 6 -7l-1 -4c-1 -4 -4 -7 -7 -7h-183c-3 0 -6 3 -5 7l138 986c1 4 4 7 8 7h182c4 0 7 -3 6 -7l-1 -4c-1 -4 -4 -7 -7 -7h-172z" />
    <glyph glyph-name="bracketright.case" horiz-adv-x="310" 
d="M-23 -162h171l135 964h-171c-4 0 -6 3 -5 7l1 4c1 4 3 7 7 7h182c4 0 6 -3 6 -7l-139 -986c-1 -4 -4 -7 -8 -7h-182c-4 0 -7 3 -6 7l1 4c1 4 4 7 8 7z" />
    <glyph glyph-name="braceleft.case" horiz-adv-x="310" 
d="M71 55l24 168c9 57 -28 91 -50 91c-5 0 -9 2 -8 7l1 4c1 4 4 7 9 7c19 0 67 29 76 91l23 165c26 185 111 242 207 242c5 0 10 -3 9 -7l-1 -4c-1 -4 -5 -7 -10 -7c-85 0 -160 -53 -184 -224l-23 -165c-7 -50 -38 -88 -69 -100c23 -16 48 -50 41 -100l-24 -168
c-24 -171 35 -227 120 -227c8 0 10 -3 9 -7l-1 -4c-1 -4 -5 -7 -10 -7c-96 0 -165 60 -139 245z" />
    <glyph glyph-name="bar.case" horiz-adv-x="188" 
d="M25 -173l147 1045c1 4 4 7 8 7h4c3 0 6 -3 5 -7l-147 -1045c-1 -4 -3 -7 -7 -7h-4c-4 0 -7 3 -6 7z" />
    <glyph glyph-name="braceright.case" horiz-adv-x="310" 
d="M160 55l24 168c8 58 42 88 69 101c-23 14 -48 49 -41 99l23 165c24 171 -35 224 -120 224c-5 0 -9 3 -8 7l1 4c1 4 4 7 9 7c96 0 165 -57 139 -242l-23 -165c-9 -62 31 -91 50 -91c5 0 10 -3 9 -7l-1 -4c-1 -5 -5 -7 -10 -7c-22 0 -67 -33 -76 -91l-24 -168
c-26 -185 -111 -245 -206 -245c-5 0 -9 3 -8 7l1 4c1 4 4 7 9 7c84 0 159 56 183 227z" />
    <glyph glyph-name="guilsinglleft.case" horiz-adv-x="228" 
d="M144 152l-85 172c-2 3 -1 5 1 8l133 170c2 3 5 4 9 2l4 -3c4 -3 4 -5 1 -8l-129 -166l81 -167c1 -3 1 -6 -3 -8l-4 -2c-4 -2 -7 -1 -8 2z" />
    <glyph glyph-name="guilsinglright.case" horiz-adv-x="226" 
d="M46 150l-3 3c-3 3 -3 5 -1 8l128 168l-81 165c-2 3 -1 6 3 8l4 2c3 2 6 1 8 -2l85 -170c1 -3 1 -5 -1 -8l-133 -172c-3 -3 -6 -5 -9 -2z" />
    <glyph glyph-name="guillemotleft.case" horiz-adv-x="372" 
d="M286 152l-85 172c-1 3 -1 5 1 8l133 170c3 3 6 4 9 1l4 -4c3 -3 3 -5 0 -8l-127 -165l81 -166c1 -3 1 -6 -3 -8l-5 -2c-4 -2 -6 -1 -8 2zM142 152l-85 172c-1 3 -1 5 1 8l133 170c3 3 6 4 9 1l4 -4c3 -3 3 -5 0 -8l-127 -165l81 -166c1 -3 1 -6 -3 -8l-5 -2
c-4 -2 -6 -1 -8 2z" />
    <glyph glyph-name="guillemotright.case" horiz-adv-x="371" 
d="M187 154c-3 3 -3 5 -1 8l128 168l-81 164c-2 3 -1 6 3 8l5 2c3 1 6 1 8 -2l85 -170c1 -3 1 -5 -1 -8l-133 -172c-3 -3 -6 -5 -9 -2zM47 151l-4 4c-3 3 -3 5 -1 8l128 167l-81 164c-2 3 -1 6 3 8l5 2c3 1 6 1 8 -2l85 -170c1 -3 1 -5 -1 -8l-133 -172c-3 -3 -6 -4 -9 -1z
" />
    <glyph glyph-name="endash.case" horiz-adv-x="698" 
d="M187 333c-4 0 -7 3 -6 7l1 4c1 4 3 7 7 7h358c4 0 7 -3 6 -7l-1 -4c-1 -4 -3 -7 -7 -7h-358z" />
    <glyph glyph-name="emdash.case" horiz-adv-x="893" 
d="M186 333c-3 0 -6 3 -5 7l1 4c1 4 3 7 7 7h553c3 0 7 -3 6 -7l-1 -4c-1 -4 -4 -7 -8 -7h-553z" />
    <glyph glyph-name="bullet.case" horiz-adv-x="319" 
d="M174 279c-18 0 -30 15 -30 32c0 24 19 44 41 44c19 0 32 -15 32 -34c0 -23 -20 -42 -43 -42z" />
    <glyph glyph-name="periodcentered.case" horiz-adv-x="254" 
d="M145 328c-11 0 -19 10 -19 21c0 15 13 26 26 26c12 0 19 -9 19 -20c0 -14 -11 -27 -26 -27z" />
    <glyph glyph-name="brokenbar" unicode="&#xa6;" horiz-adv-x="361" 
d="M196 384c-4 0 -6 3 -5 7l50 361c1 4 4 7 8 7h4c3 0 6 -3 5 -7l-51 -361c0 -4 -3 -7 -7 -7h-4zM146 69c0 3 4 6 7 6h4c4 0 6 -3 6 -6l-51 -361c0 -4 -4 -7 -7 -7h-4c-4 0 -6 3 -6 7z" />
    </font>
</defs>
</svg>
