<?xml version="1.0" standalone="no"?>
<!DOCTYPE svg PUBLIC "-//W3C//DTD SVG 1.1//EN" "http://www.w3.org/Graphics/SVG/1.1/DTD/svg11.dtd" >
<svg xmlns="http://www.w3.org/2000/svg" width="100%" height="100%">
<metadata>
Created by FontXChange 20110222 at Fri Dec  5 12:07:12 2014
 By Timothy Brister
Copyright (c) 2009 by Hannes von Dhren. All rights reserved.
</metadata>
<defs>
<font id="BrandonGrotesque-Black" horiz-adv-x="510" >
  <font-face 
    font-family="BrandonGrotesque"
    font-weight="500"
    font-stretch="normal"
    units-per-em="1000"
    panose-1="2 11 10 3 2 2 3 6 2 2"
    ascent="700"
    descent="-300"
    x-height="400"
    cap-height="700"
    bbox="-165.414 -389.25 1154.82 1052.38"
    underline-thickness="50"
    underline-position="-50"
    stemh="147"
    stemv="153"
    unicode-range="U+0020-FB02"
  />
<missing-glyph horiz-adv-x="599" 
d="M50 30v640c0 21 9 30 30 30h439c21 0 30 -9 30 -30v-640c0 -21 -9 -30 -30 -30h-439c-21 0 -30 9 -30 30zM262 314c0 -7 7 -12 14 -12h36c9 0 15 4 15 13v26c0 48 105 63 105 150c0 65 -54 111 -125 111c-87 0 -130 -61 -130 -61c-4 -6 -6 -13 0 -18l22 -22
c6 -4 11 -4 17 0c13 12 36 41 84 41c40 0 61 -25 61 -52c0 -63 -99 -72 -99 -147v-29zM245 156c0 -26 22 -48 48 -48c27 0 49 22 49 48s-22 48 -49 48c-26 0 -48 -22 -48 -48z" />
    <glyph glyph-name="fi" unicode="fi" horiz-adv-x="571" 
d="M75 19v254h-21c-11 0 -19 9 -19 19v89c0 11 8 19 19 19h21v93c0 125 89 217 214 217c64 0 127 -26 155 -41c10 -5 13 -17 8 -27l-43 -82c-8 -15 -15 -19 -28 -13c0 0 -54 25 -90 25c-32 0 -63 -25 -63 -80v-92h270c11 0 19 -8 19 -19v-362c0 -10 -8 -19 -19 -19h-109
c-11 0 -19 9 -19 19v254h-142v-254c0 -24 -31 -19 -48 -19h-86c-10 0 -19 9 -19 19z" />
    <glyph glyph-name="fl" unicode="fl" horiz-adv-x="592" 
d="M76 19v254h-23c-11 0 -19 9 -19 19v89c0 11 8 19 19 19h23v93c0 137 97 217 214 217c90 0 150 -59 150 -59l13 30c6 13 13 19 26 19h40c10 0 19 -9 19 -19v-662c0 -10 -9 -19 -19 -19h-111c-10 0 -19 9 -19 19v512c-7 10 -42 41 -84 41c-41 0 -77 -25 -77 -80v-92h67
c10 0 19 -8 19 -19v-89c0 -10 -9 -19 -19 -19h-67v-254c0 -10 -9 -19 -19 -19h-115c-10 0 -18 9 -18 19z" />
    <glyph glyph-name="f_f" unicode="ff" horiz-adv-x="667" 
d="M75 19v254h-21c-11 0 -19 9 -19 19v89c0 11 8 19 19 19h21v77c0 145 102 223 223 223c69 0 116 -26 143 -49c37 38 88 59 148 59c52 0 105 -22 122 -38c6 -5 8 -16 4 -23l-42 -83c-3 -7 -15 -11 -23 -7c-13 7 -32 16 -52 16c-42 0 -59 -34 -59 -83v-92h92
c11 0 19 -8 19 -19v-89c0 -10 -8 -19 -19 -19h-92v-254c0 -10 -9 -19 -19 -19h-115c-10 0 -19 9 -19 19v254h-158v-254c0 -10 -9 -19 -19 -19h-115c-10 0 -19 9 -19 19zM228 400h158v92c0 13 1 26 2 38c-13 15 -40 35 -79 35c-49 0 -81 -39 -81 -88v-77z" />
    <glyph glyph-name="f_f_i" unicode="ffi" horiz-adv-x="882" 
d="M75 19v254h-21c-11 0 -19 9 -19 19v89c0 11 8 19 19 19h21v77c0 136 96 223 223 223c95 0 143 -49 143 -49c37 38 82 59 154 59c66 0 132 -26 160 -41c10 -5 14 -17 8 -27l-46 -88c-5 -8 -16 -11 -25 -7c0 0 -54 25 -90 25c-32 0 -63 -25 -63 -80v-92h270
c11 0 19 -8 19 -19v-362c0 -10 -8 -19 -19 -19h-109c-11 0 -19 9 -19 19v254h-142v-254c0 -10 -9 -19 -19 -19h-115c-10 0 -19 9 -19 19v254h-158v-254c0 -10 -9 -19 -19 -19h-115c-10 0 -19 9 -19 19zM228 400h158v92c0 13 1 26 2 38c-13 15 -40 35 -79 35
c-49 0 -81 -39 -81 -88v-77z" />
    <glyph glyph-name="f_f_l" unicode="ffl" horiz-adv-x="903" 
d="M75 19v254h-21c-11 0 -19 9 -19 19v89c0 11 8 19 19 19h21v77c0 145 102 223 223 223c69 0 116 -26 143 -49c37 38 90 59 162 59c86 0 148 -59 148 -59l13 30c5 13 13 19 26 19h40c10 0 19 -9 19 -19v-662c0 -10 -9 -19 -19 -19h-111c-10 0 -19 9 -19 19v512
c-7 10 -42 41 -84 41c-41 0 -77 -25 -77 -80v-93h67c10 0 19 -8 19 -19v-89c0 -10 -9 -19 -19 -19h-67v-253c0 -10 -9 -19 -19 -19h-115c-10 0 -19 9 -19 19v254h-158v-254c0 -10 -9 -19 -19 -19h-115c-10 0 -19 9 -19 19zM228 400h158v92c0 13 1 26 2 38
c-13 15 -40 35 -79 35c-49 0 -81 -39 -81 -88v-77z" />
    <glyph glyph-name="f_f_h" unicode="ffh" horiz-adv-x="1177" 
d="M75 19v254h-21c-11 0 -19 9 -19 19v89c0 11 8 19 19 19h21v77c0 136 97 223 223 223c69 0 116 -26 143 -49c37 38 90 59 162 59c86 0 148 -59 148 -59l13 30c5 13 13 19 26 19h40c10 0 19 -9 19 -19v-294c30 14 63 23 93 23c125 0 191 -94 191 -209v-182
c0 -10 -9 -19 -19 -19h-106c-11 0 -19 9 -19 19v182c0 44 -29 79 -73 79c-40 0 -67 -27 -67 -69v-192c0 -10 -9 -19 -19 -19h-111c-10 0 -19 9 -19 19v512c-7 10 -42 41 -84 41c-41 0 -77 -25 -77 -80v-93h67c10 0 19 -8 19 -19v-89c0 -10 -9 -19 -19 -19h-67v-253
c0 -10 -9 -19 -19 -19h-115c-10 0 -19 9 -19 19v254h-158v-254c0 -10 -9 -19 -19 -19h-115c-10 0 -19 9 -19 19zM228 400h158v92c0 13 1 26 2 38c-13 15 -40 35 -79 35c-49 0 -81 -39 -81 -88v-77z" />
    <glyph glyph-name="f_k" unicode="fk" horiz-adv-x="846" 
d="M76 19v253h-23c-11 0 -19 9 -19 19v89c0 11 8 19 19 19h23v94c0 137 101 217 213 217c91 0 151 -59 151 -59l13 30c5 13 13 19 26 19h40c10 0 19 -9 19 -19v-433l121 140c6 6 13 12 25 12h112c17 0 26 -17 15 -31l-132 -153l160 -186c11 -13 2 -30 -15 -30h-135
c-4 0 -12 4 -15 8l-136 174v-163c0 -10 -9 -19 -19 -19h-111c-10 0 -19 9 -19 19v512c-7 10 -42 41 -84 41c-41 0 -77 -25 -77 -80v-93h67c10 0 19 -8 19 -19v-89c0 -10 -9 -19 -19 -19h-67v-253c0 -10 -9 -19 -19 -19h-115c-10 0 -18 9 -18 19z" />
    <glyph glyph-name="f_j" unicode="fj" horiz-adv-x="571" 
d="M75 19v254h-21c-11 0 -19 9 -19 19v89c0 11 8 19 19 19h21v93c0 125 89 217 214 217c64 0 127 -26 155 -41c10 -5 13 -17 8 -27l-43 -82c-8 -15 -15 -19 -28 -13c0 0 -54 25 -90 25c-32 0 -63 -25 -63 -80v-92h270c11 0 19 -8 19 -19v-473c0 -140 -87 -218 -203 -218
c-52 0 -105 22 -122 38c-6 5 -8 16 -4 23l42 83c3 7 15 11 23 7c13 -7 32 -16 52 -16c45 0 63 34 63 83v365h-140v-254c0 -10 -9 -19 -19 -19h-115c-10 0 -19 9 -19 19z" />
    <glyph glyph-name="f_f_j" unicode="ffj" horiz-adv-x="882" 
d="M75 19v254h-21c-11 0 -19 9 -19 19v89c0 11 8 19 19 19h21v77c0 136 96 223 223 223c95 0 143 -49 143 -49c37 38 82 59 154 59c66 0 132 -26 160 -41c10 -5 14 -17 8 -27l-46 -88c-5 -8 -16 -11 -25 -7c0 0 -54 25 -90 25c-32 0 -63 -25 -63 -80v-92h270
c11 0 19 -8 19 -19v-473c0 -140 -87 -218 -203 -218c-52 0 -105 22 -122 38c-6 5 -8 16 -4 23l42 83c3 7 15 11 23 7c13 -7 32 -16 52 -16c45 0 63 34 63 83v365h-140v-254c0 -10 -9 -19 -19 -19h-115c-10 0 -19 9 -19 19v254h-158v-254c0 -10 -9 -19 -19 -19h-115
c-10 0 -19 9 -19 19zM228 400h158v92c0 13 1 26 2 38c-13 15 -40 35 -79 35c-49 0 -81 -39 -81 -88v-77z" />
    <glyph glyph-name="f_b" unicode="fb" horiz-adv-x="845" 
d="M76 19v253h-23c-11 0 -19 9 -19 19v89c0 11 8 19 19 19h23v94c0 129 96 217 213 217c91 0 151 -59 151 -59l13 30c5 13 13 19 26 19h40c10 0 19 -9 19 -19v-286c27 10 54 15 83 15c109 0 199 -84 199 -210c0 -115 -85 -210 -198 -210c-88 0 -134 63 -134 63
c-10 -21 -13 -53 -33 -53h-47c-10 0 -19 9 -19 19v512c-7 10 -42 41 -84 41c-41 0 -77 -25 -77 -80v-93h67c10 0 19 -8 19 -19v-89c0 -10 -9 -19 -19 -19h-67v-253c0 -10 -9 -19 -19 -19h-115c-10 0 -18 9 -18 19zM522 200c0 -45 34 -80 79 -80s80 35 80 80
c0 44 -35 79 -80 79s-79 -35 -79 -79z" />
    <glyph glyph-name="f_f_k" unicode="ffk" horiz-adv-x="1157" 
d="M75 19v254h-21c-11 0 -19 9 -19 19v89c0 11 8 19 19 19h21v77c0 145 102 223 223 223c69 0 116 -26 143 -49c37 38 90 59 159 59c89 0 151 -59 151 -59l16 38c2 5 10 11 17 11h46c10 0 19 -9 19 -19v-433l121 140c6 6 13 12 25 12h112c17 0 26 -17 15 -31l-132 -153
l160 -186c11 -13 2 -30 -15 -30h-135c-4 0 -12 4 -15 8l-136 174v-163c0 -10 -9 -19 -19 -19h-111c-10 0 -19 9 -19 19v512c-7 10 -42 41 -84 41c-41 0 -77 -25 -77 -80v-93h67c10 0 19 -8 19 -19v-89c0 -10 -9 -19 -19 -19h-67v-253c0 -10 -9 -19 -19 -19h-115
c-10 0 -19 9 -19 19v254h-158v-254c0 -10 -9 -19 -19 -19h-115c-10 0 -19 9 -19 19zM228 400h158v92c0 13 1 26 2 38c-13 15 -40 35 -79 35c-49 0 -81 -39 -81 -88v-77z" />
    <glyph glyph-name="f_h" unicode="fh" horiz-adv-x="866" 
d="M76 19v253h-23c-11 0 -19 9 -19 19v89c0 11 8 19 19 19h23v94c0 130 97 217 218 217c86 0 146 -59 146 -59l13 30c5 13 13 19 26 19h40c10 0 19 -9 19 -19v-294c30 16 63 23 93 23c125 0 191 -94 191 -209v-182c0 -10 -9 -19 -19 -19h-106c-11 0 -19 9 -19 19v182
c0 44 -29 79 -73 79c-31 0 -67 -17 -67 -69v-192c0 -10 -9 -19 -19 -19h-111c-10 0 -19 9 -19 19v512c-7 10 -42 41 -84 41c-41 0 -77 -25 -77 -80v-93h67c10 0 19 -8 19 -19v-89c0 -10 -9 -19 -19 -19h-67v-253c0 -10 -9 -19 -19 -19h-115c-10 0 -18 9 -18 19z" />
    <glyph glyph-name="f_f_b" unicode="ffb" horiz-adv-x="1156" 
d="M75 19v254h-21c-11 0 -19 9 -19 19v89c0 11 8 19 19 19h21v77c0 136 97 223 223 223c69 0 116 -26 143 -49c37 38 90 59 159 59c89 0 151 -59 151 -59l13 30c5 13 13 19 26 19h40c10 0 19 -9 19 -19v-286c27 10 54 15 84 15c114 0 198 -78 198 -210
c0 -115 -85 -210 -198 -210c-88 0 -134 63 -134 63c-10 -21 -13 -53 -33 -53h-47c-10 0 -19 9 -19 19v512c-7 10 -42 41 -84 41c-41 0 -77 -25 -77 -80v-93h67c10 0 19 -8 19 -19v-89c0 -10 -9 -19 -19 -19h-67v-253c0 -10 -9 -19 -19 -19h-115c-10 0 -19 9 -19 19v254h-158
v-254c0 -10 -9 -19 -19 -19h-115c-10 0 -19 9 -19 19zM228 400h158v92c0 13 1 26 2 38c-13 15 -40 35 -79 35c-49 0 -81 -39 -81 -88v-77zM833 200c0 -45 34 -80 79 -80s80 35 80 80c0 44 -35 79 -80 79s-79 -35 -79 -79z" />
    <glyph glyph-name=".notdef" horiz-adv-x="599" 
d="M50 30v640c0 21 9 30 30 30h439c21 0 30 -9 30 -30v-640c0 -21 -9 -30 -30 -30h-439c-21 0 -30 9 -30 30zM262 314c0 -7 7 -12 14 -12h36c9 0 15 4 15 13v26c0 48 105 63 105 150c0 65 -54 111 -125 111c-87 0 -130 -61 -130 -61c-4 -6 -6 -13 0 -18l22 -22
c6 -4 11 -4 17 0c13 12 36 41 84 41c40 0 61 -25 61 -52c0 -63 -99 -72 -99 -147v-29zM245 156c0 -26 22 -48 48 -48c27 0 49 22 49 48s-22 48 -49 48c-26 0 -48 -22 -48 -48z" />
    <glyph glyph-name=".null" horiz-adv-x="0" 
 />
    <glyph glyph-name="CR" horiz-adv-x="0" 
 />
    <glyph glyph-name="space" unicode=" " horiz-adv-x="221" 
 />
    <glyph glyph-name="exclam" unicode="!" horiz-adv-x="314" 
d="M136 272c-9 0 -18 8 -19 16l-49 279v114c0 10 9 19 19 19h140c10 0 19 -9 19 -19v-112l-49 -281c-1 -8 -10 -16 -19 -16h-42zM62 84c0 52 43 96 94 96c52 0 96 -44 96 -96c0 -51 -44 -94 -96 -94c-51 0 -94 43 -94 94z" />
    <glyph glyph-name="quotedbl" unicode="&#x22;" horiz-adv-x="366" 
d="M231 501c-10 0 -19 9 -19 19v161c0 10 9 19 19 19h104c13 0 22 -11 18 -25l-48 -159c-2 -8 -11 -15 -18 -15h-56zM50 501c-10 0 -19 9 -19 19v161c0 10 9 19 19 19h104c13 0 22 -11 18 -25l-48 -159c-2 -8 -11 -15 -18 -15h-56z" />
    <glyph glyph-name="numbersign" unicode="#" horiz-adv-x="535" 
d="M101 22l22 163h-71c-11 0 -19 9 -19 19v17c0 11 8 19 19 19h78l24 161h-73c-10 0 -19 9 -19 19v17c0 10 9 19 19 19h80l32 228c1 8 9 16 18 16h17c11 0 20 -10 18 -22l-30 -222h161l31 228c1 8 10 16 19 16h16c12 0 21 -10 19 -22l-30 -222h60c11 0 19 -9 19 -19v-17
c0 -10 -8 -19 -19 -19h-68l-23 -161h62c10 0 19 -8 19 -19v-17c0 -10 -9 -19 -19 -19h-70l-23 -169c-1 -9 -9 -16 -19 -16h-16c-12 0 -20 10 -19 22l23 163h-162l-22 -169c-1 -9 -10 -16 -19 -16h-16c-13 0 -21 10 -19 22zM185 240h162l22 161h-160z" />
    <glyph glyph-name="dollar" unicode="$" horiz-adv-x="526" 
d="M40 67c-10 10 -14 14 -5 28l43 76c9 16 24 23 38 13c3 -2 64 -43 116 -60l1 162c-87 35 -203 106 -203 225c0 100 71 185 204 198v32c0 11 9 19 19 19h17c10 0 19 -8 19 -19v-33c90 -8 159 -53 186 -73c12 -7 10 -25 6 -32l-58 -84c-8 -11 -19 -12 -27 -6
c-7 3 -60 40 -107 59v-141c78 -31 212 -98 212 -234c0 -103 -82 -194 -214 -206v-104c0 -10 -9 -18 -19 -18h-17c-10 0 -19 8 -19 18v104c-110 8 -171 55 -192 76zM230 455v130c-32 -4 -55 -27 -55 -52c0 -29 15 -54 55 -78zM290 115c31 8 53 31 53 62s-18 60 -53 84v-146z
" />
    <glyph glyph-name="percent" unicode="%" horiz-adv-x="659" 
d="M153 441c-75 0 -135 60 -135 135s60 134 135 134c74 0 135 -59 135 -134s-61 -135 -135 -135zM92 27l343 663c4 7 12 10 17 10h76c15 0 24 -14 17 -27l-345 -663c-3 -4 -12 -10 -17 -10h-74c-15 0 -24 14 -17 27zM153 541c18 0 34 16 34 35c0 18 -16 34 -34 34
c-19 0 -35 -16 -35 -34c0 -19 16 -35 35 -35zM353 125c0 75 61 135 135 135c75 0 136 -60 136 -135c0 -74 -61 -135 -136 -135c-74 0 -135 61 -135 135zM454 125c0 -18 16 -34 34 -34c19 0 35 16 35 34c0 19 -16 35 -35 35c-18 0 -34 -16 -34 -35z" />
    <glyph glyph-name="ampersand" unicode="&#x26;" horiz-adv-x="699" 
d="M70 180c0 144 137 201 137 201v3l-20 21c-40 42 -66 85 -66 143c0 76 66 162 194 162c114 0 200 -74 200 -167c0 -110 -109 -169 -109 -177l90 -92c13 21 26 53 33 77c6 21 12 37 39 27l73 -26c28 -10 17 -34 13 -46c-24 -70 -63 -123 -63 -125l85 -79
c13 -12 23 -21 -2 -46l-56 -57c-12 -11 -29 -13 -45 3l-65 65s-68 -77 -218 -77c-128 0 -220 86 -220 190zM322 449c0 0 65 29 65 85c0 34 -31 64 -74 64c-37 0 -59 -23 -59 -49c0 -30 20 -49 46 -78zM213 200c0 -48 41 -85 94 -85c78 0 108 51 108 51l-131 139
s-71 -24 -71 -105z" />
    <glyph glyph-name="quotesingle" unicode="'" horiz-adv-x="183" 
d="M50 501c-10 0 -19 9 -19 19v161c0 10 9 19 19 19h103c13 0 22 -11 18 -25l-48 -159c-2 -8 -11 -15 -18 -15h-55z" />
    <glyph glyph-name="parenleft" unicode="(" horiz-adv-x="344" 
d="M291 -79c-114 8 -254 70 -254 394s140 387 254 393c11 1 20 -8 20 -18l4 -85c0 -7 -6 -17 -13 -19c-84 -26 -115 -120 -115 -271c0 -152 31 -245 115 -272c7 -3 13 -12 13 -19l-4 -84c-1 -11 -8 -19 -20 -19z" />
    <glyph glyph-name="parenright" unicode=")" horiz-adv-x="344" 
d="M29 25c0 7 7 16 13 18c84 27 115 120 115 272c0 151 -31 245 -115 271c-7 2 -13 12 -13 19l4 85c0 10 9 19 20 18c114 -6 254 -69 254 -393s-140 -386 -254 -394c-11 0 -20 8 -20 18z" />
    <glyph glyph-name="asterisk" unicode="*" horiz-adv-x="364" 
d="M160 347c-10 0 -19 9 -19 19l2 90l-74 -51c-8 -6 -21 -3 -26 5l-22 35c-6 9 -5 21 5 27l86 51l-86 52c-9 6 -11 18 -6 27c10 15 16 24 24 35c6 7 17 10 25 4l74 -51l-2 91c0 10 9 19 19 19h41c10 0 19 -9 19 -19l-2 -91l75 51c8 5 21 3 26 -5l22 -34c6 -9 5 -22 -5 -28
l-86 -51l86 -52c10 -6 11 -18 6 -26l-25 -35c-5 -8 -17 -10 -25 -5l-74 50l2 -89c0 -10 -9 -19 -19 -19h-41z" />
    <glyph glyph-name="plus" unicode="+" horiz-adv-x="532" 
d="M212 146v146h-146c-10 0 -19 9 -19 19v70c0 10 9 19 19 19h146v147c0 10 9 18 19 18h70c10 0 19 -8 19 -18v-147h147c10 0 18 -9 18 -19v-70c0 -10 -8 -19 -18 -19h-147v-146c0 -10 -9 -18 -19 -18h-70c-10 0 -19 8 -19 18z" />
    <glyph glyph-name="comma" unicode="," horiz-adv-x="277" 
d="M28 83c0 51 43 95 104 95c49 0 118 -38 118 -151c0 -138 -91 -208 -120 -234c-8 -7 -20 -9 -28 0l-21 24c-8 9 -8 20 2 28c12 10 89 67 90 156c0 0 -22 -11 -52 -11c-50 0 -93 42 -93 93z" />
    <glyph glyph-name="hyphen" unicode="-" horiz-adv-x="359" 
d="M65 178c-11 0 -19 8 -19 18v91c0 11 8 19 19 19h229c11 0 19 -8 19 -19v-91c0 -10 -8 -18 -19 -18h-229z" />
    <glyph glyph-name="period" unicode="." horiz-adv-x="244" 
d="M27 84c0 52 43 96 94 96c52 0 96 -44 96 -96c0 -51 -44 -94 -96 -94c-51 0 -94 43 -94 94z" />
    <glyph glyph-name="slash" unicode="/" horiz-adv-x="372" 
d="M24 25l196 662c2 7 10 13 18 13h98c14 0 22 -11 18 -25l-195 -662c-2 -7 -11 -13 -18 -13h-99c-13 0 -22 11 -18 25z" />
    <glyph glyph-name="zero" unicode="0" horiz-adv-x="624" 
d="M312 -10c-163 0 -256 131 -256 350s93 350 256 350s256 -131 256 -350s-93 -350 -256 -350zM312 135c61 0 95 73 95 205c0 131 -34 205 -95 205s-95 -74 -95 -205c0 -132 34 -205 95 -205z" />
    <glyph glyph-name="one" unicode="1" horiz-adv-x="374" 
d="M139 19v450h-96c-10 0 -18 9 -18 19v63c0 4 3 12 6 15l146 114h92c10 0 18 -9 18 -19v-642c0 -10 -8 -19 -18 -19h-111c-11 0 -19 9 -19 19z" />
    <glyph glyph-name="two" unicode="2" horiz-adv-x="514" 
d="M23 19v20c58 76 206 277 265 367c13 20 26 48 26 76c0 38 -32 72 -88 72c-41 0 -78 -29 -97 -50c-8 -8 -20 -8 -28 0l-61 62c-7 6 -8 18 -1 26c0 0 81 98 200 98c143 0 227 -91 227 -202c0 -53 -15 -83 -39 -130c-32 -57 -114 -164 -161 -230h176c10 0 19 -9 19 -19v-90
c0 -10 -9 -19 -19 -19h-400c-11 0 -19 9 -19 19z" />
    <glyph glyph-name="three" unicode="3" horiz-adv-x="517" 
d="M30 79c-6 7 -5 18 1 25l63 63c7 7 17 8 25 2c0 0 62 -46 110 -46c43 0 87 36 87 80s-45 81 -119 81h-56c-10 0 -19 9 -19 19v83c0 11 9 19 19 19h56c70 0 107 34 107 77s-37 75 -80 75c-44 0 -72 -23 -87 -40c-7 -8 -19 -8 -27 -1l-61 60c-8 7 -7 19 0 26
c0 0 82 88 191 88c116 0 216 -71 216 -183c0 -77 -58 -134 -103 -155v-3c47 -20 121 -82 121 -168c0 -109 -95 -191 -233 -191c-126 0 -190 62 -211 89z" />
    <glyph glyph-name="four" unicode="4" horiz-adv-x="600" 
d="M33 141c-11 0 -19 9 -19 19v106l349 419c3 3 6 6 15 6h72c10 0 19 -8 19 -19l1 -410h79c11 0 19 -8 19 -18v-83c0 -10 -8 -19 -19 -19h-79l1 -123c0 -10 -9 -19 -19 -19h-107c-10 0 -19 9 -19 19v122h-293zM171 265h159v186z" />
    <glyph glyph-name="five" unicode="5" horiz-adv-x="527" 
d="M52 73c-13 15 -14 22 -2 34l63 62c6 6 16 8 24 3c0 0 71 -48 119 -48c54 0 95 40 95 95c0 54 -38 97 -103 97h-154c-20 0 -31 19 -31 35v310c0 10 8 19 19 19h322c11 0 19 -9 19 -19v-88c0 -10 -8 -19 -19 -19h-206v-107h71c138 0 228 -97 228 -228
c0 -125 -107 -229 -247 -229c-104 0 -173 53 -198 83z" />
    <glyph glyph-name="six" unicode="6" horiz-adv-x="538" 
d="M37 262c0 294 250 413 336 440c15 5 26 -2 31 -16l29 -77c4 -12 1 -23 -19 -29c-47 -15 -180 -61 -201 -164c26 11 68 20 95 20c94 0 199 -69 199 -217c0 -126 -104 -229 -229 -229c-155 0 -241 116 -241 272zM180 224c0 -52 43 -96 96 -96s96 44 96 96
c0 53 -43 97 -96 97s-96 -44 -96 -97z" />
    <glyph glyph-name="seven" unicode="7" horiz-adv-x="494" 
d="M37 19v11l250 522h-232c-10 0 -19 9 -19 19v90c0 10 9 19 19 19h422c10 0 19 -9 19 -19v-7l-299 -625c-12 -25 -26 -29 -41 -29h-99c-11 0 -20 8 -20 19z" />
    <glyph glyph-name="eight" unicode="8" horiz-adv-x="567" 
d="M40 181c0 88 103 157 122 168v3c-39 22 -103 76 -103 155c0 112 100 183 222 183c127 0 227 -71 227 -183c0 -76 -64 -129 -103 -154v-4c45 -25 122 -82 122 -168c0 -109 -96 -191 -246 -191c-145 0 -241 82 -241 191zM283 418c47 17 71 49 71 83s-33 65 -71 65
c-37 0 -70 -31 -70 -65c0 -36 23 -65 70 -83zM202 188c0 -44 41 -75 82 -75c40 0 81 32 81 75c0 37 -28 74 -82 92c-52 -18 -81 -55 -81 -92z" />
    <glyph glyph-name="nine" unicode="9" horiz-adv-x="537" 
d="M104 77c-4 12 -1 23 19 29c47 15 180 61 201 164c-26 -11 -68 -20 -95 -20c-94 0 -199 69 -199 217c0 126 104 229 229 229c155 0 241 -116 241 -272c0 -294 -244 -413 -336 -440c-15 -4 -26 2 -31 16zM261 365c53 0 96 44 96 97c0 52 -43 96 -96 96s-96 -44 -96 -96
c0 -53 43 -97 96 -97z" />
    <glyph glyph-name="colon" unicode=":" horiz-adv-x="260" 
d="M130 251c-44 0 -79 35 -79 79s35 80 79 80s80 -36 80 -80s-36 -79 -80 -79zM51 69c0 44 35 80 79 80s80 -36 80 -80s-36 -79 -80 -79s-79 35 -79 79z" />
    <glyph glyph-name="semicolon" unicode=";" horiz-adv-x="237" 
d="M107 251c-44 0 -79 35 -79 79s35 80 79 80s80 -36 80 -80s-36 -79 -80 -79zM33 61c0 39 33 72 79 72c38 0 91 -29 91 -116c0 -105 -70 -160 -93 -179c-7 -5 -14 -7 -22 2l-15 15c-7 8 -5 17 1 22c11 8 70 52 71 120c0 0 -17 -7 -40 -7c-39 0 -72 31 -72 71z" />
    <glyph glyph-name="less" unicode="&#x3c;" horiz-adv-x="435" 
d="M27 210c-5 3 -10 11 -10 17v5c0 6 5 14 10 17l350 212c13 8 28 0 28 -16v-87c0 -4 -4 -12 -8 -14l-191 -113l191 -109c4 -2 8 -10 8 -14v-87c0 -16 -15 -24 -28 -16z" />
    <glyph glyph-name="equal" unicode="=" horiz-adv-x="483" 
d="M72 331c-11 0 -19 9 -19 19v70c0 10 8 19 19 19h339c11 0 19 -9 19 -19v-70c0 -10 -8 -19 -19 -19h-339zM72 120c-11 0 -19 9 -19 19v71c0 10 8 19 19 19h339c11 0 19 -9 19 -19v-71c0 -10 -8 -19 -19 -19h-339z" />
    <glyph glyph-name="greater" unicode="&#x3e;" horiz-adv-x="435" 
d="M30 21v87c0 4 4 12 8 14l191 109l-191 113c-4 2 -8 10 -8 14v87c0 16 15 24 28 16l350 -212c5 -3 10 -11 10 -17v-5c0 -6 -5 -14 -10 -17l-350 -205c-13 -8 -28 0 -28 16z" />
    <glyph glyph-name="question" unicode="?" horiz-adv-x="453" 
d="M154 272c-10 0 -19 8 -19 19v42c0 84 138 121 138 185c0 31 -32 59 -75 59c-70 0 -89 -63 -114 -41l-61 60c-8 7 -7 19 0 26c0 0 74 88 203 88c106 0 204 -74 204 -175c0 -132 -150 -136 -150 -244c0 -11 -9 -19 -19 -19h-107zM113 84c0 52 43 96 94 96
c52 0 96 -44 96 -96c0 -51 -44 -94 -96 -94c-51 0 -94 43 -94 94z" />
    <glyph glyph-name="at" unicode="@" horiz-adv-x="990" 
d="M26 223c0 284 199 487 484 487c282 0 444 -181 444 -422c0 -132 -64 -298 -237 -298c-69 0 -102 36 -120 78h-8c-22 -42 -69 -78 -133 -78c-116 0 -184 101 -184 209c0 113 79 211 188 211c56 0 99 -36 123 -62c9 20 15 52 34 52h41c10 0 19 -8 19 -19v-168
c0 -87 30 -98 56 -98c59 0 84 92 84 165c0 173 -103 304 -312 304c-211 0 -347 -139 -347 -361c0 -150 95 -278 230 -333c9 -4 15 -14 12 -23l-30 -82c-4 -10 -13 -16 -23 -12c-183 61 -321 243 -321 450zM396 203c0 -55 34 -85 73 -85c41 0 71 39 71 86c0 50 -30 86 -74 86
c-43 0 -70 -39 -70 -87z" />
    <glyph glyph-name="A" unicode="A" horiz-adv-x="662" 
d="M13 0c-15 0 -23 13 -17 26l313 673c3 6 10 11 17 11h10c7 0 14 -5 17 -11l313 -673c6 -13 -2 -26 -17 -26h-111c-18 0 -26 6 -35 25l-36 79h-272l-36 -80c-5 -12 -16 -24 -36 -24h-110zM255 240h152l-76 165h-1z" />
    <glyph glyph-name="B" unicode="B" horiz-adv-x="612" 
d="M86 19v662c0 10 8 19 19 19h233c118 0 215 -81 215 -186c0 -77 -69 -133 -116 -158c53 -22 134 -71 134 -163c0 -112 -99 -193 -218 -193h-248c-11 0 -19 9 -19 19zM242 416h78c38 0 70 32 70 72s-32 68 -70 68h-78v-140zM242 143h91c39 0 72 32 72 73
c0 40 -43 70 -82 70h-81v-143z" />
    <glyph glyph-name="C" unicode="C" horiz-adv-x="673" 
d="M35 349c0 200 161 361 361 361c100 0 174 -31 242 -93c9 -8 9 -20 1 -28l-78 -81c-7 -7 -18 -7 -25 0c-37 33 -86 51 -135 51c-113 0 -196 -94 -196 -206c0 -111 84 -203 197 -203c47 0 98 17 134 48c7 6 20 6 26 -1l78 -83c7 -7 6 -20 -1 -27c-68 -66 -154 -97 -243 -97
c-200 0 -361 159 -361 359z" />
    <glyph glyph-name="D" unicode="D" horiz-adv-x="735" 
d="M86 19v662c0 10 8 19 18 19h244c193 0 351 -157 351 -349c0 -194 -158 -351 -351 -351h-244c-10 0 -18 9 -18 19zM242 148h96c113 0 195 89 195 203c0 113 -82 202 -195 202h-96v-405z" />
    <glyph glyph-name="E" unicode="E" horiz-adv-x="586" 
d="M86 19v662c0 10 8 19 19 19h414c11 0 19 -9 19 -19v-109c0 -10 -8 -19 -19 -19h-277v-124h228c10 0 19 -9 19 -19v-109c0 -11 -9 -19 -19 -19h-228v-135h277c11 0 19 -9 19 -19v-109c0 -10 -8 -19 -19 -19h-414c-11 0 -19 9 -19 19z" />
    <glyph glyph-name="F" unicode="F" horiz-adv-x="563" 
d="M86 19v662c0 10 8 19 19 19h414c11 0 19 -9 19 -19v-109c0 -10 -8 -19 -19 -19h-277v-144h228c10 0 19 -9 19 -19v-109c0 -10 -9 -19 -19 -19h-228v-243c0 -10 -9 -19 -19 -19h-118c-11 0 -19 9 -19 19z" />
    <glyph glyph-name="G" unicode="G" horiz-adv-x="702" 
d="M36 349c0 200 160 360 359 360c84 0 176 -35 244 -94c9 -7 10 -19 2 -27l-79 -84c-8 -7 -19 -7 -27 -1c-38 35 -82 48 -131 48c-109 0 -197 -92 -197 -202c0 -109 89 -199 198 -199c29 0 59 4 89 16v58h-63c-11 0 -19 8 -19 18v99c0 11 8 19 19 19h201c10 0 18 -9 18 -19
l1 -269c0 -5 -4 -13 -8 -16c0 0 -103 -65 -248 -65c-199 0 -359 158 -359 358z" />
    <glyph glyph-name="H" unicode="H" horiz-adv-x="772" 
d="M86 19v662c0 10 9 19 19 19h119c11 0 19 -9 19 -19v-252h286v252c0 10 8 19 19 19h119c10 0 19 -9 19 -19v-662c0 -10 -9 -19 -19 -19h-119c-11 0 -19 9 -19 19v263h-286v-263c0 -10 -8 -19 -19 -19h-119c-10 0 -19 9 -19 19z" />
    <glyph glyph-name="I" unicode="I" horiz-adv-x="330" 
d="M86 19v662c0 10 9 19 19 19h120c10 0 19 -9 19 -19v-662c0 -10 -9 -19 -19 -19h-120c-10 0 -19 9 -19 19z" />
    <glyph glyph-name="J" unicode="J" horiz-adv-x="424" 
d="M-14 63c-5 8 -4 18 2 25l68 67c8 7 19 8 27 0c12 -12 24 -21 51 -21c28 0 59 26 59 76v471c0 10 8 19 19 19h122c11 0 19 -9 19 -19v-472c0 -139 -98 -219 -215 -219c-87 0 -135 52 -152 73z" />
    <glyph glyph-name="K" unicode="K" horiz-adv-x="673" 
d="M86 24v652c0 13 10 24 24 24h117c13 0 24 -11 24 -24v-263l222 277c4 5 13 10 19 10h126c19 0 29 -22 18 -37l-234 -293l255 -332c11 -15 0 -37 -19 -37h-138c-7 0 -16 4 -18 7l-231 314v-298c0 -13 -11 -24 -24 -24h-117c-14 0 -24 11 -24 24z" />
    <glyph glyph-name="L" unicode="L" horiz-adv-x="511" 
d="M86 19v662c0 10 8 19 19 19h119c10 0 19 -9 19 -19v-534h238c11 0 19 -9 19 -19v-109c0 -10 -8 -19 -19 -19h-376c-11 0 -19 9 -19 19z" />
    <glyph glyph-name="M" unicode="M" horiz-adv-x="878" 
d="M42 22l113 672c1 9 10 16 18 16h16c5 0 14 -4 17 -10l232 -432h2l232 432c3 6 12 10 17 10h16c8 0 17 -7 18 -16l113 -672c2 -13 -7 -22 -19 -22h-118c-9 0 -18 8 -19 16l-45 309h-2l-168 -324c-3 -6 -12 -11 -17 -11h-18c-6 0 -14 5 -17 11l-169 324h-2l-44 -309
c-1 -8 -9 -16 -19 -16h-118c-12 0 -21 9 -19 22z" />
    <glyph glyph-name="N" unicode="N" horiz-adv-x="773" 
d="M86 19l-1 673c0 10 9 18 19 18h25l399 -384h1v355c0 10 8 19 19 19h120c10 0 19 -9 19 -19v-673c0 -10 -9 -18 -19 -18h-16c-3 0 -11 3 -13 5l-395 397h-1v-373c0 -10 -8 -19 -19 -19h-119c-10 0 -19 9 -19 19z" />
    <glyph glyph-name="O" unicode="O" horiz-adv-x="789" 
d="M35 349c0 200 159 361 359 361s360 -161 360 -361s-160 -359 -360 -359s-359 159 -359 359zM195 349c0 -109 90 -199 199 -199c110 0 200 90 200 199c0 110 -90 201 -200 201c-109 0 -199 -91 -199 -201z" />
    <glyph glyph-name="P" unicode="P" horiz-adv-x="589" 
d="M86 19v662c0 10 8 19 19 19h241c123 0 224 -100 224 -221c0 -124 -101 -225 -223 -225h-105v-235c0 -10 -9 -19 -19 -19h-118c-11 0 -19 9 -19 19zM242 400h95c43 0 79 34 79 79c0 42 -36 74 -79 74h-95v-153z" />
    <glyph glyph-name="Q" unicode="Q" horiz-adv-x="792" 
d="M35 349c0 200 159 361 359 361s360 -161 360 -361c0 -130 -75 -248 -185 -315l129 -202c8 -14 0 -30 -16 -30h-135c-8 0 -13 5 -16 10l-106 179c-12 -1 -24 -1 -31 -1c-200 0 -359 159 -359 359zM195 349c0 -109 90 -199 199 -199c110 0 200 90 200 199
c0 110 -90 201 -200 201c-109 0 -199 -91 -199 -201z" />
    <glyph glyph-name="R" unicode="R" horiz-adv-x="670" 
d="M86 19v662c0 10 8 19 19 19h299c120 0 218 -97 218 -216c0 -92 -61 -166 -148 -201l137 -254c7 -13 0 -29 -17 -29h-133c-8 0 -14 5 -16 9l-133 265h-69v-255c0 -10 -9 -19 -19 -19h-119c-11 0 -19 9 -19 19zM243 401h148c41 0 76 38 76 80s-35 76 -76 76h-148v-156z" />
    <glyph glyph-name="S" unicode="S" horiz-adv-x="548" 
d="M51 67c-10 10 -13 14 -5 28l47 83c8 13 27 11 34 6c4 -2 76 -55 142 -55c40 0 69 25 69 60c0 42 -35 74 -103 101c-86 34 -194 101 -194 221c0 99 77 199 231 199c104 0 184 -53 214 -75c12 -7 10 -25 6 -32l-51 -77c-7 -11 -25 -20 -34 -13c-9 5 -82 60 -143 60
c-36 0 -63 -24 -63 -51c0 -37 30 -65 109 -97c78 -31 202 -92 202 -228c0 -103 -89 -207 -236 -207c-130 0 -202 54 -225 77z" />
    <glyph glyph-name="T" unicode="T" 
d="M176 19v534h-143c-11 0 -19 9 -19 19v109c0 10 8 19 19 19h444c11 0 19 -9 19 -19v-109c0 -10 -8 -19 -19 -19h-143v-534c0 -10 -9 -19 -19 -19h-120c-10 0 -19 9 -19 19z" />
    <glyph glyph-name="U" unicode="U" horiz-adv-x="721" 
d="M76 268v413c0 10 9 19 19 19h123c11 0 19 -9 19 -19v-405c0 -70 52 -126 123 -126c72 0 125 56 125 126v405c0 10 8 19 19 19h123c10 0 19 -9 19 -19v-413c0 -152 -128 -278 -286 -278c-157 0 -284 126 -284 278z" />
    <glyph glyph-name="V" unicode="V" horiz-adv-x="662" 
d="M308 1l-312 673c-6 13 2 26 17 26h133c8 0 15 -6 17 -11l165 -365h6l165 365c2 5 9 11 17 11h133c15 0 23 -13 17 -26l-314 -673c-3 -6 -9 -11 -17 -11h-10c-8 0 -14 5 -17 11z" />
    <glyph glyph-name="W" unicode="W" horiz-adv-x="896" 
d="M213 4l-189 672c-4 14 4 24 18 24h117c8 0 16 -7 18 -14l86 -339h4l155 352c3 6 9 11 17 11h18c9 0 15 -5 17 -11l155 -352h4l86 339c2 7 10 14 18 14h117c14 0 22 -10 18 -24l-189 -672c-2 -8 -10 -14 -18 -14h-16c-7 0 -14 5 -17 11l-183 409h-3l-182 -409
c-3 -6 -10 -11 -17 -11h-16c-8 0 -16 6 -18 14z" />
    <glyph glyph-name="X" unicode="X" horiz-adv-x="655" 
d="M24 28l210 331l-202 313c-8 13 0 28 17 28h146c7 0 13 -5 16 -9l115 -186h1l117 186c2 4 9 9 16 9h146c17 0 26 -15 17 -28l-203 -313l210 -331c9 -14 0 -28 -16 -28h-139c-6 0 -14 4 -17 9l-131 202h-2l-128 -202c-3 -4 -9 -9 -17 -9h-139c-17 0 -26 15 -17 28z" />
    <glyph glyph-name="Y" unicode="Y" horiz-adv-x="590" 
d="M215 19v318l-221 334c-8 13 0 29 16 29h130c8 0 13 -5 16 -9l139 -205l139 205c3 4 7 9 16 9h130c16 0 24 -16 16 -29l-224 -333v-319c0 -10 -9 -19 -19 -19h-119c-11 0 -19 9 -19 19z" />
    <glyph glyph-name="Z" unicode="Z" horiz-adv-x="542" 
d="M23 19v18l266 514v2h-218c-10 0 -19 9 -19 19v109c0 10 9 19 19 19h425c10 0 19 -9 19 -19v-13l-257 -519v-2h218c11 0 19 -9 19 -19v-109c0 -10 -8 -19 -19 -19h-434c-10 0 -19 9 -19 19z" />
    <glyph glyph-name="bracketleft" unicode="[" horiz-adv-x="361" 
d="M198 -183h127c10 0 19 -8 19 -18v-81c0 -10 -9 -19 -19 -19h-246c-10 0 -19 9 -19 19v963c0 10 9 19 19 19h246c10 0 19 -9 19 -19v-80c0 -11 -9 -19 -19 -19h-127v-765z" />
    <glyph glyph-name="backslash" unicode="\" horiz-adv-x="372" 
d="M213 13l-195 662c-4 14 4 25 18 25h98c8 0 16 -6 18 -13l196 -662c4 -14 -5 -25 -18 -25h-99c-7 0 -16 6 -18 13z" />
    <glyph glyph-name="bracketright" unicode="]" horiz-adv-x="361" 
d="M36 -183h127v765h-127c-10 0 -19 8 -19 19v80c0 10 9 19 19 19h246c10 0 19 -9 19 -19v-963c0 -10 -9 -19 -19 -19h-246c-10 0 -19 9 -19 19v81c0 10 9 18 19 18z" />
    <glyph glyph-name="asciicircum" unicode="^" horiz-adv-x="524" 
d="M50 378c-16 0 -24 15 -16 28l211 298c3 5 11 10 17 10h5c6 0 14 -5 17 -10l206 -298c8 -13 0 -28 -16 -28h-87c-4 0 -12 4 -14 8l-110 149l-112 -149c-2 -4 -10 -8 -14 -8h-87z" />
    <glyph glyph-name="underscore" unicode="_" horiz-adv-x="431" 
d="M17 -29c0 11 8 19 19 19h359c11 0 19 -8 19 -19v-51c0 -10 -8 -18 -19 -18h-359c-11 0 -19 8 -19 18v51z" />
    <glyph glyph-name="grave" unicode="`" horiz-adv-x="302" 
d="M232 512l-182 82c-8 5 -14 15 -6 30l34 59c5 9 20 7 26 3l170 -104c5 -4 10 -11 6 -19l-21 -42c-5 -10 -14 -17 -27 -9z" />
    <glyph glyph-name="a" unicode="a" horiz-adv-x="429" 
d="M27 122c0 77 56 134 147 134c45 0 77 -16 77 -16c0 39 -6 59 -54 59c-27 0 -74 -7 -100 -15c-15 -5 -22 6 -24 21l-9 63c-3 17 6 24 15 27s79 15 133 15c124 0 169 -52 169 -170v-221c0 -10 -9 -19 -19 -19h-44c-6 0 -13 2 -18 13l-14 27c-23 -21 -58 -50 -121 -50
c-79 0 -138 53 -138 132zM157 132c0 -24 19 -44 43 -44s44 20 44 44c-1 23 -20 42 -44 42s-43 -19 -43 -42z" />
    <glyph glyph-name="b" unicode="b" 
d="M54 19v662c0 10 9 19 19 19h111c10 0 19 -9 19 -19v-290c12 7 49 19 83 19c107 0 199 -69 199 -210c0 -115 -85 -210 -198 -210c-88 0 -134 63 -134 63l-12 -33c-4 -11 -11 -20 -21 -20h-47c-10 0 -19 9 -19 19zM187 201c0 -46 34 -82 80 -82s81 36 81 82
c0 45 -35 80 -81 80s-80 -35 -80 -80z" />
    <glyph glyph-name="c" unicode="c" horiz-adv-x="420" 
d="M23 200c0 118 102 210 216 210c63 0 112 -26 150 -72c7 -9 4 -20 -5 -28l-60 -57c-5 -5 -17 -3 -22 2c-14 15 -35 26 -58 26c-44 0 -80 -37 -80 -81c0 -45 34 -81 78 -81c35 0 52 15 68 31c7 7 16 9 22 4l60 -52c9 -8 14 -18 7 -28c-37 -56 -89 -84 -161 -84
c-114 0 -215 90 -215 210z" />
    <glyph glyph-name="d" unicode="d" 
d="M25 200c0 141 92 210 199 210c34 0 71 -12 83 -19v290c0 10 9 19 19 19h111c10 0 19 -9 19 -19v-662c0 -10 -9 -19 -19 -19h-47c-10 0 -17 9 -21 20l-12 33s-46 -63 -134 -63c-113 0 -198 95 -198 210zM162 201c0 -46 35 -82 81 -82s80 36 80 82c0 45 -34 80 -80 80
s-81 -35 -81 -80z" />
    <glyph glyph-name="e" unicode="e" horiz-adv-x="439" 
d="M24 200c0 113 89 210 207 210c102 0 190 -78 190 -188c0 -7 -1 -20 -2 -27c-1 -10 -10 -17 -19 -17h-240c3 -27 25 -66 77 -66c25 0 54 12 70 24c9 7 19 7 25 0l50 -60c6 -8 8 -20 -1 -29c-35 -35 -85 -57 -148 -57c-119 0 -209 95 -209 210zM173 256h107
c-2 26 -27 47 -53 47c-27 0 -50 -21 -54 -47z" />
    <glyph glyph-name="f" unicode="f" horiz-adv-x="356" 
d="M75 19v254h-21c-11 0 -19 9 -19 19v89c0 11 8 19 19 19h21v92c0 140 87 218 203 218c52 0 105 -22 122 -38c6 -5 8 -16 4 -23l-42 -83c-3 -7 -15 -11 -23 -7c-13 7 -32 16 -52 16c-42 0 -59 -34 -59 -83v-92h92c11 0 19 -8 19 -19v-89c0 -10 -8 -19 -19 -19h-92v-254
c0 -10 -9 -19 -19 -19h-115c-10 0 -19 9 -19 19z" />
    <glyph glyph-name="g" unicode="g" horiz-adv-x="465" 
d="M11 36c0 79 80 110 80 110s-29 30 -29 91c0 93 79 173 176 173h189c11 0 19 -8 19 -19v-41c0 -7 -5 -14 -11 -17l-58 -21s38 -31 38 -97c0 -73 -67 -151 -173 -151h-72c-21 0 -33 -11 -33 -27c0 -19 17 -27 32 -27h120c94 0 172 -57 172 -146c0 -96 -67 -174 -225 -174
c-155 0 -209 73 -209 136c0 60 50 90 61 96v3c-13 4 -77 32 -77 111zM189 228c0 -30 23 -52 53 -52c31 0 53 22 53 52s-22 52 -53 52c-30 0 -53 -22 -53 -52zM164 -146c0 -28 24 -47 72 -47c50 0 72 20 72 47c0 21 -18 42 -72 42c-36 0 -72 -13 -72 -42z" />
    <glyph glyph-name="h" unicode="h" horiz-adv-x="530" 
d="M54 19v662c0 10 9 19 19 19h111c10 0 19 -9 19 -19v-294c30 15 63 23 93 23c126 0 191 -99 191 -210v-181c0 -10 -9 -19 -19 -19h-106c-11 0 -19 9 -19 19v183c0 44 -29 79 -73 79c-32 0 -67 -18 -67 -79v-183c0 -13 -5 -19 -22 -19h-108c-10 0 -19 9 -19 19z" />
    <glyph glyph-name="i" unicode="i" horiz-adv-x="256" 
d="M127 521c-44 0 -79 35 -79 79s35 80 79 80s80 -36 80 -80s-36 -79 -80 -79zM54 19v362c0 11 9 19 19 19h110c10 0 19 -8 19 -19v-362c0 -10 -9 -19 -19 -19h-110c-10 0 -19 9 -19 19z" />
    <glyph glyph-name="j" unicode="j" horiz-adv-x="257" 
d="M128 521c-44 0 -79 35 -79 79s35 80 79 80s80 -36 80 -80s-36 -79 -80 -79zM54 -92v473c0 11 9 19 19 19h111c10 0 19 -8 19 -19v-473c0 -140 -87 -218 -203 -218c-52 0 -105 22 -122 38c-6 5 -8 16 -4 23l42 83c3 7 15 11 23 7c13 -7 32 -16 52 -16c45 0 63 34 63 83z
" />
    <glyph glyph-name="k" unicode="k" horiz-adv-x="511" 
d="M54 19v662c0 10 9 19 19 19h111c10 0 19 -9 19 -19v-433l121 140c6 6 13 12 25 12h112c17 0 26 -17 15 -31l-132 -153l160 -186c11 -13 2 -30 -15 -30h-135c-4 0 -12 4 -15 8l-136 174v-163c0 -10 -9 -19 -19 -19h-111c-10 0 -19 9 -19 19z" />
    <glyph glyph-name="l" unicode="l" horiz-adv-x="256" 
d="M54 19v662c0 10 9 19 19 19h110c10 0 19 -9 19 -19v-662c0 -10 -9 -19 -19 -19h-110c-10 0 -19 9 -19 19z" />
    <glyph glyph-name="m" unicode="m" horiz-adv-x="786" 
d="M54 19v362c0 11 8 19 19 19h46c7 0 14 -5 17 -11l17 -41c25 26 71 62 135 62c56 0 95 -21 131 -61c23 23 70 61 138 61c124 0 185 -96 185 -210v-181c0 -10 -8 -19 -19 -19h-106c-11 0 -19 9 -19 19v187c0 40 -21 75 -67 75c-35 0 -67 -29 -67 -68v-194
c0 -10 -8 -19 -19 -19h-96c-11 0 -19 9 -19 19v187c0 40 -18 75 -63 75c-40 0 -70 -29 -70 -70v-192c0 -10 -9 -19 -19 -19h-105c-11 0 -19 9 -19 19z" />
    <glyph glyph-name="n" unicode="n" horiz-adv-x="528" 
d="M54 19v362c0 11 9 19 19 19h47c6 0 15 -5 18 -12l16 -40c22 24 68 62 141 62c124 0 190 -95 190 -209v-182c0 -10 -9 -19 -19 -19h-107c-11 0 -19 9 -19 19v187c0 40 -23 75 -68 75c-40 0 -76 -29 -76 -70v-192c0 -9 -4 -19 -18 -19h-105c-10 0 -19 9 -19 19z" />
    <glyph glyph-name="o" unicode="o" horiz-adv-x="462" 
d="M23 201c0 113 94 209 208 209s208 -96 208 -209c0 -115 -94 -211 -208 -211s-208 96 -208 211zM152 201c0 -45 35 -82 79 -82s79 37 79 82c0 44 -35 80 -79 80s-79 -36 -79 -80z" />
    <glyph glyph-name="p" unicode="p" 
d="M203 9v-290c0 -10 -9 -19 -19 -19h-111c-10 0 -19 9 -19 19v662c0 10 9 19 19 19h47c10 0 17 -9 21 -20l12 -33s46 63 134 63c113 0 198 -95 198 -210c0 -141 -92 -210 -199 -210c-34 0 -71 12 -83 19zM187 199c0 -45 34 -80 80 -80s81 35 81 80c0 46 -35 82 -81 82
s-80 -36 -80 -82z" />
    <glyph glyph-name="q" unicode="q" 
d="M25 200c0 115 85 210 198 210c88 0 134 -63 134 -63l12 33c4 11 11 20 21 20h47c10 0 19 -9 19 -19v-662c0 -10 -9 -19 -19 -19h-111c-10 0 -19 9 -19 19v290c-12 -7 -49 -19 -83 -19c-107 0 -199 69 -199 210zM162 199c0 -45 35 -80 81 -80s80 35 80 80
c0 46 -34 82 -80 82s-81 -36 -81 -82z" />
    <glyph glyph-name="r" unicode="r" horiz-adv-x="345" 
d="M54 19v362c0 11 9 19 19 19h47c11 0 15 -6 18 -12l18 -44c20 29 57 66 109 66c55 0 94 -20 80 -43l-49 -80c-4 -7 -11 -13 -22 -9c-5 2 -15 5 -24 5c-30 0 -53 -23 -53 -57v-207c0 -12 -6 -19 -22 -19h-102c-10 0 -19 9 -19 19z" />
    <glyph glyph-name="s" unicode="s" horiz-adv-x="371" 
d="M40 23c-7 6 -12 12 -7 21l35 69c3 6 13 12 21 8c0 0 47 -26 90 -26c10 0 19 6 19 18c0 10 -6 24 -57 42c-78 27 -112 72 -112 134c0 67 48 121 156 121c63 0 111 -17 133 -31c9 -6 16 -15 10 -25l-37 -68c-3 -6 -13 -9 -21 -6c0 0 -46 23 -85 23c-13 0 -22 -3 -22 -14
c0 -10 11 -20 45 -32c81 -28 137 -60 137 -140c0 -70 -56 -127 -169 -127c-66 0 -116 17 -136 33z" />
    <glyph glyph-name="t" unicode="t" horiz-adv-x="344" 
d="M70 129v144h-26c-10 0 -18 9 -18 19v89c0 11 8 19 18 19h26v111c0 10 9 19 19 19h107c10 0 18 -9 18 -19v-111h74c11 0 19 -8 19 -19v-89c0 -10 -8 -19 -19 -19h-74v-125c0 -22 15 -24 27 -24c14 0 29 5 39 7s19 -2 22 -13l22 -83c2 -9 -3 -20 -13 -23
c0 0 -71 -22 -121 -22c-76 0 -120 48 -120 139z" />
    <glyph glyph-name="u" unicode="u" 
d="M45 200v181c0 11 9 19 19 19h107c10 0 19 -8 19 -19v-185c0 -41 23 -77 64 -77c39 0 60 37 60 71v191c0 16 11 19 21 19h102c10 0 19 -8 19 -19v-362c0 -10 -9 -19 -19 -19h-47c-9 0 -16 7 -19 14l-15 37c-26 -25 -58 -61 -135 -61c-119 0 -176 96 -176 210z" />
    <glyph glyph-name="v" unicode="v" horiz-adv-x="426" 
d="M192 0l-188 373c-7 13 2 27 17 27h112c7 0 15 -5 18 -11l59 -136h3l63 136c6 12 13 11 27 11h101c15 0 24 -14 17 -27l-190 -373c-3 -5 -11 -10 -17 -10h-5c-6 0 -14 5 -17 10z" />
    <glyph glyph-name="w" unicode="w" horiz-adv-x="619" 
d="M143 2l-133 373c-5 13 4 25 18 25h95c6 0 16 -5 18 -12l52 -137h1l95 151c2 3 7 8 16 8h10c7 0 13 -4 15 -8l96 -151h1l51 137c4 9 9 12 20 12h93c14 0 23 -12 18 -25l-133 -373c-2 -7 -11 -12 -18 -12h-4c-5 0 -14 4 -16 8l-129 200h-1l-127 -200c-3 -4 -11 -8 -16 -8
h-5c-6 0 -16 5 -17 12z" />
    <glyph glyph-name="x" unicode="x" horiz-adv-x="469" 
d="M34 0c-17 0 -24 17 -15 30l130 174l-126 166c-10 13 -2 30 15 30h123c8 0 14 -4 16 -8l56 -82h3l57 82c2 4 6 8 16 8h123c17 0 25 -17 15 -30l-126 -165l127 -175c9 -13 1 -30 -15 -30h-121c-7 0 -12 5 -15 9l-61 86h-3c-20 -28 -47 -63 -64 -87c-3 -4 -9 -8 -16 -8h-119
z" />
    <glyph glyph-name="y" unicode="y" horiz-adv-x="465" 
d="M156 41l-150 333c-6 13 2 26 17 26h114c8 0 14 -5 17 -11l77 -186h2l79 186c2 6 9 11 17 11h113c15 0 24 -13 17 -26l-306 -662c-3 -6 -9 -12 -17 -12h-112c-15 0 -24 13 -17 27z" />
    <glyph glyph-name="z" unicode="z" horiz-adv-x="369" 
d="M28 19v10l117 240v2h-89c-10 0 -18 9 -18 19v91c0 11 8 19 18 19h271c15 0 24 -13 17 -27l-126 -243v-2h89c11 0 19 -8 19 -19v-90c0 -10 -8 -19 -19 -19h-260c-10 0 -19 9 -19 19z" />
    <glyph glyph-name="braceleft" unicode="{" horiz-adv-x="393" 
d="M101 -19v104c0 45 -45 59 -69 64c-8 1 -15 10 -15 18v58c0 8 7 16 13 18c0 0 71 23 71 64v111c0 239 147 285 250 291c11 1 19 -6 20 -17c2 -30 3 -54 5 -85c0 -8 -7 -17 -14 -19c-70 -18 -110 -72 -110 -170v-91c0 -79 -85 -128 -85 -128v-4c26 -11 85 -48 85 -120v-94
c0 -98 40 -152 110 -170c7 -2 14 -11 14 -19c-1 -35 -1 -55 -5 -85c-1 -10 -10 -18 -20 -17c-103 6 -250 52 -250 291z" />
    <glyph glyph-name="bar" unicode="|" horiz-adv-x="174" 
d="M60 -282v1023c0 11 9 19 19 19h17c10 0 18 -8 18 -19v-1023c0 -10 -9 -18 -19 -18h-16c-10 0 -19 8 -19 18z" />
    <glyph glyph-name="braceright" unicode="}" horiz-adv-x="393" 
d="M141 -19v94c0 72 59 109 85 120v4s-85 49 -85 128v91c0 98 -40 152 -110 170c-7 2 -14 11 -14 19c2 31 3 55 5 85c1 11 9 18 20 17c103 -6 250 -52 250 -291v-111c0 -41 71 -64 71 -64c6 -2 13 -10 13 -18v-58c0 -8 -7 -17 -15 -18c-24 -5 -69 -19 -69 -64v-104
c0 -239 -147 -285 -250 -291c-10 -1 -19 7 -20 17c-4 30 -4 50 -5 85c0 8 7 17 14 19c70 18 110 72 110 170z" />
    <glyph glyph-name="asciitilde" unicode="~" horiz-adv-x="526" 
d="M84 172l-61 63c-6 7 -8 17 -2 24c0 0 70 102 158 102c41 0 69 -20 98 -39c22 -14 44 -31 73 -31c27 0 50 29 64 49c8 10 20 10 29 1l58 -61c6 -7 8 -18 2 -25c0 0 -68 -101 -154 -101c-50 0 -79 22 -112 44c-19 12 -37 24 -60 24c-28 0 -51 -28 -64 -48
c-8 -10 -21 -11 -29 -2z" />
    <glyph glyph-name="uni00A0" unicode="&#xa0;" horiz-adv-x="221" 
 />
    <glyph glyph-name="Agrave" unicode="&#xc0;" horiz-adv-x="662" 
d="M13 0c-15 0 -23 13 -17 26l313 673c3 6 10 11 17 11h10c7 0 14 -5 17 -11l313 -673c6 -13 -2 -26 -17 -26h-111c-18 0 -26 6 -35 25l-36 79h-272l-36 -80c-5 -12 -16 -24 -36 -24h-110zM255 240h152l-76 165h-1zM402 762l-182 82c-8 5 -14 15 -6 30l34 59c5 9 20 7 26 3
l170 -104c5 -4 10 -11 6 -19l-21 -42c-5 -10 -14 -17 -27 -9z" />
    <glyph glyph-name="Aacute" unicode="&#xc1;" horiz-adv-x="662" 
d="M13 0c-15 0 -23 13 -17 26l313 673c3 6 10 11 17 11h10c7 0 14 -5 17 -11l313 -673c6 -13 -2 -26 -17 -26h-111c-18 0 -26 6 -35 25l-36 79h-272l-36 -80c-5 -12 -16 -24 -36 -24h-110zM255 240h152l-76 165h-1zM260 762c-13 -8 -22 -1 -27 9l-21 42c-4 8 1 15 6 19
l170 104c6 4 21 6 26 -3l34 -59c8 -15 2 -25 -6 -30z" />
    <glyph glyph-name="Acircumflex" unicode="&#xc2;" horiz-adv-x="662" 
d="M13 0c-15 0 -23 13 -17 26l313 673c3 6 10 11 17 11h10c7 0 14 -5 17 -11l313 -673c6 -13 -2 -26 -17 -26h-111c-18 0 -26 6 -35 25l-36 79h-272l-36 -80c-5 -12 -16 -24 -36 -24h-110zM255 240h152l-76 165h-1zM232 762c-11 -6 -16 -4 -22 4l-33 47c-5 7 1 15 6 19
l135 104c8 6 18 4 24 0l138 -104c5 -4 10 -11 6 -19l-34 -46c-5 -7 -14 -9 -21 -5l-99 58z" />
    <glyph glyph-name="Atilde" unicode="&#xc3;" horiz-adv-x="662" 
d="M13 0c-15 0 -23 13 -17 26l313 673c3 6 10 11 17 11h10c7 0 14 -5 17 -11l313 -673c6 -13 -2 -26 -17 -26h-111c-18 0 -26 6 -35 25l-36 79h-272l-36 -80c-5 -12 -16 -24 -36 -24h-110zM255 240h152l-76 165h-1zM214 785l-35 28c-7 5 -9 16 -6 23c10 18 53 84 107 84
c48 0 69 -47 108 -47c16 0 31 20 38 31c5 8 15 11 25 2l34 -26c8 -6 9 -17 1 -29c-10 -17 -47 -78 -100 -78c-52 0 -76 48 -110 48c-18 0 -31 -25 -40 -35c-6 -6 -13 -7 -22 -1z" />
    <glyph glyph-name="Adieresis" unicode="&#xc4;" horiz-adv-x="662" 
d="M13 0c-15 0 -23 13 -17 26l313 673c3 6 10 11 17 11h10c7 0 14 -5 17 -11l313 -673c6 -13 -2 -26 -17 -26h-111c-18 0 -26 6 -35 25l-36 79h-272l-36 -80c-5 -12 -16 -24 -36 -24h-110zM255 240h152l-76 165h-1zM463 768c-39 0 -70 32 -70 71s31 70 70 70s71 -31 71 -70
s-32 -71 -71 -71zM198 768c-39 0 -70 32 -70 71s31 70 70 70s71 -31 71 -70s-32 -71 -71 -71z" />
    <glyph glyph-name="Amacron" unicode="&#x100;" horiz-adv-x="662" 
d="M13 0c-15 0 -23 13 -17 26l313 673c3 6 10 11 17 11h10c7 0 14 -5 17 -11l313 -673c6 -13 -2 -26 -17 -26h-111c-18 0 -26 6 -35 25l-36 79h-272l-36 -80c-5 -12 -16 -24 -36 -24h-110zM255 240h152l-76 165h-1zM203 801c-11 0 -19 8 -19 18v41c0 11 8 19 19 19h256
c11 0 19 -8 19 -19v-41c0 -10 -8 -18 -19 -18h-256z" />
    <glyph glyph-name="Abreve" unicode="&#x102;" horiz-adv-x="662" 
d="M13 0c-15 0 -23 13 -17 26l313 673c3 6 10 11 17 11h10c7 0 14 -5 17 -11l313 -673c6 -13 -2 -26 -17 -26h-111c-18 0 -26 6 -35 25l-36 79h-272l-36 -80c-5 -12 -16 -24 -36 -24h-110zM255 240h152l-76 165h-1zM331 763c-74 0 -132 52 -142 120c-2 12 6 22 19 22h45
c8 0 15 -6 17 -12c9 -27 32 -48 61 -48c26 0 50 24 59 48c2 7 10 12 17 12h47c12 0 20 -10 19 -22c-11 -68 -69 -120 -142 -120z" />
    <glyph glyph-name="Aring" unicode="&#xc5;" horiz-adv-x="662" 
d="M13 0c-15 0 -23 13 -17 26l313 673c3 6 10 11 17 11h10c7 0 14 -5 17 -11l313 -673c6 -13 -2 -26 -17 -26h-111c-18 0 -26 6 -35 25l-36 79h-272l-36 -80c-5 -12 -16 -24 -36 -24h-110zM255 240h152l-76 165h-1zM331 752c-64 0 -115 51 -115 115s51 115 115 115
c63 0 115 -51 115 -115s-52 -115 -115 -115zM331 823c23 0 43 21 43 44s-20 43 -43 43s-44 -20 -44 -43s21 -44 44 -44z" />
    <glyph glyph-name="Aringacute" unicode="&#x1fa;" horiz-adv-x="662" 
d="M260 875c-13 -8 -22 -1 -27 9l-21 42c-4 8 1 15 6 19l170 104c6 4 21 6 26 -3l34 -59c8 -15 2 -25 -6 -30zM13 0c-15 0 -23 13 -17 26l291 626c-42 17 -71 58 -71 107c0 64 51 115 115 115c63 0 115 -51 115 -115c0 -49 -30 -90 -72 -107l292 -626c6 -13 -2 -26 -17 -26
h-111c-18 0 -26 6 -35 25l-36 79h-272l-36 -80c-5 -12 -16 -24 -36 -24h-110zM331 715c23 0 43 21 43 44s-20 43 -43 43s-44 -20 -44 -43s21 -44 44 -44zM255 240h152l-76 165h-1z" />
    <glyph glyph-name="Aogonek" unicode="&#x104;" horiz-adv-x="662" 
d="M13 0c-15 0 -23 13 -17 26l314 673c3 6 10 11 17 11h10c7 0 14 -5 17 -11l312 -673c6 -13 -2 -26 -17 -26h-85c-18 -18 -45 -53 -45 -95c0 -36 21 -67 70 -67c17 0 30 4 41 6c13 2 22 -7 22 -19v-33c0 -9 -7 -17 -15 -19c0 0 -35 -8 -63 -8c-76 0 -138 36 -138 114
c0 83 70 134 72 135l-41 90h-272l-36 -80c-5 -12 -16 -24 -36 -24h-110zM255 240h152l-77 165h-1z" />
    <glyph glyph-name="AE" unicode="&#xc6;" horiz-adv-x="898" 
d="M-3 0c-15 0 -20 13 -12 26l401 643c13 20 18 31 44 31h401c11 0 19 -9 19 -19v-109c0 -10 -8 -19 -19 -19h-277v-124h228c10 0 19 -9 19 -19v-109c0 -11 -9 -19 -19 -19h-228v-135h277c11 0 19 -9 19 -19v-109c0 -10 -8 -19 -19 -19h-414c-11 0 -19 9 -19 19v85h-184
l-53 -87c-7 -12 -14 -17 -29 -17h-135zM288 240h110v177z" />
    <glyph glyph-name="AEacute" unicode="&#x1fc;" horiz-adv-x="898" 
d="M-3 0c-15 0 -20 13 -12 26l401 643c13 20 18 31 44 31h401c11 0 19 -9 19 -19v-109c0 -10 -8 -19 -19 -19h-277v-124h228c10 0 19 -9 19 -19v-109c0 -11 -9 -19 -19 -19h-228v-135h277c11 0 19 -9 19 -19v-109c0 -10 -8 -19 -19 -19h-414c-11 0 -19 9 -19 19v85h-184
l-53 -87c-7 -12 -14 -17 -29 -17h-135zM288 240h110v177zM536 763c-13 -8 -22 -1 -27 9l-21 42c-4 8 1 15 6 19l170 104c6 4 21 6 26 -3l34 -59c8 -15 2 -25 -6 -30z" />
    <glyph glyph-name="Cacute" unicode="&#x106;" horiz-adv-x="673" 
d="M35 349c0 200 161 361 361 361c100 0 174 -31 242 -93c9 -8 9 -20 1 -28l-78 -81c-7 -7 -18 -7 -25 0c-37 33 -86 51 -135 51c-113 0 -196 -94 -196 -206c0 -111 84 -203 197 -203c47 0 98 17 134 48c7 6 20 6 26 -1l78 -83c7 -7 6 -20 -1 -27c-68 -66 -154 -97 -243 -97
c-200 0 -361 159 -361 359zM326 762c-13 -8 -22 -1 -27 9l-21 42c-4 8 1 15 6 19l170 104c6 4 21 6 26 -3l34 -59c8 -15 2 -25 -6 -30z" />
    <glyph glyph-name="Ccircumflex" unicode="&#x108;" horiz-adv-x="673" 
d="M35 349c0 200 161 361 361 361c100 0 174 -31 242 -93c9 -8 9 -20 1 -28l-78 -81c-7 -7 -18 -7 -25 0c-37 33 -86 51 -135 51c-113 0 -196 -94 -196 -206c0 -111 84 -203 197 -203c47 0 98 17 134 48c7 6 20 6 26 -1l78 -83c7 -7 6 -20 -1 -27c-68 -66 -154 -97 -243 -97
c-200 0 -361 159 -361 359zM298 762c-11 -6 -16 -4 -22 4l-33 47c-5 7 1 15 6 19l135 104c8 6 18 4 24 0l138 -104c5 -4 10 -11 6 -19l-34 -46c-5 -7 -14 -9 -21 -5l-99 58z" />
    <glyph glyph-name="Ccaron" unicode="&#x10c;" horiz-adv-x="673" 
d="M35 349c0 200 161 361 361 361c100 0 174 -31 242 -93c9 -8 9 -20 1 -28l-78 -81c-7 -7 -18 -7 -25 0c-37 33 -86 51 -135 51c-113 0 -196 -94 -196 -206c0 -111 84 -203 197 -203c47 0 98 17 134 48c7 6 20 6 26 -1l78 -83c7 -7 6 -20 -1 -27c-68 -66 -154 -97 -243 -97
c-200 0 -361 159 -361 359zM386 762l-138 104c-5 4 -10 11 -6 19l34 46c5 7 14 9 21 5l99 -58l100 58c11 6 16 4 22 -4l33 -47c5 -7 -1 -15 -6 -19l-135 -104c-8 -6 -18 -4 -24 0z" />
    <glyph glyph-name="Cdotaccent" unicode="&#x10a;" horiz-adv-x="673" 
d="M35 349c0 200 161 361 361 361c100 0 174 -31 242 -93c9 -8 9 -20 1 -28l-78 -81c-7 -7 -18 -7 -25 0c-37 33 -86 51 -135 51c-113 0 -196 -94 -196 -206c0 -111 84 -203 197 -203c47 0 98 17 134 48c7 6 20 6 26 -1l78 -83c7 -7 6 -20 -1 -27c-68 -66 -154 -97 -243 -97
c-200 0 -361 159 -361 359zM397 774c-44 0 -79 35 -79 79s35 80 79 80s80 -36 80 -80s-36 -79 -80 -79z" />
    <glyph glyph-name="Ccedilla" unicode="&#xc7;" horiz-adv-x="675" 
d="M331 -4c-168 30 -295 175 -295 353c0 200 161 361 361 361c100 0 174 -31 242 -93c9 -8 9 -20 1 -28l-78 -81c-7 -7 -18 -7 -25 0c-37 33 -86 51 -135 51c-113 0 -196 -94 -196 -206c0 -111 84 -203 197 -203c47 0 98 17 134 48c7 6 20 6 26 -1l78 -83c7 -7 6 -20 -1 -27
c-66 -65 -150 -95 -236 -97v-42c61 -8 92 -48 92 -102c0 -58 -47 -106 -106 -106c-30 0 -59 15 -76 35c-8 9 -6 20 4 29l23 20c6 6 16 4 21 -2c5 -7 16 -9 24 -9c16 0 30 16 30 32c0 14 -7 39 -68 42c-15 2 -17 13 -17 18v91z" />
    <glyph glyph-name="Dcaron" unicode="&#x10e;" horiz-adv-x="735" 
d="M86 19v662c0 10 8 19 18 19h244c193 0 351 -157 351 -349c0 -194 -158 -351 -351 -351h-244c-10 0 -18 9 -18 19zM242 148h96c113 0 195 89 195 203c0 113 -82 202 -195 202h-96v-405zM315 762l-138 104c-5 4 -10 11 -6 19l34 46c5 7 14 9 21 5l99 -58l100 58
c11 6 16 4 22 -4l33 -47c5 -7 -1 -15 -6 -19l-135 -104c-8 -6 -18 -4 -24 0z" />
    <glyph glyph-name="Dcroat" unicode="&#x110;" horiz-adv-x="740" 
d="M91 19v300h-29c-10 0 -18 9 -18 19v17c0 10 8 19 18 19h29v307c0 10 8 19 18 19h244c193 0 351 -157 351 -349c0 -194 -158 -351 -351 -351h-244c-10 0 -18 9 -18 19zM247 148h96c113 0 195 89 195 203c0 113 -82 202 -195 202h-96v-179h142c11 0 19 -9 19 -19v-18
c0 -10 -8 -18 -19 -18h-142v-171z" />
    <glyph glyph-name="Eth" unicode="&#xd0;" horiz-adv-x="740" 
d="M91 19v300h-29c-10 0 -18 9 -18 19v17c0 10 8 19 18 19h29v307c0 10 8 19 18 19h244c193 0 351 -157 351 -349c0 -194 -158 -351 -351 -351h-244c-10 0 -18 9 -18 19zM247 148h96c113 0 195 89 195 203c0 113 -82 202 -195 202h-96v-179h142c11 0 19 -9 19 -19v-18
c0 -10 -8 -18 -19 -18h-142v-171z" />
    <glyph glyph-name="Egrave" unicode="&#xc8;" horiz-adv-x="586" 
d="M86 19v662c0 10 8 19 19 19h414c11 0 19 -9 19 -19v-109c0 -10 -8 -19 -19 -19h-277v-124h228c10 0 19 -9 19 -19v-109c0 -11 -9 -19 -19 -19h-228v-135h277c11 0 19 -9 19 -19v-109c0 -10 -8 -19 -19 -19h-414c-11 0 -19 9 -19 19zM388 762l-182 82c-8 5 -14 15 -6 30
l34 59c5 9 20 7 26 3l170 -104c5 -4 10 -11 6 -19l-21 -42c-5 -10 -14 -17 -27 -9z" />
    <glyph glyph-name="Eacute" unicode="&#xc9;" horiz-adv-x="586" 
d="M86 19v662c0 10 8 19 19 19h414c11 0 19 -9 19 -19v-109c0 -10 -8 -19 -19 -19h-277v-124h228c10 0 19 -9 19 -19v-109c0 -11 -9 -19 -19 -19h-228v-135h277c11 0 19 -9 19 -19v-109c0 -10 -8 -19 -19 -19h-414c-11 0 -19 9 -19 19zM246 762c-13 -8 -22 -1 -27 9l-21 42
c-4 8 1 15 6 19l170 104c6 4 21 6 26 -3l34 -59c8 -15 2 -25 -6 -30z" />
    <glyph glyph-name="Ecircumflex" unicode="&#xca;" horiz-adv-x="586" 
d="M86 19v662c0 10 8 19 19 19h414c11 0 19 -9 19 -19v-109c0 -10 -8 -19 -19 -19h-277v-124h228c10 0 19 -9 19 -19v-109c0 -11 -9 -19 -19 -19h-228v-135h277c11 0 19 -9 19 -19v-109c0 -10 -8 -19 -19 -19h-414c-11 0 -19 9 -19 19zM218 762c-11 -6 -16 -4 -22 4l-33 47
c-5 7 1 15 6 19l135 104c8 6 18 4 24 0l138 -104c5 -4 10 -11 6 -19l-34 -46c-5 -7 -14 -9 -21 -5l-99 58z" />
    <glyph glyph-name="Ecaron" unicode="&#x11a;" horiz-adv-x="586" 
d="M86 19v662c0 10 8 19 19 19h414c11 0 19 -9 19 -19v-109c0 -10 -8 -19 -19 -19h-277v-124h228c10 0 19 -9 19 -19v-109c0 -11 -9 -19 -19 -19h-228v-135h277c11 0 19 -9 19 -19v-109c0 -10 -8 -19 -19 -19h-414c-11 0 -19 9 -19 19zM306 762l-138 104c-5 4 -10 11 -6 19
l34 46c5 7 14 9 21 5l99 -58l100 58c11 6 16 4 22 -4l33 -47c5 -7 -1 -15 -6 -19l-135 -104c-8 -6 -18 -4 -24 0z" />
    <glyph glyph-name="Edieresis" unicode="&#xcb;" horiz-adv-x="586" 
d="M86 19v662c0 10 8 19 19 19h414c11 0 19 -9 19 -19v-109c0 -10 -8 -19 -19 -19h-277v-124h228c10 0 19 -9 19 -19v-109c0 -11 -9 -19 -19 -19h-228v-135h277c11 0 19 -9 19 -19v-109c0 -10 -8 -19 -19 -19h-414c-11 0 -19 9 -19 19zM446 768c-39 0 -70 32 -70 71
s31 70 70 70s71 -31 71 -70s-32 -71 -71 -71zM181 768c-39 0 -70 32 -70 71s31 70 70 70s71 -31 71 -70s-32 -71 -71 -71z" />
    <glyph glyph-name="Emacron" unicode="&#x112;" horiz-adv-x="586" 
d="M86 19v662c0 10 8 19 19 19h414c11 0 19 -9 19 -19v-109c0 -10 -8 -19 -19 -19h-277v-124h228c10 0 19 -9 19 -19v-109c0 -11 -9 -19 -19 -19h-228v-135h277c11 0 19 -9 19 -19v-109c0 -10 -8 -19 -19 -19h-414c-11 0 -19 9 -19 19zM189 801c-11 0 -19 8 -19 18v41
c0 11 8 19 19 19h256c11 0 19 -8 19 -19v-41c0 -10 -8 -18 -19 -18h-256z" />
    <glyph glyph-name="Ebreve" unicode="&#x114;" horiz-adv-x="586" 
d="M86 19v662c0 10 8 19 19 19h414c11 0 19 -9 19 -19v-109c0 -10 -8 -19 -19 -19h-277v-124h228c10 0 19 -9 19 -19v-109c0 -11 -9 -19 -19 -19h-228v-135h277c11 0 19 -9 19 -19v-109c0 -10 -8 -19 -19 -19h-414c-11 0 -19 9 -19 19zM317 763c-74 0 -132 52 -142 120
c-2 12 6 22 19 22h45c8 0 15 -6 17 -12c9 -27 32 -48 61 -48c26 0 50 24 59 48c2 7 10 12 17 12h47c12 0 20 -10 19 -22c-11 -68 -69 -120 -142 -120z" />
    <glyph glyph-name="Edotaccent" unicode="&#x116;" horiz-adv-x="586" 
d="M86 19v662c0 10 8 19 19 19h414c11 0 19 -9 19 -19v-109c0 -10 -8 -19 -19 -19h-277v-124h228c10 0 19 -9 19 -19v-109c0 -11 -9 -19 -19 -19h-228v-135h277c11 0 19 -9 19 -19v-109c0 -10 -8 -19 -19 -19h-414c-11 0 -19 9 -19 19zM317 774c-44 0 -79 35 -79 79
s35 80 79 80s80 -36 80 -80s-36 -79 -80 -79z" />
    <glyph glyph-name="Eogonek" unicode="&#x118;" horiz-adv-x="586" 
d="M86 19v662c0 10 8 19 19 19h414c11 0 19 -9 19 -19v-109c0 -10 -8 -19 -19 -19h-277v-124h228c10 0 19 -9 19 -19v-109c0 -11 -9 -19 -19 -19h-228v-135h277c11 0 19 -9 19 -19v-93c0 -21 -8 -25 -20 -35c-18 -18 -45 -53 -45 -95c0 -36 21 -67 70 -67c17 0 30 4 41 6
c13 2 22 -7 22 -19v-33c0 -9 -7 -17 -15 -19c0 0 -35 -8 -63 -8c-76 0 -138 36 -138 114c0 58 34 100 55 121h-340c-11 0 -19 9 -19 19z" />
    <glyph glyph-name="Gcircumflex" unicode="&#x11c;" horiz-adv-x="702" 
d="M36 349c0 200 160 360 359 360c84 0 176 -35 244 -94c9 -7 10 -19 2 -27l-79 -84c-8 -7 -19 -7 -27 -1c-38 35 -82 48 -131 48c-109 0 -197 -92 -197 -202c0 -109 89 -199 198 -199c29 0 59 4 89 16v58h-63c-11 0 -19 8 -19 18v99c0 11 8 19 19 19h201c10 0 18 -9 18 -19
l1 -269c0 -5 -4 -13 -8 -16c0 0 -103 -65 -248 -65c-199 0 -359 158 -359 358zM297 762c-11 -6 -16 -4 -22 4l-33 47c-5 7 1 15 6 19l135 104c8 6 18 4 24 0l138 -104c5 -4 10 -11 6 -19l-34 -46c-5 -7 -14 -9 -21 -5l-99 58z" />
    <glyph glyph-name="Gbreve" unicode="&#x11e;" horiz-adv-x="702" 
d="M36 349c0 200 160 360 359 360c84 0 176 -35 244 -94c9 -7 10 -19 2 -27l-79 -84c-8 -7 -19 -7 -27 -1c-38 35 -82 48 -131 48c-109 0 -197 -92 -197 -202c0 -109 89 -199 198 -199c29 0 59 4 89 16v58h-63c-11 0 -19 8 -19 18v99c0 11 8 19 19 19h201c10 0 18 -9 18 -19
l1 -269c0 -5 -4 -13 -8 -16c0 0 -103 -65 -248 -65c-199 0 -359 158 -359 358zM396 763c-74 0 -132 52 -142 120c-2 12 6 22 19 22h45c8 0 15 -6 17 -12c9 -27 32 -48 61 -48c26 0 50 24 59 48c2 7 10 12 17 12h47c12 0 20 -10 19 -22c-11 -68 -69 -120 -142 -120z" />
    <glyph glyph-name="Gdotaccent" unicode="&#x120;" horiz-adv-x="702" 
d="M36 349c0 200 160 360 359 360c84 0 176 -35 244 -94c9 -7 10 -19 2 -27l-79 -84c-8 -7 -19 -7 -27 -1c-38 35 -82 48 -131 48c-109 0 -197 -92 -197 -202c0 -109 89 -199 198 -199c29 0 59 4 89 16v58h-63c-11 0 -19 8 -19 18v99c0 11 8 19 19 19h201c10 0 18 -9 18 -19
l1 -269c0 -5 -4 -13 -8 -16c0 0 -103 -65 -248 -65c-199 0 -359 158 -359 358zM396 774c-44 0 -79 35 -79 79s35 80 79 80s80 -36 80 -80s-36 -79 -80 -79z" />
    <glyph glyph-name="Gcommaaccent" unicode="&#x122;" horiz-adv-x="702" 
d="M36 349c0 200 160 360 359 360c84 0 176 -35 244 -94c9 -7 10 -19 2 -27l-79 -84c-8 -7 -19 -7 -27 -1c-38 35 -82 48 -131 48c-109 0 -197 -92 -197 -202c0 -109 89 -199 198 -199c29 0 59 4 89 16v58h-63c-11 0 -19 8 -19 18v99c0 11 8 19 19 19h201c10 0 18 -9 18 -19
l1 -269c0 -5 -4 -13 -8 -16c0 0 -103 -65 -248 -65c-199 0 -359 158 -359 358zM405 -90c38 0 91 -29 91 -116c0 -105 -70 -160 -93 -179c-7 -5 -14 -7 -22 2l-15 15c-7 8 -5 17 1 22c11 8 70 52 71 120c0 0 -17 -7 -40 -7c-39 0 -72 31 -72 71c0 39 33 72 79 72z" />
    <glyph glyph-name="Hcircumflex" unicode="&#x124;" horiz-adv-x="772" 
d="M86 19v662c0 10 9 19 19 19h119c11 0 19 -9 19 -19v-252h286v252c0 10 8 19 19 19h119c10 0 19 -9 19 -19v-662c0 -10 -9 -19 -19 -19h-119c-11 0 -19 9 -19 19v263h-286v-263c0 -10 -8 -19 -19 -19h-119c-10 0 -19 9 -19 19zM287 762c-11 -6 -16 -4 -22 4l-33 47
c-5 7 1 15 6 19l135 104c8 6 18 4 24 0l138 -104c5 -4 10 -11 6 -19l-34 -46c-5 -7 -14 -9 -21 -5l-99 58z" />
    <glyph glyph-name="Hbar" unicode="&#x126;" horiz-adv-x="772" 
d="M86 19v512h-28c-10 0 -18 9 -18 19v17c0 10 8 19 18 19h28v95c0 10 9 19 19 19h119c11 0 19 -9 19 -19v-95h286v95c0 10 8 19 19 19h119c10 0 19 -9 19 -19v-95h28c11 0 19 -9 19 -19v-18c0 -10 -8 -18 -19 -18h-28v-512c0 -10 -9 -19 -19 -19h-119c-11 0 -19 9 -19 19
v263h-286v-263c0 -10 -8 -19 -19 -19h-119c-10 0 -19 9 -19 19zM243 429h286v102h-286v-102z" />
    <glyph glyph-name="Igrave" unicode="&#xcc;" horiz-adv-x="330" 
d="M86 19v662c0 10 9 19 19 19h120c10 0 19 -9 19 -19v-662c0 -10 -9 -19 -19 -19h-120c-10 0 -19 9 -19 19zM236 762l-182 82c-8 5 -14 15 -6 30l34 59c5 9 20 7 26 3l170 -104c5 -4 10 -11 6 -19l-21 -42c-5 -10 -14 -17 -27 -9z" />
    <glyph glyph-name="Iacute" unicode="&#xcd;" horiz-adv-x="330" 
d="M86 19v662c0 10 9 19 19 19h120c10 0 19 -9 19 -19v-662c0 -10 -9 -19 -19 -19h-120c-10 0 -19 9 -19 19zM94 762c-13 -8 -22 -1 -27 9l-21 42c-4 8 1 15 6 19l170 104c6 4 21 6 26 -3l34 -59c8 -15 2 -25 -6 -30z" />
    <glyph glyph-name="Ibreve" unicode="&#x12c;" horiz-adv-x="330" 
d="M86 19v662c0 10 9 19 19 19h120c10 0 19 -9 19 -19v-662c0 -10 -9 -19 -19 -19h-120c-10 0 -19 9 -19 19zM165 763c-74 0 -132 52 -142 120c-2 12 6 22 19 22h45c8 0 15 -6 17 -12c9 -27 32 -48 61 -48c26 0 50 24 59 48c2 7 10 12 17 12h47c12 0 20 -10 19 -22
c-11 -68 -69 -120 -142 -120z" />
    <glyph glyph-name="Icircumflex" unicode="&#xce;" horiz-adv-x="330" 
d="M86 19v662c0 10 9 19 19 19h120c10 0 19 -9 19 -19v-662c0 -10 -9 -19 -19 -19h-120c-10 0 -19 9 -19 19zM66 762c-11 -6 -16 -4 -22 4l-33 47c-5 7 1 15 6 19l135 104c8 6 18 4 24 0l138 -104c5 -4 10 -11 6 -19l-34 -46c-5 -7 -14 -9 -21 -5l-99 58z" />
    <glyph glyph-name="Itilde" unicode="&#x128;" horiz-adv-x="330" 
d="M86 19v662c0 10 9 19 19 19h120c10 0 19 -9 19 -19v-662c0 -10 -9 -19 -19 -19h-120c-10 0 -19 9 -19 19zM48 785l-35 28c-7 5 -9 16 -6 23c10 18 53 84 107 84c48 0 69 -47 108 -47c16 0 31 20 38 31c5 8 15 11 25 2l34 -26c8 -6 9 -17 1 -29c-10 -17 -47 -78 -100 -78
c-52 0 -76 48 -110 48c-18 0 -31 -25 -40 -35c-6 -6 -13 -7 -22 -1z" />
    <glyph glyph-name="Idieresis" unicode="&#xcf;" horiz-adv-x="330" 
d="M86 19v662c0 10 9 19 19 19h120c10 0 19 -9 19 -19v-662c0 -10 -9 -19 -19 -19h-120c-10 0 -19 9 -19 19zM297 768c-39 0 -70 32 -70 71s31 70 70 70s71 -31 71 -70s-32 -71 -71 -71zM32 768c-39 0 -70 32 -70 71s31 70 70 70s71 -31 71 -70s-32 -71 -71 -71z" />
    <glyph glyph-name="Imacron" unicode="&#x12a;" horiz-adv-x="330" 
d="M86 19v662c0 10 9 19 19 19h120c10 0 19 -9 19 -19v-662c0 -10 -9 -19 -19 -19h-120c-10 0 -19 9 -19 19zM37 801c-11 0 -19 8 -19 18v41c0 11 8 19 19 19h256c11 0 19 -8 19 -19v-41c0 -10 -8 -18 -19 -18h-256z" />
    <glyph glyph-name="Idotaccent" unicode="&#x130;" horiz-adv-x="330" 
d="M86 19v662c0 10 9 19 19 19h120c10 0 19 -9 19 -19v-662c0 -10 -9 -19 -19 -19h-120c-10 0 -19 9 -19 19zM165 774c-44 0 -79 35 -79 79s35 80 79 80s80 -36 80 -80s-36 -79 -80 -79z" />
    <glyph glyph-name="Iogonek" unicode="&#x12e;" horiz-adv-x="330" 
d="M86 19v662c0 10 9 19 19 19h120c10 0 19 -9 19 -19v-662c0 -10 -9 -19 -19 -19h-29c-18 -18 -45 -53 -45 -95c0 -36 21 -67 70 -67c17 0 30 4 41 6c13 2 22 -7 22 -19v-33c0 -9 -7 -17 -15 -19c0 0 -35 -8 -63 -8c-76 0 -138 36 -138 114c0 58 34 100 55 121h-18
c-10 0 -19 9 -19 19z" />
    <glyph glyph-name="Jcircumflex" unicode="&#x134;" horiz-adv-x="425" 
d="M-14 63c-5 8 -4 18 2 25l68 67c8 7 19 8 27 0c12 -12 24 -21 51 -21c28 0 59 26 59 76v471c0 10 8 19 19 19h122c11 0 19 -9 19 -19v-472c0 -139 -98 -219 -215 -219c-87 0 -135 52 -152 73zM168 762c-11 -6 -16 -4 -22 4l-33 47c-5 7 1 15 6 19l135 104c8 6 18 4 24 0
l138 -104c5 -4 10 -11 6 -19l-34 -46c-5 -7 -14 -9 -21 -5l-99 58z" />
    <glyph glyph-name="Kcommaaccent" unicode="&#x136;" horiz-adv-x="673" 
d="M86 24v652c0 13 10 24 24 24h117c13 0 24 -11 24 -24v-263l222 277c4 5 13 10 19 10h126c19 0 29 -22 18 -37l-234 -293l255 -332c11 -15 0 -37 -19 -37h-138c-7 0 -16 4 -18 7l-231 314v-298c0 -13 -11 -24 -24 -24h-117c-14 0 -24 11 -24 24zM383 -90
c38 0 91 -29 91 -116c0 -105 -70 -160 -93 -179c-7 -5 -14 -7 -22 2l-15 15c-7 8 -5 17 1 22c11 8 70 52 71 120c0 0 -17 -7 -40 -7c-39 0 -72 31 -72 71c0 39 33 72 79 72z" />
    <glyph glyph-name="Lacute" unicode="&#x139;" horiz-adv-x="511" 
d="M86 19v662c0 10 8 19 19 19h119c10 0 19 -9 19 -19v-534h238c11 0 19 -9 19 -19v-109c0 -10 -8 -19 -19 -19h-376c-11 0 -19 9 -19 19zM92 762c-13 -8 -22 -1 -27 9l-21 42c-4 8 1 15 6 19l170 104c6 4 21 6 26 -3l34 -59c8 -15 2 -25 -6 -30z" />
    <glyph glyph-name="Lcaron" unicode="&#x13d;" horiz-adv-x="511" 
d="M86 19v662c0 10 8 19 19 19h119c10 0 19 -9 19 -19v-534h238c11 0 19 -9 19 -19v-109c0 -10 -8 -19 -19 -19h-376c-11 0 -19 9 -19 19zM388 710c38 0 91 -29 91 -116c0 -105 -70 -160 -93 -179c-7 -5 -14 -7 -22 2l-15 15c-7 8 -5 17 1 22c11 8 70 52 71 120
c0 0 -17 -7 -40 -7c-39 0 -72 31 -72 71c0 39 33 72 79 72z" />
    <glyph glyph-name="Lcommaaccent" unicode="&#x13b;" horiz-adv-x="511" 
d="M86 19v662c0 10 8 19 19 19h119c10 0 19 -9 19 -19v-534h238c11 0 19 -9 19 -19v-109c0 -10 -8 -19 -19 -19h-376c-11 0 -19 9 -19 19zM302 -90c38 0 91 -29 91 -116c0 -105 -70 -160 -93 -179c-7 -5 -14 -7 -22 2l-15 15c-7 8 -5 17 1 22c11 8 70 52 71 120
c0 0 -17 -7 -40 -7c-39 0 -72 31 -72 71c0 39 33 72 79 72z" />
    <glyph glyph-name="Lslash" unicode="&#x141;" horiz-adv-x="527" 
d="M102 19v285l-23 -13c-9 -5 -21 -2 -26 7l-8 15c-5 8 -3 20 6 25l51 29v314c0 10 8 19 19 19h119c10 0 19 -9 19 -19v-223l75 44c10 5 21 2 26 -7l9 -16c5 -8 2 -19 -7 -25l-103 -60v-247h238c11 0 19 -9 19 -19v-109c0 -10 -8 -19 -19 -19h-376c-11 0 -19 9 -19 19z" />
    <glyph glyph-name="Ldot" unicode="&#x13f;" horiz-adv-x="574" 
d="M86 19v662c0 10 8 19 19 19h119c10 0 19 -9 19 -19v-534h238c11 0 19 -9 19 -19v-109c0 -10 -8 -19 -19 -19h-376c-11 0 -19 9 -19 19zM475 281c-44 0 -79 35 -79 79s35 80 79 80s80 -36 80 -80s-36 -79 -80 -79z" />
    <glyph glyph-name="Nacute" unicode="&#x143;" horiz-adv-x="773" 
d="M86 19l-1 673c0 10 9 18 19 18h25l399 -384h1v355c0 10 8 19 19 19h120c10 0 19 -9 19 -19v-673c0 -10 -9 -18 -19 -18h-16c-3 0 -11 3 -13 5l-395 397h-1v-373c0 -10 -8 -19 -19 -19h-119c-10 0 -19 9 -19 19zM317 762c-13 -8 -22 -1 -27 9l-21 42c-4 8 1 15 6 19
l170 104c6 4 21 6 26 -3l34 -59c8 -15 2 -25 -6 -30z" />
    <glyph glyph-name="Ncaron" unicode="&#x147;" horiz-adv-x="773" 
d="M86 19l-1 673c0 10 9 18 19 18h25l399 -384h1v355c0 10 8 19 19 19h120c10 0 19 -9 19 -19v-673c0 -10 -9 -18 -19 -18h-16c-3 0 -11 3 -13 5l-395 397h-1v-373c0 -10 -8 -19 -19 -19h-119c-10 0 -19 9 -19 19zM377 762l-138 104c-5 4 -10 11 -6 19l34 46c5 7 14 9 21 5
l99 -58l100 58c11 6 16 4 22 -4l33 -47c5 -7 -1 -15 -6 -19l-135 -104c-8 -6 -18 -4 -24 0z" />
    <glyph glyph-name="Ntilde" unicode="&#xd1;" horiz-adv-x="773" 
d="M86 19l-1 673c0 10 9 18 19 18h25l399 -384h1v355c0 10 8 19 19 19h120c10 0 19 -9 19 -19v-673c0 -10 -9 -18 -19 -18h-16c-3 0 -11 3 -13 5l-395 397h-1v-373c0 -10 -8 -19 -19 -19h-119c-10 0 -19 9 -19 19zM271 785l-35 28c-7 5 -9 16 -6 23c10 18 53 84 107 84
c48 0 69 -47 108 -47c16 0 31 20 38 31c5 8 15 11 25 2l34 -26c8 -6 9 -17 1 -29c-10 -17 -47 -78 -100 -78c-52 0 -76 48 -110 48c-18 0 -31 -25 -40 -35c-6 -6 -13 -7 -22 -1z" />
    <glyph glyph-name="Ncommaaccent" unicode="&#x145;" horiz-adv-x="773" 
d="M86 19l-1 673c0 10 9 18 19 18h25l399 -384h1v355c0 10 8 19 19 19h120c10 0 19 -9 19 -19v-673c0 -10 -9 -18 -19 -18h-16c-3 0 -11 3 -13 5l-395 397h-1v-373c0 -10 -8 -19 -19 -19h-119c-10 0 -19 9 -19 19zM404 -90c38 0 91 -29 91 -116c0 -105 -70 -160 -93 -179
c-7 -5 -14 -7 -22 2l-15 15c-7 8 -5 17 1 22c11 8 70 52 71 120c0 0 -17 -7 -40 -7c-39 0 -72 31 -72 71c0 39 33 72 79 72z" />
    <glyph glyph-name="Ograve" unicode="&#xd2;" horiz-adv-x="789" 
d="M35 349c0 200 159 361 359 361s360 -161 360 -361s-160 -359 -360 -359s-359 159 -359 359zM195 349c0 -109 90 -199 199 -199c110 0 200 90 200 199c0 110 -90 201 -200 201c-109 0 -199 -91 -199 -201zM465 762l-182 82c-8 5 -14 15 -6 30l34 59c5 9 20 7 26 3
l170 -104c5 -4 10 -11 6 -19l-21 -42c-5 -10 -14 -17 -27 -9z" />
    <glyph glyph-name="Oacute" unicode="&#xd3;" horiz-adv-x="789" 
d="M35 349c0 200 159 361 359 361s360 -161 360 -361s-160 -359 -360 -359s-359 159 -359 359zM195 349c0 -109 90 -199 199 -199c110 0 200 90 200 199c0 110 -90 201 -200 201c-109 0 -199 -91 -199 -201zM323 762c-13 -8 -22 -1 -27 9l-21 42c-4 8 1 15 6 19l170 104
c6 4 21 6 26 -3l34 -59c8 -15 2 -25 -6 -30z" />
    <glyph glyph-name="Ocircumflex" unicode="&#xd4;" horiz-adv-x="789" 
d="M35 349c0 200 159 361 359 361s360 -161 360 -361s-160 -359 -360 -359s-359 159 -359 359zM195 349c0 -109 90 -199 199 -199c110 0 200 90 200 199c0 110 -90 201 -200 201c-109 0 -199 -91 -199 -201zM295 762c-11 -6 -16 -4 -22 4l-33 47c-5 7 1 15 6 19l135 104
c8 6 18 4 24 0l138 -104c5 -4 10 -11 6 -19l-34 -46c-5 -7 -14 -9 -21 -5l-99 58z" />
    <glyph glyph-name="Otilde" unicode="&#xd5;" horiz-adv-x="789" 
d="M35 349c0 200 159 361 359 361s360 -161 360 -361s-160 -359 -360 -359s-359 159 -359 359zM195 349c0 -109 90 -199 199 -199c110 0 200 90 200 199c0 110 -90 201 -200 201c-109 0 -199 -91 -199 -201zM277 785l-35 28c-7 5 -9 16 -6 23c10 18 53 84 107 84
c48 0 69 -47 108 -47c16 0 31 20 38 31c5 8 15 11 25 2l34 -26c8 -6 9 -17 1 -29c-10 -17 -47 -78 -100 -78c-52 0 -76 48 -110 48c-18 0 -31 -25 -40 -35c-6 -6 -13 -7 -22 -1z" />
    <glyph glyph-name="Odieresis" unicode="&#xd6;" horiz-adv-x="789" 
d="M35 349c0 200 159 361 359 361s360 -161 360 -361s-160 -359 -360 -359s-359 159 -359 359zM195 349c0 -109 90 -199 199 -199c110 0 200 90 200 199c0 110 -90 201 -200 201c-109 0 -199 -91 -199 -201zM526 768c-39 0 -70 32 -70 71s31 70 70 70s71 -31 71 -70
s-32 -71 -71 -71zM261 768c-39 0 -70 32 -70 71s31 70 70 70s71 -31 71 -70s-32 -71 -71 -71z" />
    <glyph glyph-name="Omacron" unicode="&#x14c;" horiz-adv-x="789" 
d="M35 349c0 200 159 361 359 361s360 -161 360 -361s-160 -359 -360 -359s-359 159 -359 359zM195 349c0 -109 90 -199 199 -199c110 0 200 90 200 199c0 110 -90 201 -200 201c-109 0 -199 -91 -199 -201zM266 801c-11 0 -19 8 -19 18v41c0 11 8 19 19 19h256
c11 0 19 -8 19 -19v-41c0 -10 -8 -18 -19 -18h-256z" />
    <glyph glyph-name="Obreve" unicode="&#x14e;" horiz-adv-x="789" 
d="M35 349c0 200 159 361 359 361s360 -161 360 -361s-160 -359 -360 -359s-359 159 -359 359zM195 349c0 -109 90 -199 199 -199c110 0 200 90 200 199c0 110 -90 201 -200 201c-109 0 -199 -91 -199 -201zM394 763c-74 0 -132 52 -142 120c-2 12 6 22 19 22h45
c8 0 15 -6 17 -12c9 -27 32 -48 61 -48c26 0 50 24 59 48c2 7 10 12 17 12h47c12 0 20 -10 19 -22c-11 -68 -69 -120 -142 -120z" />
    <glyph glyph-name="Ohungarumlaut" unicode="&#x150;" horiz-adv-x="789" 
d="M35 349c0 200 159 361 359 361s360 -161 360 -361s-160 -359 -360 -359s-359 159 -359 359zM195 349c0 -109 90 -199 199 -199c110 0 200 90 200 199c0 110 -90 201 -200 201c-109 0 -199 -91 -199 -201zM465 768c-10 0 -22 9 -19 19l30 141c3 10 9 19 19 19h94
c19 0 26 -13 18 -25l-78 -139c-5 -7 -11 -15 -18 -15h-46zM299 768c-10 0 -22 9 -19 19l30 141c3 10 9 19 19 19h94c19 0 25 -12 18 -25l-78 -139c-4 -8 -11 -15 -18 -15h-46z" />
    <glyph glyph-name="Oslash" unicode="&#xd8;" horiz-adv-x="795" 
d="M57 23c-7 7 -8 19 -1 26l67 66c-53 63 -85 144 -85 234c0 200 159 361 359 361c90 0 172 -33 235 -87l70 69c7 8 19 7 26 0l12 -12c8 -7 8 -18 0 -26l-70 -70c54 -63 87 -145 87 -235c0 -200 -160 -359 -360 -359c-91 0 -173 32 -235 86l-67 -66c-7 -7 -19 -6 -26 1z
M238 230l280 279c-34 25 -76 41 -121 41c-109 0 -199 -91 -199 -201c0 -45 15 -86 40 -119zM277 191c33 -26 75 -41 120 -41c110 0 200 90 200 199c0 45 -15 88 -41 121z" />
    <glyph glyph-name="Oslashacute" unicode="&#x1fe;" horiz-adv-x="796" 
d="M57 23c-7 7 -8 19 -1 26l67 66c-53 63 -85 144 -85 234c0 200 159 361 359 361c90 0 172 -33 235 -87l70 69c7 8 19 7 26 0l12 -12c8 -7 8 -18 0 -26l-70 -70c54 -63 87 -145 87 -235c0 -200 -160 -359 -360 -359c-91 0 -173 32 -235 86l-67 -66c-7 -7 -19 -6 -26 1z
M238 230l280 279c-34 25 -76 41 -121 41c-109 0 -199 -91 -199 -201c0 -45 15 -86 40 -119zM277 191c33 -26 75 -41 120 -41c110 0 200 90 200 199c0 45 -15 88 -41 121zM326 762c-13 -8 -22 -1 -27 9l-21 42c-4 8 1 15 6 19l170 104c6 4 21 6 26 -3l34 -59
c8 -15 2 -25 -6 -30z" />
    <glyph glyph-name="OE" unicode="&#x152;" horiz-adv-x="978" 
d="M35 349c0 200 159 361 359 361c52 0 103 -10 103 -10h414c11 0 19 -9 19 -19v-109c0 -10 -8 -19 -19 -19h-277v-124h228c10 0 19 -9 19 -19v-109c0 -11 -9 -19 -19 -19h-228v-135h277c11 0 19 -9 19 -19v-109c0 -10 -8 -19 -19 -19h-414s-53 -10 -103 -10
c-200 0 -359 159 -359 359zM195 349c0 -109 90 -202 199 -202c30 0 58 4 84 16v373c-26 12 -54 16 -84 16c-109 0 -199 -93 -199 -203z" />
    <glyph glyph-name="Racute" unicode="&#x154;" horiz-adv-x="670" 
d="M86 19v662c0 10 8 19 19 19h299c120 0 218 -97 218 -216c0 -92 -61 -166 -148 -201l137 -254c7 -13 0 -29 -17 -29h-133c-8 0 -14 5 -16 9l-133 265h-69v-255c0 -10 -9 -19 -19 -19h-119c-11 0 -19 9 -19 19zM243 401h148c41 0 76 38 76 80s-35 76 -76 76h-148v-156z
M253 762c-13 -8 -22 -1 -27 9l-21 42c-4 8 1 15 6 19l170 104c6 4 21 6 26 -3l34 -59c8 -15 2 -25 -6 -30z" />
    <glyph glyph-name="Rcaron" unicode="&#x158;" horiz-adv-x="670" 
d="M86 19v662c0 10 8 19 19 19h299c120 0 218 -97 218 -216c0 -92 -61 -166 -148 -201l137 -254c7 -13 0 -29 -17 -29h-133c-8 0 -14 5 -16 9l-133 265h-69v-255c0 -10 -9 -19 -19 -19h-119c-11 0 -19 9 -19 19zM243 401h148c41 0 76 38 76 80s-35 76 -76 76h-148v-156z
M313 762l-138 104c-5 4 -10 11 -6 19l34 46c5 7 14 9 21 5l99 -58l100 58c11 6 16 4 22 -4l33 -47c5 -7 -1 -15 -6 -19l-135 -104c-8 -6 -18 -4 -24 0z" />
    <glyph glyph-name="Rcommaaccent" unicode="&#x156;" horiz-adv-x="669" 
d="M86 19v662c0 10 8 19 19 19h299c120 0 218 -97 218 -216c0 -92 -61 -166 -148 -201l137 -254c7 -13 0 -29 -17 -29h-133c-8 0 -14 5 -16 9l-133 265h-69v-255c0 -10 -9 -19 -19 -19h-119c-11 0 -19 9 -19 19zM243 401h148c41 0 76 38 76 80s-35 76 -76 76h-148v-156z
M343 -90c38 0 91 -29 91 -116c0 -105 -70 -160 -93 -179c-7 -5 -14 -7 -22 2l-15 15c-7 8 -5 17 1 22c11 8 70 52 71 120c0 0 -17 -7 -40 -7c-39 0 -72 31 -72 71c0 39 33 72 79 72z" />
    <glyph glyph-name="Sacute" unicode="&#x15a;" horiz-adv-x="548" 
d="M51 67c-10 10 -13 14 -5 28l47 83c8 13 27 11 34 6c4 -2 76 -55 142 -55c40 0 69 25 69 60c0 42 -35 74 -103 101c-86 34 -194 101 -194 221c0 99 77 199 231 199c104 0 184 -53 214 -75c12 -7 10 -25 6 -32l-51 -77c-7 -11 -25 -20 -34 -13c-9 5 -82 60 -143 60
c-36 0 -63 -24 -63 -51c0 -37 30 -65 109 -97c78 -31 202 -92 202 -228c0 -103 -89 -207 -236 -207c-130 0 -202 54 -225 77zM202 762c-13 -8 -22 -1 -27 9l-21 42c-4 8 1 15 6 19l170 104c6 4 21 6 26 -3l34 -59c8 -15 2 -25 -6 -30z" />
    <glyph glyph-name="Scircumflex" unicode="&#x15c;" horiz-adv-x="548" 
d="M51 67c-10 10 -13 14 -5 28l47 83c8 13 27 11 34 6c4 -2 76 -55 142 -55c40 0 69 25 69 60c0 42 -35 74 -103 101c-86 34 -194 101 -194 221c0 99 77 199 231 199c104 0 184 -53 214 -75c12 -7 10 -25 6 -32l-51 -77c-7 -11 -25 -20 -34 -13c-9 5 -82 60 -143 60
c-36 0 -63 -24 -63 -51c0 -37 30 -65 109 -97c78 -31 202 -92 202 -228c0 -103 -89 -207 -236 -207c-130 0 -202 54 -225 77zM174 762c-11 -6 -16 -4 -22 4l-33 47c-5 7 1 15 6 19l135 104c8 6 18 4 24 0l138 -104c5 -4 10 -11 6 -19l-34 -46c-5 -7 -14 -9 -21 -5l-99 58z
" />
    <glyph glyph-name="Scaron" unicode="&#x160;" horiz-adv-x="548" 
d="M51 67c-10 10 -13 14 -5 28l47 83c8 13 27 11 34 6c4 -2 76 -55 142 -55c40 0 69 25 69 60c0 42 -35 74 -103 101c-86 34 -194 101 -194 221c0 99 77 199 231 199c104 0 184 -53 214 -75c12 -7 10 -25 6 -32l-51 -77c-7 -11 -25 -20 -34 -13c-9 5 -82 60 -143 60
c-36 0 -63 -24 -63 -51c0 -37 30 -65 109 -97c78 -31 202 -92 202 -228c0 -103 -89 -207 -236 -207c-130 0 -202 54 -225 77zM262 762l-138 104c-5 4 -10 11 -6 19l34 46c5 7 14 9 21 5l99 -58l100 58c11 6 16 4 22 -4l33 -47c5 -7 -1 -15 -6 -19l-135 -104
c-8 -6 -18 -4 -24 0z" />
    <glyph glyph-name="Scedilla" unicode="&#x15e;" horiz-adv-x="550" 
d="M52 67c-10 10 -13 14 -5 28l47 83c8 13 27 11 34 6c4 -2 76 -55 142 -55c40 0 69 25 69 60c0 42 -35 74 -103 101c-86 34 -194 101 -194 221c0 99 77 199 231 199c104 0 184 -53 214 -75c12 -7 10 -25 6 -32l-51 -77c-7 -11 -25 -20 -34 -13c-9 5 -82 60 -143 60
c-36 0 -63 -24 -63 -51c0 -37 30 -65 109 -97c78 -31 202 -92 202 -228c0 -102 -87 -204 -231 -207v-42c61 -8 92 -48 92 -102c0 -58 -47 -106 -106 -106c-30 0 -59 15 -76 35c-8 9 -6 20 4 29l23 20c6 6 16 4 21 -2c5 -7 16 -9 24 -9c16 0 30 16 30 32c0 14 -7 39 -68 42
c-15 2 -17 13 -17 18v91c-88 13 -139 52 -157 71z" />
    <glyph glyph-name="Scommaaccent" unicode="&#x218;" horiz-adv-x="548" 
d="M51 67c-10 10 -13 14 -5 28l47 83c8 13 27 11 34 6c4 -2 76 -55 142 -55c40 0 69 25 69 60c0 42 -35 74 -103 101c-86 34 -194 101 -194 221c0 99 77 199 231 199c104 0 184 -53 214 -75c12 -7 10 -25 6 -32l-51 -77c-7 -11 -25 -20 -34 -13c-9 5 -82 60 -143 60
c-36 0 -63 -24 -63 -51c0 -37 30 -65 109 -97c78 -31 202 -92 202 -228c0 -103 -89 -207 -236 -207c-130 0 -202 54 -225 77zM285 -90c38 0 91 -29 91 -116c0 -105 -70 -160 -93 -179c-7 -5 -14 -7 -22 2l-15 15c-7 8 -5 17 1 22c11 8 70 52 71 120c0 0 -17 -7 -40 -7
c-39 0 -72 31 -72 71c0 39 33 72 79 72z" />
    <glyph glyph-name="Tcaron" unicode="&#x164;" 
d="M176 19v534h-143c-11 0 -19 9 -19 19v109c0 10 8 19 19 19h444c11 0 19 -9 19 -19v-109c0 -10 -8 -19 -19 -19h-143v-534c0 -10 -9 -19 -19 -19h-120c-10 0 -19 9 -19 19zM244 762l-138 104c-5 4 -10 11 -6 19l34 46c5 7 14 9 21 5l99 -58l100 58c11 6 16 4 22 -4l33 -47
c5 -7 -1 -15 -6 -19l-135 -104c-8 -6 -18 -4 -24 0z" />
    <glyph glyph-name="Tcommaaccent" unicode="&#x162;" horiz-adv-x="508" 
d="M175 19v534h-143c-11 0 -19 9 -19 19v109c0 10 8 19 19 19h444c11 0 19 -9 19 -19v-109c0 -10 -8 -19 -19 -19h-143v-534c0 -10 -9 -19 -19 -19h-120c-10 0 -19 9 -19 19zM243 -90c38 0 91 -29 91 -116c0 -105 -70 -160 -93 -179c-7 -5 -14 -7 -22 2l-15 15
c-7 8 -5 17 1 22c11 8 70 52 71 120c0 0 -17 -7 -40 -7c-39 0 -72 31 -72 71c0 39 33 72 79 72z" />
    <glyph glyph-name="uni021A" unicode="&#x21a;" horiz-adv-x="508" 
d="M175 19v534h-143c-11 0 -19 9 -19 19v109c0 10 8 19 19 19h444c11 0 19 -9 19 -19v-109c0 -10 -8 -19 -19 -19h-143v-534c0 -10 -9 -19 -19 -19h-120c-10 0 -19 9 -19 19zM243 -90c38 0 91 -29 91 -116c0 -105 -70 -160 -93 -179c-7 -5 -14 -7 -22 2l-15 15
c-7 8 -5 17 1 22c11 8 70 52 71 120c0 0 -17 -7 -40 -7c-39 0 -72 31 -72 71c0 39 33 72 79 72z" />
    <glyph glyph-name="Tbar" unicode="&#x166;" 
d="M176 19v270h-82c-10 0 -18 9 -18 19v17c0 10 8 19 18 19h82v209h-143c-11 0 -19 9 -19 19v109c0 10 8 19 19 19h444c11 0 19 -9 19 -19v-109c0 -10 -8 -19 -19 -19h-143v-209h87c11 0 19 -9 19 -19v-18c0 -10 -8 -18 -19 -18h-87v-270c0 -10 -9 -19 -19 -19h-120
c-10 0 -19 9 -19 19z" />
    <glyph glyph-name="Thorn" unicode="&#xde;" horiz-adv-x="586" 
d="M86 19v662c0 10 8 19 19 19h118c10 0 19 -9 19 -19v-108h104c123 0 224 -100 224 -221c0 -124 -101 -225 -223 -225h-105v-108c0 -10 -9 -19 -19 -19h-118c-11 0 -19 9 -19 19zM242 273h95c43 0 79 34 79 79c0 42 -36 74 -79 74h-95v-153z" />
    <glyph glyph-name="Ugrave" unicode="&#xd9;" horiz-adv-x="722" 
d="M76 268v413c0 10 9 19 19 19h123c11 0 19 -9 19 -19v-405c0 -70 52 -126 123 -126c72 0 125 56 125 126v405c0 10 8 19 19 19h123c10 0 19 -9 19 -19v-413c0 -152 -128 -278 -286 -278c-157 0 -284 126 -284 278zM432 762l-182 82c-8 5 -14 15 -6 30l34 59c5 9 20 7 26 3
l170 -104c5 -4 10 -11 6 -19l-21 -42c-5 -10 -14 -17 -27 -9z" />
    <glyph glyph-name="Uacute" unicode="&#xda;" horiz-adv-x="722" 
d="M76 268v413c0 10 9 19 19 19h123c11 0 19 -9 19 -19v-405c0 -70 52 -126 123 -126c72 0 125 56 125 126v405c0 10 8 19 19 19h123c10 0 19 -9 19 -19v-413c0 -152 -128 -278 -286 -278c-157 0 -284 126 -284 278zM290 762c-13 -8 -22 -1 -27 9l-21 42c-4 8 1 15 6 19
l170 104c6 4 21 6 26 -3l34 -59c8 -15 2 -25 -6 -30z" />
    <glyph glyph-name="Ucircumflex" unicode="&#xdb;" horiz-adv-x="722" 
d="M76 268v413c0 10 9 19 19 19h123c11 0 19 -9 19 -19v-405c0 -70 52 -126 123 -126c72 0 125 56 125 126v405c0 10 8 19 19 19h123c10 0 19 -9 19 -19v-413c0 -152 -128 -278 -286 -278c-157 0 -284 126 -284 278zM261 762c-11 -6 -16 -4 -22 4l-33 47c-5 7 1 15 6 19
l135 104c8 6 18 4 24 0l138 -104c5 -4 10 -11 6 -19l-34 -46c-5 -7 -14 -9 -21 -5l-99 58z" />
    <glyph glyph-name="Utilde" unicode="&#x168;" horiz-adv-x="722" 
d="M76 268v413c0 10 9 19 19 19h123c11 0 19 -9 19 -19v-405c0 -70 52 -126 123 -126c72 0 125 56 125 126v405c0 10 8 19 19 19h123c10 0 19 -9 19 -19v-413c0 -152 -128 -278 -286 -278c-157 0 -284 126 -284 278zM244 785l-35 28c-7 5 -9 16 -6 23c10 18 53 84 107 84
c48 0 69 -47 108 -47c16 0 31 20 38 31c5 8 15 11 25 2l34 -26c8 -6 9 -17 1 -29c-10 -17 -47 -78 -100 -78c-52 0 -76 48 -110 48c-18 0 -31 -25 -40 -35c-6 -6 -13 -7 -22 -1z" />
    <glyph glyph-name="Udieresis" unicode="&#xdc;" horiz-adv-x="722" 
d="M76 268v413c0 10 9 19 19 19h123c11 0 19 -9 19 -19v-405c0 -70 52 -126 123 -126c72 0 125 56 125 126v405c0 10 8 19 19 19h123c10 0 19 -9 19 -19v-413c0 -152 -128 -278 -286 -278c-157 0 -284 126 -284 278zM492 768c-39 0 -70 32 -70 71s31 70 70 70s71 -31 71 -70
s-32 -71 -71 -71zM227 768c-39 0 -70 32 -70 71s31 70 70 70s71 -31 71 -70s-32 -71 -71 -71z" />
    <glyph glyph-name="Umacron" unicode="&#x16a;" horiz-adv-x="722" 
d="M76 268v413c0 10 9 19 19 19h123c11 0 19 -9 19 -19v-405c0 -70 52 -126 123 -126c72 0 125 56 125 126v405c0 10 8 19 19 19h123c10 0 19 -9 19 -19v-413c0 -152 -128 -278 -286 -278c-157 0 -284 126 -284 278zM233 801c-11 0 -19 8 -19 18v41c0 11 8 19 19 19h256
c11 0 19 -8 19 -19v-41c0 -10 -8 -18 -19 -18h-256z" />
    <glyph glyph-name="Ubreve" unicode="&#x16c;" horiz-adv-x="722" 
d="M76 268v413c0 10 9 19 19 19h123c11 0 19 -9 19 -19v-405c0 -70 52 -126 123 -126c72 0 125 56 125 126v405c0 10 8 19 19 19h123c10 0 19 -9 19 -19v-413c0 -152 -128 -278 -286 -278c-157 0 -284 126 -284 278zM361 763c-74 0 -132 52 -142 120c-2 12 6 22 19 22h45
c8 0 15 -6 17 -12c9 -27 32 -48 61 -48c26 0 50 24 59 48c2 7 10 12 17 12h47c12 0 20 -10 19 -22c-11 -68 -69 -120 -142 -120z" />
    <glyph glyph-name="Uring" unicode="&#x16e;" horiz-adv-x="722" 
d="M76 268v413c0 10 9 19 19 19h123c11 0 19 -9 19 -19v-405c0 -70 52 -126 123 -126c72 0 125 56 125 126v405c0 10 8 19 19 19h123c10 0 19 -9 19 -19v-413c0 -152 -128 -278 -286 -278c-157 0 -284 126 -284 278zM361 752c-64 0 -115 51 -115 115s51 115 115 115
c63 0 115 -51 115 -115s-52 -115 -115 -115zM361 823c23 0 43 21 43 44s-20 43 -43 43s-44 -20 -44 -43s21 -44 44 -44z" />
    <glyph glyph-name="Uhungarumlaut" unicode="&#x170;" horiz-adv-x="722" 
d="M76 268v413c0 10 9 19 19 19h123c11 0 19 -9 19 -19v-405c0 -70 52 -126 123 -126c72 0 125 56 125 126v405c0 10 8 19 19 19h123c10 0 19 -9 19 -19v-413c0 -152 -128 -278 -286 -278c-157 0 -284 126 -284 278zM422 768c-10 0 -22 9 -19 19l30 141c3 10 9 19 19 19h94
c19 0 26 -13 18 -25l-78 -139c-5 -7 -11 -15 -18 -15h-46zM256 768c-10 0 -22 9 -19 19l30 141c3 10 9 19 19 19h94c19 0 25 -12 18 -25l-78 -139c-4 -8 -11 -15 -18 -15h-46z" />
    <glyph glyph-name="Uogonek" unicode="&#x172;" horiz-adv-x="727" 
d="M79 268v413c0 10 9 19 19 19h123c11 0 19 -9 19 -19v-405c0 -70 52 -126 123 -126c72 0 125 56 125 126v405c0 10 8 19 19 19h123c10 0 19 -9 19 -19v-413c0 -143 -114 -263 -259 -276c-17 -20 -37 -51 -37 -87s21 -67 70 -67c17 0 30 4 41 6c13 2 22 -7 22 -19v-33
c0 -9 -7 -17 -15 -19c0 0 -35 -8 -63 -8c-76 0 -138 36 -138 114c0 52 27 92 49 114c-136 21 -240 137 -240 275z" />
    <glyph glyph-name="Wacute" unicode="&#x1e82;" horiz-adv-x="896" 
d="M213 4l-189 672c-4 14 4 24 18 24h117c8 0 16 -7 18 -14l86 -339h4l155 352c3 6 9 11 17 11h18c9 0 15 -5 17 -11l155 -352h4l86 339c2 7 10 14 18 14h117c14 0 22 -10 18 -24l-189 -672c-2 -8 -10 -14 -18 -14h-16c-7 0 -14 5 -17 11l-183 409h-3l-182 -409
c-3 -6 -10 -11 -17 -11h-16c-8 0 -16 6 -18 14zM375 762c-13 -8 -22 -1 -27 9l-21 42c-4 8 1 15 6 19l170 104c6 4 21 6 26 -3l34 -59c8 -15 2 -25 -6 -30z" />
    <glyph glyph-name="Wcircumflex" unicode="&#x174;" horiz-adv-x="896" 
d="M213 4l-189 672c-4 14 4 24 18 24h117c8 0 16 -7 18 -14l86 -339h4l155 352c3 6 9 11 17 11h18c9 0 15 -5 17 -11l155 -352h4l86 339c2 7 10 14 18 14h117c14 0 22 -10 18 -24l-189 -672c-2 -8 -10 -14 -18 -14h-16c-7 0 -14 5 -17 11l-183 409h-3l-182 -409
c-3 -6 -10 -11 -17 -11h-16c-8 0 -16 6 -18 14zM347 762c-11 -6 -16 -4 -22 4l-33 47c-5 7 1 15 6 19l135 104c8 6 18 4 24 0l138 -104c5 -4 10 -11 6 -19l-34 -46c-5 -7 -14 -9 -21 -5l-99 58z" />
    <glyph glyph-name="Wdieresis" unicode="&#x1e84;" horiz-adv-x="896" 
d="M213 4l-189 672c-4 14 4 24 18 24h117c8 0 16 -7 18 -14l86 -339h4l155 352c3 6 9 11 17 11h18c9 0 15 -5 17 -11l155 -352h4l86 339c2 7 10 14 18 14h117c14 0 22 -10 18 -24l-189 -672c-2 -8 -10 -14 -18 -14h-16c-7 0 -14 5 -17 11l-183 409h-3l-182 -409
c-3 -6 -10 -11 -17 -11h-16c-8 0 -16 6 -18 14zM578 768c-39 0 -70 32 -70 71s31 70 70 70s71 -31 71 -70s-32 -71 -71 -71zM313 768c-39 0 -70 32 -70 71s31 70 70 70s71 -31 71 -70s-32 -71 -71 -71z" />
    <glyph glyph-name="Wgrave" unicode="&#x1e80;" horiz-adv-x="896" 
d="M213 4l-189 672c-4 14 4 24 18 24h117c8 0 16 -7 18 -14l86 -339h4l155 352c3 6 9 11 17 11h18c9 0 15 -5 17 -11l155 -352h4l86 339c2 7 10 14 18 14h117c14 0 22 -10 18 -24l-189 -672c-2 -8 -10 -14 -18 -14h-16c-7 0 -14 5 -17 11l-183 409h-3l-182 -409
c-3 -6 -10 -11 -17 -11h-16c-8 0 -16 6 -18 14zM518 762l-182 82c-8 5 -14 15 -6 30l34 59c5 9 20 7 26 3l170 -104c5 -4 10 -11 6 -19l-21 -42c-5 -10 -14 -17 -27 -9z" />
    <glyph glyph-name="Yacute" unicode="&#xdd;" horiz-adv-x="590" 
d="M215 19v318l-221 334c-8 13 0 29 16 29h130c8 0 13 -5 16 -9l139 -205l139 205c3 4 7 9 16 9h130c16 0 24 -16 16 -29l-224 -333v-319c0 -10 -9 -19 -19 -19h-119c-11 0 -19 9 -19 19zM224 762c-13 -8 -22 -1 -27 9l-21 42c-4 8 1 15 6 19l170 104c6 4 21 6 26 -3l34 -59
c8 -15 2 -25 -6 -30z" />
    <glyph glyph-name="Ycircumflex" unicode="&#x176;" horiz-adv-x="590" 
d="M215 19v318l-221 334c-8 13 0 29 16 29h130c8 0 13 -5 16 -9l139 -205l139 205c3 4 7 9 16 9h130c16 0 24 -16 16 -29l-224 -333v-319c0 -10 -9 -19 -19 -19h-119c-11 0 -19 9 -19 19zM196 762c-11 -6 -16 -4 -22 4l-33 47c-5 7 1 15 6 19l135 104c8 6 18 4 24 0
l138 -104c5 -4 10 -11 6 -19l-34 -46c-5 -7 -14 -9 -21 -5l-99 58z" />
    <glyph glyph-name="Ydieresis" unicode="&#x178;" horiz-adv-x="590" 
d="M215 19v318l-221 334c-8 13 0 29 16 29h130c8 0 13 -5 16 -9l139 -205l139 205c3 4 7 9 16 9h130c16 0 24 -16 16 -29l-224 -333v-319c0 -10 -9 -19 -19 -19h-119c-11 0 -19 9 -19 19zM427 768c-39 0 -70 32 -70 71s31 70 70 70s71 -31 71 -70s-32 -71 -71 -71zM162 768
c-39 0 -70 32 -70 71s31 70 70 70s71 -31 71 -70s-32 -71 -71 -71z" />
    <glyph glyph-name="Ygrave" unicode="&#x1ef2;" horiz-adv-x="590" 
d="M215 19v318l-221 334c-8 13 0 29 16 29h130c8 0 13 -5 16 -9l139 -205l139 205c3 4 7 9 16 9h130c16 0 24 -16 16 -29l-224 -333v-319c0 -10 -9 -19 -19 -19h-119c-11 0 -19 9 -19 19zM366 762l-182 82c-8 5 -14 15 -6 30l34 59c5 9 20 7 26 3l170 -104
c5 -4 10 -11 6 -19l-21 -42c-5 -10 -14 -17 -27 -9z" />
    <glyph glyph-name="Zacute" unicode="&#x179;" horiz-adv-x="542" 
d="M23 19v18l266 514v2h-218c-10 0 -19 9 -19 19v109c0 10 9 19 19 19h425c10 0 19 -9 19 -19v-13l-257 -519v-2h218c11 0 19 -9 19 -19v-109c0 -10 -8 -19 -19 -19h-434c-10 0 -19 9 -19 19zM208 762c-13 -8 -22 -1 -27 9l-21 42c-4 8 1 15 6 19l170 104c6 4 21 6 26 -3
l34 -59c8 -15 2 -25 -6 -30z" />
    <glyph glyph-name="Zcaron" unicode="&#x17d;" horiz-adv-x="542" 
d="M23 19v18l266 514v2h-218c-10 0 -19 9 -19 19v109c0 10 9 19 19 19h425c10 0 19 -9 19 -19v-13l-257 -519v-2h218c11 0 19 -9 19 -19v-109c0 -10 -8 -19 -19 -19h-434c-10 0 -19 9 -19 19zM268 762l-138 104c-5 4 -10 11 -6 19l34 46c5 7 14 9 21 5l99 -58l100 58
c11 6 16 4 22 -4l33 -47c5 -7 -1 -15 -6 -19l-135 -104c-8 -6 -18 -4 -24 0z" />
    <glyph glyph-name="Zdotaccent" unicode="&#x17b;" horiz-adv-x="542" 
d="M23 19v18l266 514v2h-218c-10 0 -19 9 -19 19v109c0 10 9 19 19 19h425c10 0 19 -9 19 -19v-13l-257 -519v-2h218c11 0 19 -9 19 -19v-109c0 -10 -8 -19 -19 -19h-434c-10 0 -19 9 -19 19zM279 774c-44 0 -79 35 -79 79s35 80 79 80s80 -36 80 -80s-36 -79 -80 -79z" />
    <glyph glyph-name="agrave" unicode="&#xe0;" horiz-adv-x="429" 
d="M27 122c0 77 56 134 147 134c45 0 77 -16 77 -16c0 39 -6 59 -54 59c-27 0 -74 -7 -100 -15c-15 -5 -22 6 -24 21l-9 63c-3 17 6 24 15 27s79 15 133 15c124 0 169 -52 169 -170v-221c0 -10 -9 -19 -19 -19h-44c-6 0 -13 2 -18 13l-14 27c-23 -21 -58 -50 -121 -50
c-79 0 -138 53 -138 132zM157 132c0 -24 19 -44 43 -44s44 20 44 44c-1 23 -20 42 -44 42s-43 -19 -43 -42zM300 512l-182 82c-8 5 -14 15 -6 30l34 59c5 9 20 7 26 3l170 -104c5 -4 10 -11 6 -19l-21 -42c-5 -10 -14 -17 -27 -9z" />
    <glyph glyph-name="aacute" unicode="&#xe1;" horiz-adv-x="429" 
d="M27 122c0 77 56 134 147 134c45 0 77 -16 77 -16c0 39 -6 59 -54 59c-27 0 -74 -7 -100 -15c-15 -5 -22 6 -24 21l-9 63c-3 17 6 24 15 27s79 15 133 15c124 0 169 -52 169 -170v-221c0 -10 -9 -19 -19 -19h-44c-6 0 -13 2 -18 13l-14 27c-23 -21 -58 -50 -121 -50
c-79 0 -138 53 -138 132zM157 132c0 -24 19 -44 43 -44s44 20 44 44c-1 23 -20 42 -44 42s-43 -19 -43 -42zM148 512c-13 -8 -22 -1 -27 9l-21 42c-4 8 1 15 6 19l170 104c6 4 21 6 26 -3l34 -59c8 -15 2 -25 -6 -30z" />
    <glyph glyph-name="acircumflex" unicode="&#xe2;" horiz-adv-x="429" 
d="M27 122c0 77 56 134 147 134c45 0 77 -16 77 -16c0 39 -6 59 -54 59c-27 0 -74 -7 -100 -15c-15 -5 -22 6 -24 21l-9 63c-3 17 6 24 15 27s79 15 133 15c124 0 169 -52 169 -170v-221c0 -10 -9 -19 -19 -19h-44c-6 0 -13 2 -18 13l-14 27c-23 -21 -58 -50 -121 -50
c-79 0 -138 53 -138 132zM157 132c0 -24 19 -44 43 -44s44 20 44 44c-1 23 -20 42 -44 42s-43 -19 -43 -42zM120 512c-11 -6 -16 -4 -22 4l-33 47c-5 7 1 15 6 19l135 104c8 6 18 4 24 0l138 -104c5 -4 10 -11 6 -19l-34 -46c-5 -7 -14 -9 -21 -5l-99 58z" />
    <glyph glyph-name="atilde" unicode="&#xe3;" horiz-adv-x="429" 
d="M27 122c0 77 56 134 147 134c45 0 77 -16 77 -16c0 39 -6 59 -54 59c-27 0 -74 -7 -100 -15c-15 -5 -22 6 -24 21l-9 63c-3 17 6 24 15 27s79 15 133 15c124 0 169 -52 169 -170v-221c0 -10 -9 -19 -19 -19h-44c-6 0 -13 2 -18 13l-14 27c-23 -21 -58 -50 -121 -50
c-79 0 -138 53 -138 132zM157 132c0 -24 19 -44 43 -44s44 20 44 44c-1 23 -20 42 -44 42s-43 -19 -43 -42zM95 555l-35 28c-7 5 -9 16 -6 23c10 18 53 84 107 84c48 0 69 -47 108 -47c16 0 31 20 38 31c5 8 15 11 25 2l34 -26c8 -6 9 -17 1 -29c-10 -17 -47 -78 -100 -78
c-52 0 -76 48 -110 48c-18 0 -31 -25 -40 -35c-6 -6 -13 -7 -22 -1z" />
    <glyph glyph-name="adieresis" unicode="&#xe4;" horiz-adv-x="429" 
d="M27 122c0 77 56 134 147 134c45 0 77 -16 77 -16c0 39 -6 59 -54 59c-27 0 -74 -7 -100 -15c-15 -5 -22 6 -24 21l-9 63c-3 17 6 24 15 27s79 15 133 15c124 0 169 -52 169 -170v-221c0 -10 -9 -19 -19 -19h-44c-6 0 -13 2 -18 13l-14 27c-23 -21 -58 -50 -121 -50
c-79 0 -138 53 -138 132zM157 132c0 -24 19 -44 43 -44s44 20 44 44c-1 23 -20 42 -44 42s-43 -19 -43 -42zM321 535c-39 0 -70 32 -70 71s31 70 70 70s71 -31 71 -70s-32 -71 -71 -71zM116 535c-39 0 -70 32 -70 71s31 70 70 70s71 -31 71 -70s-32 -71 -71 -71z" />
    <glyph glyph-name="amacron" unicode="&#x101;" horiz-adv-x="429" 
d="M27 122c0 77 56 134 147 134c45 0 77 -16 77 -16c0 39 -6 59 -54 59c-27 0 -74 -7 -100 -15c-15 -5 -22 6 -24 21l-9 63c-3 17 6 24 15 27s79 15 133 15c124 0 169 -52 169 -170v-221c0 -10 -9 -19 -19 -19h-44c-6 0 -13 2 -18 13l-14 27c-23 -21 -58 -50 -121 -50
c-79 0 -138 53 -138 132zM157 132c0 -24 19 -44 43 -44s44 20 44 44c-1 23 -20 42 -44 42s-43 -19 -43 -42zM91 563c-11 0 -19 8 -19 18v41c0 11 8 19 19 19h256c11 0 19 -8 19 -19v-41c0 -10 -8 -18 -19 -18h-256z" />
    <glyph glyph-name="abreve" unicode="&#x103;" horiz-adv-x="429" 
d="M27 122c0 77 56 134 147 134c45 0 77 -16 77 -16c0 39 -6 59 -54 59c-27 0 -74 -7 -100 -15c-15 -5 -22 6 -24 21l-9 63c-3 17 6 24 15 27s79 15 133 15c124 0 169 -52 169 -170v-221c0 -10 -9 -19 -19 -19h-44c-6 0 -13 2 -18 13l-14 27c-23 -21 -58 -50 -121 -50
c-79 0 -138 53 -138 132zM157 132c0 -24 19 -44 43 -44s44 20 44 44c-1 23 -20 42 -44 42s-43 -19 -43 -42zM219 527c-74 0 -132 52 -142 120c-2 12 6 22 19 22h45c8 0 15 -6 17 -12c9 -27 32 -48 61 -48c26 0 50 24 59 48c2 7 10 12 17 12h47c12 0 20 -10 19 -22
c-11 -68 -69 -120 -142 -120z" />
    <glyph glyph-name="aring" unicode="&#xe5;" horiz-adv-x="429" 
d="M27 122c0 77 56 134 147 134c45 0 77 -16 77 -16c0 39 -6 59 -54 59c-27 0 -74 -7 -100 -15c-15 -5 -22 6 -24 21l-9 63c-3 17 6 24 15 27s79 15 133 15c124 0 169 -52 169 -170v-221c0 -10 -9 -19 -19 -19h-44c-6 0 -13 2 -18 13l-14 27c-23 -21 -58 -50 -121 -50
c-79 0 -138 53 -138 132zM157 132c0 -24 19 -44 43 -44s44 20 44 44c-1 23 -20 42 -44 42s-43 -19 -43 -42zM219 480c-64 0 -115 51 -115 115s51 115 115 115c63 0 115 -51 115 -115s-52 -115 -115 -115zM219 551c23 0 43 21 43 44s-20 43 -43 43s-44 -20 -44 -43
s21 -44 44 -44z" />
    <glyph glyph-name="aringacute" unicode="&#x1fb;" horiz-adv-x="429" 
d="M27 122c0 77 56 134 147 134c45 0 77 -16 77 -16c0 39 -6 59 -54 59c-27 0 -74 -7 -100 -15c-15 -5 -22 6 -24 21l-9 63c-3 17 6 24 15 27s79 15 133 15c124 0 169 -52 169 -170v-221c0 -10 -9 -19 -19 -19h-44c-6 0 -13 2 -18 13l-14 27c-23 -21 -58 -50 -121 -50
c-79 0 -138 53 -138 132zM157 132c0 -24 19 -44 43 -44s44 20 44 44c-1 23 -20 42 -44 42s-43 -19 -43 -42zM219 429c-64 0 -115 51 -115 115s51 115 115 115c63 0 115 -51 115 -115s-52 -115 -115 -115zM219 500c23 0 43 21 43 44s-20 43 -43 43s-44 -20 -44 -43
s21 -44 44 -44zM148 661c-13 -8 -22 -1 -27 9l-21 42c-4 8 1 15 6 19l170 104c6 4 21 6 26 -3l34 -59c8 -15 2 -25 -6 -30z" />
    <glyph glyph-name="aogonek" unicode="&#x105;" horiz-adv-x="429" 
d="M27 122c0 77 56 134 147 134c45 0 77 -16 77 -16c0 43 -6 62 -54 62c-27 0 -74 -7 -100 -12c-15 -3 -22 6 -24 21l-9 57c-3 17 6 24 15 27s79 15 133 15c124 0 169 -52 169 -170v-221c0 -10 -9 -19 -19 -19h-5c-18 -18 -45 -53 -45 -95c0 -36 21 -67 70 -67
c17 0 30 4 41 6c13 2 22 -7 22 -19v-33c0 -9 -7 -17 -15 -19c0 0 -35 -8 -63 -8c-76 0 -138 36 -138 114c0 79 63 129 71 134l-14 27c-23 -21 -58 -50 -121 -50c-79 0 -138 53 -138 132zM157 132c0 -24 19 -44 43 -44s44 20 44 44c-1 23 -20 42 -44 42s-43 -19 -43 -42z" />
    <glyph glyph-name="ae" unicode="&#xe6;" horiz-adv-x="661" 
d="M26 123c0 74 54 133 149 133c40 0 76 -16 76 -16c1 45 -13 62 -54 62c-27 0 -74 -7 -100 -12c-10 -1 -21 6 -23 16l-11 69c-1 10 7 19 16 20c0 0 79 15 133 15c61 0 101 -12 126 -35c33 22 72 35 115 35c102 0 190 -78 190 -188c0 -18 0 -44 -21 -44h-240
c3 -27 25 -67 77 -67c25 0 52 12 68 24c7 5 19 7 25 0l52 -59c7 -7 8 -20 1 -27c-37 -37 -87 -59 -150 -59c-59 0 -114 24 -150 65c-12 -15 -61 -65 -140 -65c-84 0 -139 54 -139 133zM395 256h107c-2 26 -27 47 -53 47c-27 0 -50 -21 -54 -47zM157 132c0 -24 19 -44 43 -44
s44 20 44 44c-1 23 -20 42 -44 42s-43 -19 -43 -42z" />
    <glyph glyph-name="aeacute" unicode="&#x1fd;" horiz-adv-x="661" 
d="M26 123c0 74 54 133 149 133c40 0 76 -16 76 -16c1 45 -13 62 -54 62c-27 0 -74 -7 -100 -12c-10 -1 -21 6 -23 16l-11 69c-1 10 7 19 16 20c0 0 79 15 133 15c61 0 101 -12 126 -35c33 22 72 35 115 35c102 0 190 -78 190 -188c0 -18 0 -44 -21 -44h-240
c3 -27 25 -67 77 -67c25 0 52 12 68 24c7 5 19 7 25 0l52 -59c7 -7 8 -20 1 -27c-37 -37 -87 -59 -150 -59c-59 0 -114 24 -150 65c-12 -15 -61 -65 -140 -65c-84 0 -139 54 -139 133zM395 256h107c-2 26 -27 47 -53 47c-27 0 -50 -21 -54 -47zM157 132c0 -24 19 -44 43 -44
s44 20 44 44c-1 23 -20 42 -44 42s-43 -19 -43 -42zM309 512c-13 -8 -22 -1 -27 9l-21 42c-4 8 1 15 6 19l170 104c6 4 21 6 26 -3l34 -59c8 -15 2 -25 -6 -30z" />
    <glyph glyph-name="cacute" unicode="&#x107;" horiz-adv-x="420" 
d="M23 200c0 118 102 210 216 210c63 0 112 -26 150 -72c7 -9 4 -20 -5 -28l-60 -57c-5 -5 -17 -3 -22 2c-14 15 -35 26 -58 26c-44 0 -80 -37 -80 -81c0 -45 34 -81 78 -81c35 0 52 15 68 31c7 7 16 9 22 4l60 -52c9 -8 14 -18 7 -28c-37 -56 -89 -84 -161 -84
c-114 0 -215 90 -215 210zM167 512c-13 -8 -22 -1 -27 9l-21 42c-4 8 1 15 6 19l170 104c6 4 21 6 26 -3l34 -59c8 -15 2 -25 -6 -30z" />
    <glyph glyph-name="ccircumflex" unicode="&#x109;" horiz-adv-x="420" 
d="M23 200c0 118 102 210 216 210c63 0 112 -26 150 -72c7 -9 4 -20 -5 -28l-60 -57c-5 -5 -17 -3 -22 2c-14 15 -35 26 -58 26c-44 0 -80 -37 -80 -81c0 -45 34 -81 78 -81c35 0 52 15 68 31c7 7 16 9 22 4l60 -52c9 -8 14 -18 7 -28c-37 -56 -89 -84 -161 -84
c-114 0 -215 90 -215 210zM139 512c-11 -6 -16 -4 -22 4l-33 47c-5 7 1 15 6 19l135 104c8 6 18 4 24 0l138 -104c5 -4 10 -11 6 -19l-34 -46c-5 -7 -14 -9 -21 -5l-99 58z" />
    <glyph glyph-name="ccaron" unicode="&#x10d;" horiz-adv-x="420" 
d="M23 200c0 118 102 210 216 210c63 0 112 -26 150 -72c7 -9 4 -20 -5 -28l-60 -57c-5 -5 -17 -3 -22 2c-14 15 -35 26 -58 26c-44 0 -80 -37 -80 -81c0 -45 34 -81 78 -81c35 0 52 15 68 31c7 7 16 9 22 4l60 -52c9 -8 14 -18 7 -28c-37 -56 -89 -84 -161 -84
c-114 0 -215 90 -215 210zM227 512l-138 104c-5 4 -10 11 -6 19l34 46c5 7 14 9 21 5l99 -58l100 58c11 6 16 4 22 -4l33 -47c5 -7 -1 -15 -6 -19l-135 -104c-8 -6 -18 -4 -24 0z" />
    <glyph glyph-name="cdotaccent" unicode="&#x10b;" horiz-adv-x="420" 
d="M23 200c0 118 102 210 216 210c63 0 112 -26 150 -72c7 -9 4 -20 -5 -28l-60 -57c-5 -5 -17 -3 -22 2c-14 15 -35 26 -58 26c-44 0 -80 -37 -80 -81c0 -45 34 -81 78 -81c35 0 52 15 68 31c7 7 16 9 22 4l60 -52c9 -8 14 -18 7 -28c-37 -56 -89 -84 -161 -84
c-114 0 -215 90 -215 210zM238 521c-44 0 -79 35 -79 79s35 80 79 80s80 -36 80 -80s-36 -79 -80 -79z" />
    <glyph glyph-name="ccedilla" unicode="&#xe7;" horiz-adv-x="421" 
d="M170 1c-83 28 -146 104 -146 199c0 118 102 210 216 210c63 0 112 -26 150 -72c7 -9 4 -20 -5 -28l-60 -57c-5 -5 -17 -3 -22 2c-14 15 -35 26 -58 26c-44 0 -80 -37 -80 -81c0 -45 34 -81 78 -81c35 0 52 15 68 31c7 7 16 9 22 4l60 -52c9 -8 14 -18 7 -28
c-37 -55 -87 -83 -157 -84v-43c61 -8 92 -48 92 -102c0 -58 -47 -106 -106 -106c-30 0 -59 15 -76 35c-8 9 -6 20 4 29l23 20c6 6 16 4 21 -2c5 -7 16 -9 24 -9c16 0 30 16 30 32c0 14 -7 39 -68 42c-15 2 -17 13 -17 18v97z" />
    <glyph glyph-name="dcaron" unicode="&#x10f;" horiz-adv-x="550" 
d="M25 200c0 141 92 210 199 210c34 0 71 -12 83 -19v290c0 10 9 19 19 19h111c10 0 19 -9 19 -19v-662c0 -10 -9 -19 -19 -19h-47c-10 0 -17 9 -21 20l-12 33s-46 -63 -134 -63c-113 0 -198 95 -198 210zM162 201c0 -46 35 -82 81 -82s80 36 80 82c0 45 -34 80 -80 80
s-81 -35 -81 -80zM581 417l-15 15c-7 8 -5 17 1 22c11 8 70 52 71 120c0 0 -17 -7 -40 -7c-39 0 -72 31 -72 71c0 39 33 72 79 72c38 0 91 -29 91 -116c0 -105 -70 -160 -93 -179c-7 -5 -14 -7 -22 2z" />
    <glyph glyph-name="dcroat" unicode="&#x111;" 
d="M25 200c0 141 92 210 199 210c34 0 71 -12 83 -19v140h-96c-11 0 -19 8 -19 18v18c0 10 8 19 19 19h96v95c0 10 9 19 19 19h111c10 0 19 -9 19 -19v-95h32c10 0 18 -9 18 -19v-17c0 -10 -8 -19 -18 -19h-32v-512c0 -10 -9 -19 -19 -19h-47c-10 0 -17 9 -21 20l-12 33
s-46 -63 -134 -63c-113 0 -198 95 -198 210zM164 200c0 -45 35 -80 80 -80s79 35 79 80c0 44 -34 79 -79 79s-80 -35 -80 -79z" />
    <glyph glyph-name="eth" unicode="&#xf0;" horiz-adv-x="523" 
d="M24 219c0 146 105 217 199 217c28 0 69 -9 95 -20c-11 51 -48 88 -89 114l-77 -44c-10 -6 -20 -3 -25 6l-9 15c-5 9 -3 21 6 26l47 27c-15 9 -49 21 -61 24c-14 4 -17 12 -12 25l29 77c5 13 17 20 38 13c18 -6 72 -30 128 -69l71 42c9 5 20 1 25 -8l9 -14
c5 -9 3 -21 -6 -26l-52 -30c81 -70 154 -177 154 -332c0 -156 -86 -272 -241 -272c-125 0 -229 103 -229 229zM159 224c0 -52 43 -96 96 -96s96 44 96 96c0 53 -43 97 -96 97s-96 -44 -96 -97z" />
    <glyph glyph-name="egrave" unicode="&#xe8;" horiz-adv-x="439" 
d="M24 200c0 113 89 210 207 210c102 0 190 -78 190 -188c0 -7 -1 -20 -2 -27c-1 -10 -10 -17 -19 -17h-240c3 -27 25 -66 77 -66c25 0 54 12 70 24c9 7 19 7 25 0l50 -60c6 -8 8 -20 -1 -29c-35 -35 -85 -57 -148 -57c-119 0 -209 95 -209 210zM173 256h107
c-2 26 -27 47 -53 47c-27 0 -50 -21 -54 -47zM314 512l-182 82c-8 5 -14 15 -6 30l34 59c5 9 20 7 26 3l170 -104c5 -4 10 -11 6 -19l-21 -42c-5 -10 -14 -17 -27 -9z" />
    <glyph glyph-name="eacute" unicode="&#xe9;" horiz-adv-x="439" 
d="M24 200c0 113 89 210 207 210c102 0 190 -78 190 -188c0 -7 -1 -20 -2 -27c-1 -10 -10 -17 -19 -17h-240c3 -27 25 -66 77 -66c25 0 54 12 70 24c9 7 19 7 25 0l50 -60c6 -8 8 -20 -1 -29c-35 -35 -85 -57 -148 -57c-119 0 -209 95 -209 210zM173 256h107
c-2 26 -27 47 -53 47c-27 0 -50 -21 -54 -47zM162 512c-13 -8 -22 -1 -27 9l-21 42c-4 8 1 15 6 19l170 104c6 4 21 6 26 -3l34 -59c8 -15 2 -25 -6 -30z" />
    <glyph glyph-name="ecircumflex" unicode="&#xea;" horiz-adv-x="439" 
d="M24 200c0 113 89 210 207 210c102 0 190 -78 190 -188c0 -7 -1 -20 -2 -27c-1 -10 -10 -17 -19 -17h-240c3 -27 25 -66 77 -66c25 0 54 12 70 24c9 7 19 7 25 0l50 -60c6 -8 8 -20 -1 -29c-35 -35 -85 -57 -148 -57c-119 0 -209 95 -209 210zM173 256h107
c-2 26 -27 47 -53 47c-27 0 -50 -21 -54 -47zM134 512c-11 -6 -16 -4 -22 4l-33 47c-5 7 1 15 6 19l135 104c8 6 18 4 24 0l138 -104c5 -4 10 -11 6 -19l-34 -46c-5 -7 -14 -9 -21 -5l-99 58z" />
    <glyph glyph-name="ecaron" unicode="&#x11b;" horiz-adv-x="439" 
d="M24 200c0 113 89 210 207 210c102 0 190 -78 190 -188c0 -7 -1 -20 -2 -27c-1 -10 -10 -17 -19 -17h-240c3 -27 25 -66 77 -66c25 0 54 12 70 24c9 7 19 7 25 0l50 -60c6 -8 8 -20 -1 -29c-35 -35 -85 -57 -148 -57c-119 0 -209 95 -209 210zM173 256h107
c-2 26 -27 47 -53 47c-27 0 -50 -21 -54 -47zM222 512l-138 104c-5 4 -10 11 -6 19l34 46c5 7 14 9 21 5l99 -58l100 58c11 6 16 4 22 -4l33 -47c5 -7 -1 -15 -6 -19l-135 -104c-8 -6 -18 -4 -24 0z" />
    <glyph glyph-name="edieresis" unicode="&#xeb;" horiz-adv-x="439" 
d="M24 200c0 113 89 210 207 210c102 0 190 -78 190 -188c0 -7 -1 -20 -2 -27c-1 -10 -10 -17 -19 -17h-240c3 -27 25 -66 77 -66c25 0 54 12 70 24c9 7 19 7 25 0l50 -60c6 -8 8 -20 -1 -29c-35 -35 -85 -57 -148 -57c-119 0 -209 95 -209 210zM173 256h107
c-2 26 -27 47 -53 47c-27 0 -50 -21 -54 -47zM335 535c-39 0 -70 32 -70 71s31 70 70 70s71 -31 71 -70s-32 -71 -71 -71zM130 535c-39 0 -70 32 -70 71s31 70 70 70s71 -31 71 -70s-32 -71 -71 -71z" />
    <glyph glyph-name="emacron" unicode="&#x113;" horiz-adv-x="439" 
d="M24 200c0 113 89 210 207 210c102 0 190 -78 190 -188c0 -7 -1 -20 -2 -27c-1 -10 -10 -17 -19 -17h-240c3 -27 25 -66 77 -66c25 0 54 12 70 24c9 7 19 7 25 0l50 -60c6 -8 8 -20 -1 -29c-35 -35 -85 -57 -148 -57c-119 0 -209 95 -209 210zM173 256h107
c-2 26 -27 47 -53 47c-27 0 -50 -21 -54 -47zM105 563c-11 0 -19 8 -19 18v41c0 11 8 19 19 19h256c11 0 19 -8 19 -19v-41c0 -10 -8 -18 -19 -18h-256z" />
    <glyph glyph-name="ebreve" unicode="&#x115;" horiz-adv-x="439" 
d="M24 200c0 113 89 210 207 210c102 0 190 -78 190 -188c0 -7 -1 -20 -2 -27c-1 -10 -10 -17 -19 -17h-240c3 -27 25 -66 77 -66c25 0 54 12 70 24c9 7 19 7 25 0l50 -60c6 -8 8 -20 -1 -29c-35 -35 -85 -57 -148 -57c-119 0 -209 95 -209 210zM173 256h107
c-2 26 -27 47 -53 47c-27 0 -50 -21 -54 -47zM233 527c-74 0 -132 52 -142 120c-2 12 6 22 19 22h45c8 0 15 -6 17 -12c9 -27 32 -48 61 -48c26 0 50 24 59 48c2 7 10 12 17 12h47c12 0 20 -10 19 -22c-11 -68 -69 -120 -142 -120z" />
    <glyph glyph-name="edotaccent" unicode="&#x117;" horiz-adv-x="439" 
d="M24 200c0 113 89 210 207 210c102 0 190 -78 190 -188c0 -7 -1 -20 -2 -27c-1 -10 -10 -17 -19 -17h-240c3 -27 25 -66 77 -66c25 0 54 12 70 24c9 7 19 7 25 0l50 -60c6 -8 8 -20 -1 -29c-35 -35 -85 -57 -148 -57c-119 0 -209 95 -209 210zM173 256h107
c-2 26 -27 47 -53 47c-27 0 -50 -21 -54 -47zM233 521c-44 0 -79 35 -79 79s35 80 79 80s80 -36 80 -80s-36 -79 -80 -79z" />
    <glyph glyph-name="eogonek" unicode="&#x119;" horiz-adv-x="441" 
d="M134 -121c0 54 29 94 51 117c-94 21 -160 105 -160 204c0 113 89 210 207 210c102 0 190 -78 190 -188c0 -7 -1 -20 -2 -27c-1 -10 -10 -17 -19 -17h-240c3 -27 25 -67 77 -67c25 0 52 12 68 24c7 5 19 7 25 0c20 -22 31 -38 52 -59c7 -7 8 -20 1 -27
c-33 -33 -77 -54 -131 -58c-17 -20 -36 -50 -36 -86s21 -67 70 -67c17 0 30 4 41 6c13 2 22 -7 22 -19v-33c0 -9 -7 -17 -15 -19c0 0 -35 -8 -63 -8c-76 0 -138 36 -138 114zM174 256h107c-2 26 -27 47 -53 47c-27 0 -50 -21 -54 -47z" />
    <glyph glyph-name="gcircumflex" unicode="&#x11d;" horiz-adv-x="465" 
d="M11 36c0 79 80 110 80 110s-29 30 -29 91c0 93 79 173 176 173h189c11 0 19 -8 19 -19v-41c0 -7 -5 -14 -11 -17l-58 -21s38 -31 38 -97c0 -73 -67 -151 -173 -151h-72c-21 0 -33 -11 -33 -27c0 -19 17 -27 32 -27h120c94 0 172 -57 172 -146c0 -96 -67 -174 -225 -174
c-155 0 -209 73 -209 136c0 60 50 90 61 96v3c-13 4 -77 32 -77 111zM189 228c0 -30 23 -52 53 -52c31 0 53 22 53 52s-22 52 -53 52c-30 0 -53 -22 -53 -52zM164 -146c0 -28 24 -47 72 -47c50 0 72 20 72 47c0 21 -18 42 -72 42c-36 0 -72 -13 -72 -42zM152 512
c-11 -6 -16 -4 -22 4l-33 47c-5 7 1 15 6 19l135 104c8 6 18 4 24 0l138 -104c5 -4 10 -11 6 -19l-34 -46c-5 -7 -14 -9 -21 -5l-99 58z" />
    <glyph glyph-name="gbreve" unicode="&#x11f;" horiz-adv-x="465" 
d="M11 36c0 79 80 110 80 110s-29 30 -29 91c0 93 79 173 176 173h189c11 0 19 -8 19 -19v-41c0 -7 -5 -14 -11 -17l-58 -21s38 -31 38 -97c0 -73 -67 -151 -173 -151h-72c-21 0 -33 -11 -33 -27c0 -19 17 -27 32 -27h120c94 0 172 -57 172 -146c0 -96 -67 -174 -225 -174
c-155 0 -209 73 -209 136c0 60 50 90 61 96v3c-13 4 -77 32 -77 111zM189 228c0 -30 23 -52 53 -52c31 0 53 22 53 52s-22 52 -53 52c-30 0 -53 -22 -53 -52zM164 -146c0 -28 24 -47 72 -47c50 0 72 20 72 47c0 21 -18 42 -72 42c-36 0 -72 -13 -72 -42zM251 527
c-74 0 -132 52 -142 120c-2 12 6 22 19 22h45c8 0 15 -6 17 -12c9 -27 32 -48 61 -48c26 0 50 24 59 48c2 7 10 12 17 12h47c12 0 20 -10 19 -22c-11 -68 -69 -120 -142 -120z" />
    <glyph glyph-name="gdotaccent" unicode="&#x121;" horiz-adv-x="465" 
d="M11 36c0 79 80 110 80 110s-29 30 -29 91c0 93 79 173 176 173h189c11 0 19 -8 19 -19v-41c0 -7 -5 -14 -11 -17l-58 -21s38 -31 38 -97c0 -73 -67 -151 -173 -151h-72c-21 0 -33 -11 -33 -27c0 -19 17 -27 32 -27h120c94 0 172 -57 172 -146c0 -96 -67 -174 -225 -174
c-155 0 -209 73 -209 136c0 60 50 90 61 96v3c-13 4 -77 32 -77 111zM189 228c0 -30 23 -52 53 -52c31 0 53 22 53 52s-22 52 -53 52c-30 0 -53 -22 -53 -52zM164 -146c0 -28 24 -47 72 -47c50 0 72 20 72 47c0 21 -18 42 -72 42c-36 0 -72 -13 -72 -42zM255 521
c-44 0 -79 35 -79 79s35 80 79 80s80 -36 80 -80s-36 -79 -80 -79z" />
    <glyph glyph-name="gcommaaccent" unicode="&#x123;" horiz-adv-x="465" 
d="M257 524c-38 0 -91 29 -91 116c0 105 70 160 93 179c7 5 14 7 22 -2l15 -15c7 -8 5 -17 -1 -22c-11 -8 -70 -52 -71 -120c0 0 17 7 40 7c39 0 72 -31 72 -71c0 -39 -33 -72 -79 -72zM11 36c0 79 80 110 80 110s-29 30 -29 91c0 93 79 173 176 173h189c11 0 19 -8 19 -19
v-41c0 -7 -5 -14 -11 -17l-58 -21s38 -31 38 -97c0 -73 -67 -151 -173 -151h-72c-21 0 -33 -11 -33 -27c0 -19 17 -27 32 -27h120c94 0 172 -57 172 -146c0 -96 -67 -174 -225 -174c-155 0 -209 73 -209 136c0 60 50 90 61 96v3c-13 4 -77 32 -77 111zM189 228
c0 -30 23 -52 53 -52c31 0 53 22 53 52s-22 52 -53 52c-30 0 -53 -22 -53 -52zM164 -146c0 -28 24 -47 72 -47c50 0 72 20 72 47c0 21 -18 42 -72 42c-36 0 -72 -13 -72 -42z" />
    <glyph glyph-name="hcircumflex" unicode="&#x125;" horiz-adv-x="530" 
d="M54 19v662c0 10 9 19 19 19h111c10 0 19 -9 19 -19v-294c30 15 63 23 93 23c126 0 191 -99 191 -210v-181c0 -10 -9 -19 -19 -19h-106c-11 0 -19 9 -19 19v183c0 44 -29 79 -73 79c-32 0 -67 -18 -67 -79v-183c0 -13 -5 -19 -22 -19h-108c-10 0 -19 9 -19 19zM24 729
c-11 -6 -16 -4 -22 4l-33 47c-5 7 1 15 6 19l135 104c8 6 18 4 24 0l138 -104c5 -4 10 -11 6 -19l-34 -46c-5 -7 -14 -9 -21 -5l-99 58z" />
    <glyph glyph-name="hbar" unicode="&#x127;" horiz-adv-x="531" 
d="M54 19v512h-31c-10 0 -18 9 -18 19v17c0 10 8 19 18 19h31v95c0 10 9 19 19 19h111c10 0 19 -9 19 -19v-95h97c11 0 19 -9 19 -19v-18c0 -10 -8 -18 -19 -18h-97v-145c30 14 63 23 93 23c125 0 191 -96 191 -209v-181c0 -10 -9 -19 -19 -19h-106c-11 0 -19 9 -19 19v181
c0 44 -29 79 -73 79c-31 0 -67 -17 -67 -69v-191c0 -14 -8 -19 -22 -19h-108c-10 0 -19 9 -19 19z" />
    <glyph glyph-name="dotlessi" unicode="&#x131;" horiz-adv-x="256" 
d="M54 19v361c0 11 9 19 19 19h110c10 0 19 -8 19 -19v-361c0 -10 -9 -19 -19 -19h-110c-10 0 -19 9 -19 19z" />
    <glyph glyph-name="igrave" unicode="&#xec;" horiz-adv-x="256" 
d="M54 19v361c0 11 9 19 19 19h110c10 0 19 -8 19 -19v-361c0 -10 -9 -19 -19 -19h-110c-10 0 -19 9 -19 19zM199 512l-182 82c-8 5 -14 15 -6 30l34 59c5 9 20 7 26 3l170 -104c5 -4 10 -11 6 -19l-21 -42c-5 -10 -14 -17 -27 -9z" />
    <glyph glyph-name="iacute" unicode="&#xed;" horiz-adv-x="256" 
d="M54 19v361c0 11 9 19 19 19h110c10 0 19 -8 19 -19v-361c0 -10 -9 -19 -19 -19h-110c-10 0 -19 9 -19 19zM57 512c-13 -8 -22 -1 -27 9l-21 42c-4 8 1 15 6 19l170 104c6 4 21 6 26 -3l34 -59c8 -15 2 -25 -6 -30z" />
    <glyph glyph-name="ibreve" unicode="&#x12d;" horiz-adv-x="256" 
d="M54 19v361c0 11 9 19 19 19h110c10 0 19 -8 19 -19v-361c0 -10 -9 -19 -19 -19h-110c-10 0 -19 9 -19 19zM128 527c-74 0 -132 52 -142 120c-2 12 6 22 19 22h45c8 0 15 -6 17 -12c9 -27 32 -48 61 -48c26 0 50 24 59 48c2 7 10 12 17 12h47c12 0 20 -10 19 -22
c-11 -68 -69 -120 -142 -120z" />
    <glyph glyph-name="icircumflex" unicode="&#xee;" horiz-adv-x="256" 
d="M54 19v361c0 11 9 19 19 19h110c10 0 19 -8 19 -19v-361c0 -10 -9 -19 -19 -19h-110c-10 0 -19 9 -19 19zM29 512c-11 -6 -16 -4 -22 4l-33 47c-5 7 1 15 6 19l135 104c8 6 18 4 24 0l138 -104c5 -4 10 -11 6 -19l-34 -46c-5 -7 -14 -9 -21 -5l-99 58z" />
    <glyph glyph-name="itilde" unicode="&#x129;" horiz-adv-x="256" 
d="M54 19v361c0 11 9 19 19 19h110c10 0 19 -8 19 -19v-361c0 -10 -9 -19 -19 -19h-110c-10 0 -19 9 -19 19zM11 555l-35 28c-7 5 -9 16 -6 23c10 18 53 84 107 84c48 0 69 -47 108 -47c16 0 31 20 38 31c5 8 15 11 25 2l34 -26c8 -6 9 -17 1 -29c-10 -17 -47 -78 -100 -78
c-52 0 -76 48 -110 48c-18 0 -31 -25 -40 -35c-6 -6 -13 -7 -22 -1z" />
    <glyph glyph-name="idieresis" unicode="&#xef;" horiz-adv-x="256" 
d="M54 19v361c0 11 9 19 19 19h110c10 0 19 -8 19 -19v-361c0 -10 -9 -19 -19 -19h-110c-10 0 -19 9 -19 19zM230 535c-39 0 -70 32 -70 71s31 70 70 70s71 -31 71 -70s-32 -71 -71 -71zM25 535c-39 0 -70 32 -70 71s31 70 70 70s71 -31 71 -70s-32 -71 -71 -71z" />
    <glyph glyph-name="imacron" unicode="&#x12b;" horiz-adv-x="256" 
d="M54 19v361c0 11 9 19 19 19h110c10 0 19 -8 19 -19v-361c0 -10 -9 -19 -19 -19h-110c-10 0 -19 9 -19 19zM0 563c-11 0 -19 8 -19 18v41c0 11 8 19 19 19h256c11 0 19 -8 19 -19v-41c0 -10 -8 -18 -19 -18h-256z" />
    <glyph glyph-name="iogonek" unicode="&#x12f;" horiz-adv-x="256" 
d="M127 521c-44 0 -79 35 -79 79s35 80 79 80s80 -36 80 -80s-36 -79 -80 -79zM54 19v362c0 11 9 19 19 19h110c10 0 19 -8 19 -19v-362c0 -10 -9 -19 -19 -19h-25c-18 -18 -45 -53 -45 -95c0 -36 21 -67 70 -67c17 0 30 4 41 6c13 2 22 -7 22 -19v-33c0 -9 -7 -17 -15 -19
c0 0 -35 -8 -63 -8c-76 0 -138 36 -138 114c0 58 34 100 55 121h-12c-10 0 -19 9 -19 19z" />
    <glyph glyph-name="dotlessj" unicode="&#x237;" horiz-adv-x="257" 
d="M54 -92v472c0 11 9 19 19 19h111c10 0 19 -8 19 -19v-472c0 -140 -87 -218 -203 -218c-52 0 -105 22 -122 38c-6 5 -8 16 -4 23l42 83c3 7 15 11 23 7c13 -7 32 -16 52 -16c45 0 63 34 63 83z" />
    <glyph glyph-name="jcircumflex" unicode="&#x135;" horiz-adv-x="257" 
d="M54 -92v472c0 11 9 19 19 19h111c10 0 19 -8 19 -19v-472c0 -140 -87 -218 -203 -218c-52 0 -105 22 -122 38c-6 5 -8 16 -4 23l42 83c3 7 15 11 23 7c13 -7 32 -16 52 -16c45 0 63 34 63 83zM30 512c-11 -6 -16 -4 -22 4l-33 47c-5 7 1 15 6 19l135 104c8 6 18 4 24 0
l138 -104c5 -4 10 -11 6 -19l-34 -46c-5 -7 -14 -9 -21 -5l-99 58z" />
    <glyph glyph-name="kcommaaccent" unicode="&#x137;" horiz-adv-x="511" 
d="M54 19v662c0 10 9 19 19 19h111c10 0 19 -9 19 -19v-433l121 140c6 6 13 12 25 12h112c17 0 26 -17 15 -31l-132 -153l160 -186c11 -13 2 -30 -15 -30h-135c-4 0 -12 4 -15 8l-136 174v-163c0 -10 -9 -19 -19 -19h-111c-10 0 -19 9 -19 19zM275 -90c38 0 91 -29 91 -116
c0 -105 -70 -160 -93 -179c-7 -5 -14 -7 -22 2l-15 15c-7 8 -5 17 1 22c11 8 70 52 71 120c0 0 -17 -7 -40 -7c-39 0 -72 31 -72 71c0 39 33 72 79 72z" />
    <glyph glyph-name="kgreenlandic" unicode="&#x138;" horiz-adv-x="513" 
d="M54 19v362c0 10 9 19 19 19h111c10 0 19 -9 19 -19v-153l131 160c6 6 13 12 25 12h112c17 0 26 -17 15 -31l-145 -173l163 -166c11 -13 2 -30 -15 -30h-135c-4 0 -12 4 -15 8l-136 154v-143c0 -10 -9 -19 -19 -19h-111c-10 0 -19 9 -19 19z" />
    <glyph glyph-name="lacute" unicode="&#x13a;" horiz-adv-x="256" 
d="M54 19v662c0 10 9 19 19 19h110c10 0 19 -9 19 -19v-662c0 -10 -9 -19 -19 -19h-110c-10 0 -19 9 -19 19zM54 729c-13 -8 -22 -1 -27 9l-21 42c-4 8 1 15 6 19l170 104c6 4 21 6 26 -3l34 -59c8 -15 2 -25 -6 -30z" />
    <glyph glyph-name="lcaron" unicode="&#x13e;" horiz-adv-x="296" 
d="M54 19v662c0 10 9 19 19 19h110c10 0 19 -9 19 -19v-662c0 -10 -9 -19 -19 -19h-110c-10 0 -19 9 -19 19zM328 417l-15 15c-7 8 -5 17 1 22c11 8 70 52 71 120c0 0 -17 -7 -40 -7c-39 0 -72 31 -72 71c0 39 33 72 79 72c38 0 91 -29 91 -116c0 -105 -70 -160 -93 -179
c-7 -5 -14 -7 -22 2z" />
    <glyph glyph-name="lcommaaccent" unicode="&#x13c;" horiz-adv-x="256" 
d="M54 19v662c0 10 9 19 19 19h110c10 0 19 -9 19 -19v-662c0 -10 -9 -19 -19 -19h-110c-10 0 -19 9 -19 19zM122 -90c38 0 91 -29 91 -116c0 -105 -70 -160 -93 -179c-7 -5 -14 -7 -22 2l-15 15c-7 8 -5 17 1 22c11 8 70 52 71 120c0 0 -17 -7 -40 -7c-39 0 -72 31 -72 71
c0 39 33 72 79 72z" />
    <glyph glyph-name="lslash" unicode="&#x142;" horiz-adv-x="269" 
d="M67 19v287l-26 -15c-9 -5 -21 -2 -26 7l-8 15c-5 8 -3 20 6 25l54 31v312c0 10 9 19 19 19h110c10 0 19 -9 19 -19v-225l50 30c10 5 21 2 26 -7l9 -16c5 -8 2 -19 -7 -25l-78 -46v-373c0 -10 -9 -19 -19 -19h-110c-10 0 -19 9 -19 19z" />
    <glyph glyph-name="ldot" unicode="&#x140;" horiz-adv-x="452" 
d="M54 19v662c0 10 9 19 19 19h110c10 0 19 -9 19 -19v-662c0 -10 -9 -19 -19 -19h-110c-10 0 -19 9 -19 19zM343 281c-44 0 -79 35 -79 79s35 80 79 80s80 -36 80 -80s-36 -79 -80 -79z" />
    <glyph glyph-name="nacute" unicode="&#x144;" horiz-adv-x="528" 
d="M54 19v362c0 11 9 19 19 19h47c6 0 15 -5 18 -12l16 -40c22 24 68 62 141 62c124 0 190 -95 190 -209v-182c0 -10 -9 -19 -19 -19h-107c-11 0 -19 9 -19 19v187c0 40 -23 75 -68 75c-40 0 -76 -29 -76 -70v-192c0 -9 -4 -19 -18 -19h-105c-10 0 -19 9 -19 19zM205 512
c-13 -8 -22 -1 -27 9l-21 42c-4 8 1 15 6 19l170 104c6 4 21 6 26 -3l34 -59c8 -15 2 -25 -6 -30z" />
    <glyph glyph-name="ncaron" unicode="&#x148;" horiz-adv-x="528" 
d="M54 19v362c0 11 9 19 19 19h47c6 0 15 -5 18 -12l16 -40c22 24 68 62 141 62c124 0 190 -95 190 -209v-182c0 -10 -9 -19 -19 -19h-107c-11 0 -19 9 -19 19v187c0 40 -23 75 -68 75c-40 0 -76 -29 -76 -70v-192c0 -9 -4 -19 -18 -19h-105c-10 0 -19 9 -19 19zM263 512
l-138 104c-5 4 -10 11 -6 19l34 46c5 7 14 9 21 5l99 -58l100 58c11 6 16 4 22 -4l33 -47c5 -7 -1 -15 -6 -19l-135 -104c-8 -6 -18 -4 -24 0z" />
    <glyph glyph-name="ntilde" unicode="&#xf1;" horiz-adv-x="528" 
d="M54 19v362c0 11 9 19 19 19h47c6 0 15 -5 18 -12l16 -40c22 24 68 62 141 62c124 0 190 -95 190 -209v-182c0 -10 -9 -19 -19 -19h-107c-11 0 -19 9 -19 19v187c0 40 -23 75 -68 75c-40 0 -76 -29 -76 -70v-192c0 -9 -4 -19 -18 -19h-105c-10 0 -19 9 -19 19zM152 555
l-35 28c-7 5 -9 16 -6 23c10 18 53 84 107 84c48 0 69 -47 108 -47c16 0 31 20 38 31c5 8 15 11 25 2l34 -26c8 -6 9 -17 1 -29c-10 -17 -47 -78 -100 -78c-52 0 -76 48 -110 48c-18 0 -31 -25 -40 -35c-6 -6 -13 -7 -22 -1z" />
    <glyph glyph-name="ncommaaccent" unicode="&#x146;" horiz-adv-x="529" 
d="M54 19v362c0 11 9 19 19 19h47c6 0 15 -5 18 -12l16 -40c22 24 68 62 141 62c124 0 190 -95 190 -209v-182c0 -10 -9 -19 -19 -19h-107c-11 0 -19 9 -19 19v187c0 40 -23 75 -68 75c-40 0 -76 -29 -76 -70v-192c0 -9 -4 -19 -18 -19h-105c-10 0 -19 9 -19 19zM268 -90
c38 0 91 -29 91 -116c0 -105 -70 -160 -93 -179c-7 -5 -14 -7 -22 2l-15 15c-7 8 -5 17 1 22c11 8 70 52 71 120c0 0 -17 -7 -40 -7c-39 0 -72 31 -72 71c0 39 33 72 79 72z" />
    <glyph glyph-name="napostrophe" unicode="&#x149;" horiz-adv-x="528" 
d="M54 19v362c0 11 9 19 19 19h47c6 0 15 -5 18 -12l16 -40c22 24 68 62 141 62c124 0 190 -95 190 -209v-182c0 -10 -9 -19 -19 -19h-107c-11 0 -19 9 -19 19v187c0 40 -23 75 -68 75c-40 0 -76 -29 -76 -70v-192c0 -9 -4 -19 -18 -19h-105c-10 0 -19 9 -19 19zM-60 710
c38 0 91 -29 91 -116c0 -105 -70 -160 -93 -179c-7 -5 -14 -7 -22 2l-15 15c-7 8 -5 17 1 22c11 8 70 52 71 120c0 0 -17 -7 -40 -7c-39 0 -72 31 -72 71c0 39 33 72 79 72z" />
    <glyph glyph-name="ograve" unicode="&#xf2;" horiz-adv-x="462" 
d="M23 201c0 113 94 209 208 209s208 -96 208 -209c0 -115 -94 -211 -208 -211s-208 96 -208 211zM152 201c0 -45 35 -82 79 -82s79 37 79 82c0 44 -35 80 -79 80s-79 -36 -79 -80zM302 512l-182 82c-8 5 -14 15 -6 30l34 59c5 9 20 7 26 3l170 -104c5 -4 10 -11 6 -19
l-21 -42c-5 -10 -14 -17 -27 -9z" />
    <glyph glyph-name="oacute" unicode="&#xf3;" horiz-adv-x="462" 
d="M23 201c0 113 94 209 208 209s208 -96 208 -209c0 -115 -94 -211 -208 -211s-208 96 -208 211zM152 201c0 -45 35 -82 79 -82s79 37 79 82c0 44 -35 80 -79 80s-79 -36 -79 -80zM158 512c-13 -8 -22 -1 -27 9l-21 42c-4 8 1 15 6 19l170 104c6 4 21 6 26 -3l34 -59
c8 -15 2 -25 -6 -30z" />
    <glyph glyph-name="ocircumflex" unicode="&#xf4;" horiz-adv-x="462" 
d="M23 201c0 113 94 209 208 209s208 -96 208 -209c0 -115 -94 -211 -208 -211s-208 96 -208 211zM152 201c0 -45 35 -82 79 -82s79 37 79 82c0 44 -35 80 -79 80s-79 -36 -79 -80zM132 512c-11 -6 -16 -4 -22 4l-33 47c-5 7 1 15 6 19l135 104c8 6 18 4 24 0l138 -104
c5 -4 10 -11 6 -19l-34 -46c-5 -7 -14 -9 -21 -5l-99 58z" />
    <glyph glyph-name="otilde" unicode="&#xf5;" horiz-adv-x="462" 
d="M23 201c0 113 94 209 208 209s208 -96 208 -209c0 -115 -94 -211 -208 -211s-208 96 -208 211zM152 201c0 -45 35 -82 79 -82s79 37 79 82c0 44 -35 80 -79 80s-79 -36 -79 -80zM114 555l-35 28c-7 5 -9 16 -6 23c10 18 53 84 107 84c48 0 69 -47 108 -47
c16 0 31 20 38 31c5 8 15 11 25 2l34 -26c8 -6 9 -17 1 -29c-10 -17 -47 -78 -100 -78c-52 0 -76 48 -110 48c-18 0 -31 -25 -40 -35c-6 -6 -13 -7 -22 -1z" />
    <glyph glyph-name="odieresis" unicode="&#xf6;" horiz-adv-x="462" 
d="M23 201c0 113 94 209 208 209s208 -96 208 -209c0 -115 -94 -211 -208 -211s-208 96 -208 211zM152 201c0 -45 35 -82 79 -82s79 37 79 82c0 44 -35 80 -79 80s-79 -36 -79 -80zM333 535c-39 0 -70 32 -70 71s31 70 70 70s71 -31 71 -70s-32 -71 -71 -71zM128 535
c-39 0 -70 32 -70 71s31 70 70 70s71 -31 71 -70s-32 -71 -71 -71z" />
    <glyph glyph-name="omacron" unicode="&#x14d;" horiz-adv-x="462" 
d="M23 201c0 113 94 209 208 209s208 -96 208 -209c0 -115 -94 -211 -208 -211s-208 96 -208 211zM152 201c0 -45 35 -82 79 -82s79 37 79 82c0 44 -35 80 -79 80s-79 -36 -79 -80zM103 563c-11 0 -19 8 -19 18v41c0 11 8 19 19 19h256c11 0 19 -8 19 -19v-41
c0 -10 -8 -18 -19 -18h-256z" />
    <glyph glyph-name="obreve" unicode="&#x14f;" horiz-adv-x="462" 
d="M23 201c0 113 94 209 208 209s208 -96 208 -209c0 -115 -94 -211 -208 -211s-208 96 -208 211zM152 201c0 -45 35 -82 79 -82s79 37 79 82c0 44 -35 80 -79 80s-79 -36 -79 -80zM231 527c-74 0 -132 52 -142 120c-2 12 6 22 19 22h45c8 0 15 -6 17 -12
c9 -27 32 -48 61 -48c26 0 50 24 59 48c2 7 10 12 17 12h47c12 0 20 -10 19 -22c-11 -68 -69 -120 -142 -120z" />
    <glyph glyph-name="ohungarumlaut" unicode="&#x151;" horiz-adv-x="462" 
d="M23 201c0 113 94 209 208 209s208 -96 208 -209c0 -115 -94 -211 -208 -211s-208 96 -208 211zM152 201c0 -45 35 -82 79 -82s79 37 79 82c0 44 -35 80 -79 80s-79 -36 -79 -80zM296 521c-10 0 -22 9 -19 19l30 141c3 10 9 19 19 19h94c19 0 26 -13 18 -25l-78 -139
c-5 -7 -11 -15 -18 -15h-46zM130 521c-10 0 -22 9 -19 19l30 141c3 10 9 19 19 19h94c19 0 25 -12 18 -25l-78 -139c-4 -8 -11 -15 -18 -15h-46z" />
    <glyph glyph-name="oslash" unicode="&#xf8;" horiz-adv-x="466" 
d="M44 21c-7 7 -8 19 -1 26l25 25c-27 35 -43 82 -43 130c0 113 94 208 208 208c47 0 91 -17 126 -44l28 28c7 8 19 7 26 0l12 -12c8 -7 8 -18 0 -26l-28 -28c27 -35 44 -79 44 -126c0 -115 -94 -212 -208 -212c-47 0 -91 16 -126 43l-25 -25c-7 -7 -19 -6 -26 1zM161 168
l106 106c-10 5 -22 7 -34 7c-44 0 -79 -35 -79 -79c0 -13 2 -24 7 -34zM199 126c10 -5 22 -7 34 -7c44 0 79 38 79 83c0 12 -3 23 -7 33z" />
    <glyph glyph-name="oslashacute" unicode="&#x1ff;" horiz-adv-x="470" 
d="M44 21c-7 7 -8 19 -1 26l25 25c-27 35 -43 82 -43 130c0 113 94 208 208 208c47 0 91 -17 126 -44l28 28c7 8 19 7 26 0l12 -12c8 -7 8 -18 0 -26l-28 -28c27 -35 44 -79 44 -126c0 -115 -94 -212 -208 -212c-47 0 -91 16 -126 43l-25 -25c-7 -7 -19 -6 -26 1zM161 168
l106 106c-10 5 -22 7 -34 7c-44 0 -79 -35 -79 -79c0 -13 2 -24 7 -34zM199 126c10 -5 22 -7 34 -7c44 0 79 38 79 83c0 12 -3 23 -7 33zM160 512c-13 -8 -22 -1 -27 9l-21 42c-4 8 1 15 6 19l170 104c6 4 21 6 26 -3l34 -59c8 -15 2 -25 -6 -30z" />
    <glyph glyph-name="oe" unicode="&#x153;" horiz-adv-x="710" 
d="M24 202c0 113 94 208 208 208c51 0 98 -21 134 -52c36 32 82 52 136 52c102 0 190 -78 190 -188c0 -7 -1 -20 -2 -27c-1 -10 -10 -17 -19 -17h-240c3 -27 25 -67 77 -67c25 0 52 12 68 24c7 5 19 7 25 0c20 -22 31 -38 52 -59c7 -7 8 -20 1 -27c-37 -37 -87 -59 -150 -59
c-54 0 -101 19 -138 51c-36 -32 -83 -51 -134 -51c-114 0 -208 97 -208 212zM444 256h107c-2 26 -27 47 -53 47c-27 0 -50 -21 -54 -47zM153 202c0 -45 35 -83 79 -83s79 38 79 83c0 44 -35 79 -79 79s-79 -35 -79 -79z" />
    <glyph glyph-name="racute" unicode="&#x155;" horiz-adv-x="345" 
d="M54 19v362c0 11 9 19 19 19h47c11 0 15 -6 18 -12l18 -44c20 29 57 66 109 66c55 0 94 -20 80 -43l-49 -80c-4 -7 -11 -13 -22 -9c-5 2 -15 5 -24 5c-30 0 -53 -23 -53 -57v-207c0 -12 -6 -19 -22 -19h-102c-10 0 -19 9 -19 19zM106 512c-13 -8 -22 -1 -27 9l-21 42
c-4 8 1 15 6 19l170 104c6 4 21 6 26 -3l34 -59c8 -15 2 -25 -6 -30z" />
    <glyph glyph-name="rcaron" unicode="&#x159;" horiz-adv-x="345" 
d="M54 19v362c0 11 9 19 19 19h47c11 0 15 -6 18 -12l18 -44c20 29 57 66 109 66c55 0 94 -20 80 -43l-49 -80c-4 -7 -11 -13 -22 -9c-5 2 -15 5 -24 5c-30 0 -53 -23 -53 -57v-207c0 -12 -6 -19 -22 -19h-102c-10 0 -19 9 -19 19zM166 512l-138 104c-5 4 -10 11 -6 19
l34 46c5 7 14 9 21 5l99 -58l100 58c11 6 16 4 22 -4l33 -47c5 -7 -1 -15 -6 -19l-135 -104c-8 -6 -18 -4 -24 0z" />
    <glyph glyph-name="rcommaaccent" unicode="&#x157;" horiz-adv-x="345" 
d="M54 19v362c0 11 9 19 19 19h47c11 0 15 -6 18 -12l18 -44c20 29 57 66 109 66c55 0 94 -20 80 -43l-49 -80c-4 -7 -11 -13 -22 -9c-5 2 -15 5 -24 5c-30 0 -53 -23 -53 -57v-207c0 -12 -6 -19 -22 -19h-102c-10 0 -19 9 -19 19zM124 -90c38 0 91 -29 91 -116
c0 -105 -70 -160 -93 -179c-7 -5 -14 -7 -22 2l-15 15c-7 8 -5 17 1 22c11 8 70 52 71 120c0 0 -17 -7 -40 -7c-39 0 -72 31 -72 71c0 39 33 72 79 72z" />
    <glyph glyph-name="sacute" unicode="&#x15b;" horiz-adv-x="371" 
d="M40 23c-7 6 -12 12 -7 21l35 69c3 6 13 12 21 8c0 0 47 -26 90 -26c10 0 19 6 19 18c0 10 -6 24 -57 42c-78 27 -112 72 -112 134c0 67 48 121 156 121c63 0 111 -17 133 -31c9 -6 16 -15 10 -25l-37 -68c-3 -6 -13 -9 -21 -6c0 0 -46 23 -85 23c-13 0 -22 -3 -22 -14
c0 -10 11 -20 45 -32c81 -28 137 -60 137 -140c0 -70 -56 -127 -169 -127c-66 0 -116 17 -136 33zM116 512c-13 -8 -22 -1 -27 9l-21 42c-4 8 1 15 6 19l170 104c6 4 21 6 26 -3l34 -59c8 -15 2 -25 -6 -30z" />
    <glyph glyph-name="scircumflex" unicode="&#x15d;" horiz-adv-x="371" 
d="M40 23c-7 6 -12 12 -7 21l35 69c3 6 13 12 21 8c0 0 47 -26 90 -26c10 0 19 6 19 18c0 10 -6 24 -57 42c-78 27 -112 72 -112 134c0 67 48 121 156 121c63 0 111 -17 133 -31c9 -6 16 -15 10 -25l-37 -68c-3 -6 -13 -9 -21 -6c0 0 -46 23 -85 23c-13 0 -22 -3 -22 -14
c0 -10 11 -20 45 -32c81 -28 137 -60 137 -140c0 -70 -56 -127 -169 -127c-66 0 -116 17 -136 33zM87 512c-11 -6 -16 -4 -22 4l-33 47c-5 7 1 15 6 19l135 104c8 6 18 4 24 0l138 -104c5 -4 10 -11 6 -19l-34 -46c-5 -7 -14 -9 -21 -5l-99 58z" />
    <glyph glyph-name="scaron" unicode="&#x161;" horiz-adv-x="371" 
d="M40 23c-7 6 -12 12 -7 21l35 69c3 6 13 12 21 8c0 0 47 -26 90 -26c10 0 19 6 19 18c0 10 -6 24 -57 42c-78 27 -112 72 -112 134c0 67 48 121 156 121c63 0 111 -17 133 -31c9 -6 16 -15 10 -25l-37 -68c-3 -6 -13 -9 -21 -6c0 0 -46 23 -85 23c-13 0 -22 -3 -22 -14
c0 -10 11 -20 45 -32c81 -28 137 -60 137 -140c0 -70 -56 -127 -169 -127c-66 0 -116 17 -136 33zM175 512l-138 104c-5 4 -10 11 -6 19l34 46c5 7 14 9 21 5l99 -58l100 58c11 6 16 4 22 -4l33 -47c5 -7 -1 -15 -6 -19l-135 -104c-8 -6 -18 -4 -24 0z" />
    <glyph glyph-name="scedilla" unicode="&#x15f;" horiz-adv-x="372" 
d="M41 23c-7 6 -12 12 -7 21l35 69c3 6 13 12 21 8c0 0 47 -26 90 -26c10 0 19 6 19 18c0 10 -6 24 -57 42c-78 27 -112 72 -112 134c0 67 48 121 156 121c63 0 111 -17 133 -31c9 -6 16 -15 10 -25l-37 -68c-3 -6 -13 -9 -21 -6c0 0 -46 23 -85 23c-13 0 -22 -3 -22 -14
c0 -10 11 -20 45 -32c81 -28 137 -60 137 -140c0 -66 -50 -120 -151 -126v-43c61 -8 92 -48 92 -102c0 -58 -47 -106 -106 -106c-30 0 -59 15 -76 35c-8 9 -6 20 4 29l23 20c6 6 16 4 21 -2c5 -7 16 -9 24 -9c16 0 30 16 30 32c0 14 -7 39 -68 42c-15 2 -17 13 -17 18v89
c-39 6 -67 18 -81 29z" />
    <glyph glyph-name="scommaaccent" unicode="&#x219;" horiz-adv-x="370" 
d="M40 23c-7 6 -12 12 -7 21l35 69c3 6 13 12 21 8c0 0 47 -26 90 -26c10 0 19 6 19 18c0 10 -6 24 -57 42c-78 27 -112 72 -112 134c0 67 48 121 156 121c63 0 111 -17 133 -31c9 -6 16 -15 10 -25l-37 -68c-3 -6 -13 -9 -21 -6c0 0 -46 23 -85 23c-13 0 -22 -3 -22 -14
c0 -10 11 -20 45 -32c81 -28 137 -60 137 -140c0 -70 -56 -127 -169 -127c-66 0 -116 17 -136 33zM195 -90c38 0 91 -29 91 -116c0 -105 -70 -160 -93 -179c-7 -5 -14 -7 -22 2l-15 15c-7 8 -5 17 1 22c11 8 70 52 71 120c0 0 -17 -7 -40 -7c-39 0 -72 31 -72 71
c0 39 33 72 79 72z" />
    <glyph glyph-name="germandbls" unicode="&#xdf;" horiz-adv-x="540" 
d="M54 19v394c0 201 104 297 250 297c80 0 168 -50 168 -160c0 -87 -74 -147 -74 -201c0 -17 20 -36 40 -54c35 -31 81 -81 81 -148c0 -129 -103 -155 -194 -157c-9 0 -18 6 -20 15l-19 84c-2 10 5 21 16 23c31 5 56 22 56 52c0 25 -24 44 -45 58c-32 24 -66 54 -66 102
c0 72 74 145 74 220c0 18 -11 35 -33 35c-25 0 -84 -27 -84 -169v-391c0 -10 -9 -19 -19 -19h-112c-10 0 -19 9 -19 19z" />
    <glyph glyph-name="tcaron" unicode="&#x165;" horiz-adv-x="344" 
d="M70 129v144h-26c-10 0 -18 9 -18 19v89c0 11 8 19 18 19h26v111c0 10 9 19 19 19h107c10 0 18 -9 18 -19v-111h74c11 0 19 -8 19 -19v-89c0 -10 -8 -19 -19 -19h-74v-125c0 -22 15 -24 27 -24c14 0 29 5 39 7s19 -2 22 -13l22 -83c2 -9 -3 -20 -13 -23
c0 0 -71 -22 -121 -22c-76 0 -120 48 -120 139zM393 417l-15 15c-7 8 -5 17 1 22c11 8 70 52 71 120c0 0 -17 -7 -40 -7c-39 0 -72 31 -72 71c0 39 33 72 79 72c38 0 91 -29 91 -116c0 -105 -70 -160 -93 -179c-7 -5 -14 -7 -22 2z" />
    <glyph glyph-name="tcommaaccent" unicode="&#x163;" horiz-adv-x="344" 
d="M70 129v144h-26c-10 0 -18 9 -18 19v89c0 11 8 19 18 19h26v111c0 10 9 19 19 19h107c10 0 18 -9 18 -19v-111h74c11 0 19 -8 19 -19v-89c0 -10 -8 -19 -19 -19h-74v-125c0 -22 15 -24 27 -24c14 0 29 5 39 7s19 -2 22 -13l22 -83c2 -9 -3 -20 -13 -23
c0 0 -71 -22 -121 -22c-76 0 -120 48 -120 139zM184 -90c38 0 91 -29 91 -116c0 -105 -70 -160 -93 -179c-7 -5 -14 -7 -22 2l-15 15c-7 8 -5 17 1 22c11 8 70 52 71 120c0 0 -17 -7 -40 -7c-39 0 -72 31 -72 71c0 39 33 72 79 72z" />
    <glyph glyph-name="uni021B" unicode="&#x21b;" horiz-adv-x="344" 
d="M70 129v144h-26c-10 0 -18 9 -18 19v89c0 11 8 19 18 19h26v111c0 10 9 19 19 19h107c10 0 18 -9 18 -19v-111h74c11 0 19 -8 19 -19v-89c0 -10 -8 -19 -19 -19h-74v-125c0 -22 15 -24 27 -24c14 0 29 5 39 7s19 -2 22 -13l22 -83c2 -9 -3 -20 -13 -23
c0 0 -71 -22 -121 -22c-76 0 -120 48 -120 139zM184 -90c38 0 91 -29 91 -116c0 -105 -70 -160 -93 -179c-7 -5 -14 -7 -22 2l-15 15c-7 8 -5 17 1 22c11 8 70 52 71 120c0 0 -17 -7 -40 -7c-39 0 -72 31 -72 71c0 39 33 72 79 72z" />
    <glyph glyph-name="tbar" unicode="&#x167;" horiz-adv-x="344" 
d="M70 129v39h-26c-10 0 -18 9 -18 19v17c0 10 8 19 18 19h26v50h-26c-10 0 -18 9 -18 19v89c0 11 8 19 18 19h26v111c0 10 9 19 19 19h107c10 0 18 -9 18 -19v-111h74c11 0 19 -8 19 -19v-89c0 -10 -8 -19 -19 -19h-74v-50h74c11 0 19 -9 19 -19v-18c0 -10 -8 -18 -19 -18
h-74v-17c0 -22 17 -24 29 -24c14 0 27 2 37 4s19 -2 22 -13l22 -83c1 -9 -3 -20 -13 -23c0 0 -71 -22 -121 -22c-76 0 -120 48 -120 139z" />
    <glyph glyph-name="thorn" unicode="&#xfe;" 
d="M203 6v-288c0 -10 -9 -19 -19 -19h-111c-10 0 -19 9 -19 19v963c0 10 9 19 19 19h111c10 0 19 -9 19 -19v-296c18 13 54 25 87 25c110 0 195 -83 195 -210c0 -119 -95 -210 -209 -210c-18 0 -49 5 -73 16zM187 200c0 -45 33 -80 79 -80c45 0 80 35 80 80
c0 44 -35 79 -80 79c-44 0 -79 -35 -79 -79z" />
    <glyph glyph-name="ugrave" unicode="&#xf9;" 
d="M45 200v181c0 11 9 19 19 19h107c10 0 19 -8 19 -19v-185c0 -41 23 -77 64 -77c39 0 60 37 60 71v191c0 16 11 19 21 19h102c10 0 19 -8 19 -19v-362c0 -10 -9 -19 -19 -19h-47c-9 0 -16 7 -19 14l-15 37c-26 -25 -58 -61 -135 -61c-119 0 -176 96 -176 210zM334 512
l-182 82c-8 5 -14 15 -6 30l34 59c5 9 20 7 26 3l170 -104c5 -4 10 -11 6 -19l-21 -42c-5 -10 -14 -17 -27 -9z" />
    <glyph glyph-name="uacute" unicode="&#xfa;" 
d="M45 200v181c0 11 9 19 19 19h107c10 0 19 -8 19 -19v-185c0 -41 23 -77 64 -77c39 0 60 37 60 71v191c0 16 11 19 21 19h102c10 0 19 -8 19 -19v-362c0 -10 -9 -19 -19 -19h-47c-9 0 -16 7 -19 14l-15 37c-26 -25 -58 -61 -135 -61c-119 0 -176 96 -176 210zM182 512
c-13 -8 -22 -1 -27 9l-21 42c-4 8 1 15 6 19l170 104c6 4 21 6 26 -3l34 -59c8 -15 2 -25 -6 -30z" />
    <glyph glyph-name="ucircumflex" unicode="&#xfb;" 
d="M45 200v181c0 11 9 19 19 19h107c10 0 19 -8 19 -19v-185c0 -41 23 -77 64 -77c39 0 60 37 60 71v191c0 16 11 19 21 19h102c10 0 19 -8 19 -19v-362c0 -10 -9 -19 -19 -19h-47c-9 0 -16 7 -19 14l-15 37c-26 -25 -58 -61 -135 -61c-119 0 -176 96 -176 210zM154 512
c-11 -6 -16 -4 -22 4l-33 47c-5 7 1 15 6 19l135 104c8 6 18 4 24 0l138 -104c5 -4 10 -11 6 -19l-34 -46c-5 -7 -14 -9 -21 -5l-99 58z" />
    <glyph glyph-name="utilde" unicode="&#x169;" 
d="M45 200v181c0 11 9 19 19 19h107c10 0 19 -8 19 -19v-185c0 -41 23 -77 64 -77c39 0 60 37 60 71v191c0 16 11 19 21 19h102c10 0 19 -8 19 -19v-362c0 -10 -9 -19 -19 -19h-47c-9 0 -16 7 -19 14l-15 37c-26 -25 -58 -61 -135 -61c-119 0 -176 96 -176 210zM136 555
l-35 28c-7 5 -9 16 -6 23c10 18 53 84 107 84c48 0 69 -47 108 -47c16 0 31 20 38 31c5 8 15 11 25 2l34 -26c8 -6 9 -17 1 -29c-10 -17 -47 -78 -100 -78c-52 0 -76 48 -110 48c-18 0 -31 -25 -40 -35c-6 -6 -13 -7 -22 -1z" />
    <glyph glyph-name="udieresis" unicode="&#xfc;" 
d="M45 200v181c0 11 9 19 19 19h107c10 0 19 -8 19 -19v-185c0 -41 23 -77 64 -77c39 0 60 37 60 71v191c0 16 11 19 21 19h102c10 0 19 -8 19 -19v-362c0 -10 -9 -19 -19 -19h-47c-9 0 -16 7 -19 14l-15 37c-26 -25 -58 -61 -135 -61c-119 0 -176 96 -176 210zM355 535
c-39 0 -70 32 -70 71s31 70 70 70s71 -31 71 -70s-32 -71 -71 -71zM150 535c-39 0 -70 32 -70 71s31 70 70 70s71 -31 71 -70s-32 -71 -71 -71z" />
    <glyph glyph-name="umacron" unicode="&#x16b;" 
d="M45 200v181c0 11 9 19 19 19h107c10 0 19 -8 19 -19v-185c0 -41 23 -77 64 -77c39 0 60 37 60 71v191c0 16 11 19 21 19h102c10 0 19 -8 19 -19v-362c0 -10 -9 -19 -19 -19h-47c-9 0 -16 7 -19 14l-15 37c-26 -25 -58 -61 -135 -61c-119 0 -176 96 -176 210zM125 563
c-11 0 -19 8 -19 18v41c0 11 8 19 19 19h256c11 0 19 -8 19 -19v-41c0 -10 -8 -18 -19 -18h-256z" />
    <glyph glyph-name="ubreve" unicode="&#x16d;" 
d="M45 200v181c0 11 9 19 19 19h107c10 0 19 -8 19 -19v-185c0 -41 23 -77 64 -77c39 0 60 37 60 71v191c0 16 11 19 21 19h102c10 0 19 -8 19 -19v-362c0 -10 -9 -19 -19 -19h-47c-9 0 -16 7 -19 14l-15 37c-26 -25 -58 -61 -135 -61c-119 0 -176 96 -176 210zM255 527
c-74 0 -132 52 -142 120c-2 12 6 22 19 22h45c8 0 15 -6 17 -12c9 -27 32 -48 61 -48c26 0 50 24 59 48c2 7 10 12 17 12h47c12 0 20 -10 19 -22c-11 -68 -69 -120 -142 -120z" />
    <glyph glyph-name="uring" unicode="&#x16f;" 
d="M45 200v181c0 11 9 19 19 19h107c10 0 19 -8 19 -19v-185c0 -41 23 -77 64 -77c39 0 60 37 60 71v191c0 16 11 19 21 19h102c10 0 19 -8 19 -19v-362c0 -10 -9 -19 -19 -19h-47c-9 0 -16 7 -19 14l-15 37c-26 -25 -58 -61 -135 -61c-119 0 -176 96 -176 210zM255 480
c-64 0 -115 51 -115 115s51 115 115 115c63 0 115 -51 115 -115s-52 -115 -115 -115zM255 551c23 0 43 21 43 44s-20 43 -43 43s-44 -20 -44 -43s21 -44 44 -44z" />
    <glyph glyph-name="uhungarumlaut" unicode="&#x171;" 
d="M45 200v181c0 11 9 19 19 19h107c10 0 19 -8 19 -19v-185c0 -41 23 -77 64 -77c39 0 60 37 60 71v191c0 16 11 19 21 19h102c10 0 19 -8 19 -19v-362c0 -10 -9 -19 -19 -19h-47c-9 0 -16 7 -19 14l-15 37c-26 -25 -58 -61 -135 -61c-119 0 -176 96 -176 210zM322 521
c-10 0 -22 9 -19 19l30 141c3 10 9 19 19 19h94c19 0 26 -13 18 -25l-78 -139c-5 -7 -11 -15 -18 -15h-46zM156 521c-10 0 -22 9 -19 19l30 141c3 10 9 19 19 19h94c19 0 25 -12 18 -25l-78 -139c-4 -8 -11 -15 -18 -15h-46z" />
    <glyph glyph-name="uogonek" unicode="&#x173;" 
d="M45 200v181c0 11 9 19 19 19h107c10 0 19 -8 19 -19v-181c0 -41 23 -73 64 -73c39 0 60 33 60 67v187c0 16 11 19 21 19h102c10 0 19 -8 19 -19v-362c0 -10 -9 -19 -19 -19h-9c-18 -18 -45 -53 -45 -95c0 -36 21 -67 70 -67c17 0 30 4 41 6c13 2 22 -7 22 -19v-33
c0 -9 -7 -17 -15 -19c0 0 -35 -8 -63 -8c-76 0 -138 36 -138 114c0 79 63 129 71 134v1l-15 37c-26 -25 -58 -61 -135 -61c-119 0 -176 96 -176 210z" />
    <glyph glyph-name="wacute" unicode="&#x1e83;" horiz-adv-x="619" 
d="M143 2l-133 373c-5 13 4 25 18 25h95c6 0 16 -5 18 -12l52 -137h1l95 151c2 3 7 8 16 8h10c7 0 13 -4 15 -8l96 -151h1l51 137c4 9 9 12 20 12h93c14 0 23 -12 18 -25l-133 -373c-2 -7 -11 -12 -18 -12h-4c-5 0 -14 4 -16 8l-129 200h-1l-127 -200c-3 -4 -11 -8 -16 -8
h-5c-6 0 -16 5 -17 12zM238 512c-13 -8 -22 -1 -27 9l-21 42c-4 8 1 15 6 19l170 104c6 4 21 6 26 -3l34 -59c8 -15 2 -25 -6 -30z" />
    <glyph glyph-name="wcircumflex" unicode="&#x175;" horiz-adv-x="619" 
d="M143 2l-133 373c-5 13 4 25 18 25h95c6 0 16 -5 18 -12l52 -137h1l95 151c2 3 7 8 16 8h10c7 0 13 -4 15 -8l96 -151h1l51 137c4 9 9 12 20 12h93c14 0 23 -12 18 -25l-133 -373c-2 -7 -11 -12 -18 -12h-4c-5 0 -14 4 -16 8l-129 200h-1l-127 -200c-3 -4 -11 -8 -16 -8
h-5c-6 0 -16 5 -17 12zM210 512c-11 -6 -16 -4 -22 4l-33 47c-5 7 1 15 6 19l135 104c8 6 18 4 24 0l138 -104c5 -4 10 -11 6 -19l-34 -46c-5 -7 -14 -9 -21 -5l-99 58z" />
    <glyph glyph-name="wdieresis" unicode="&#x1e85;" horiz-adv-x="619" 
d="M143 2l-133 373c-5 13 4 25 18 25h95c6 0 16 -5 18 -12l52 -137h1l95 151c2 3 7 8 16 8h10c7 0 13 -4 15 -8l96 -151h1l51 137c4 9 9 12 20 12h93c14 0 23 -12 18 -25l-133 -373c-2 -7 -11 -12 -18 -12h-4c-5 0 -14 4 -16 8l-129 200h-1l-127 -200c-3 -4 -11 -8 -16 -8
h-5c-6 0 -16 5 -17 12zM411 535c-39 0 -70 32 -70 71s31 70 70 70s71 -31 71 -70s-32 -71 -71 -71zM206 535c-39 0 -70 32 -70 71s31 70 70 70s71 -31 71 -70s-32 -71 -71 -71z" />
    <glyph glyph-name="wgrave" unicode="&#x1e81;" horiz-adv-x="619" 
d="M143 2l-133 373c-5 13 4 25 18 25h95c6 0 16 -5 18 -12l52 -137h1l95 151c2 3 7 8 16 8h10c7 0 13 -4 15 -8l96 -151h1l51 137c4 9 9 12 20 12h93c14 0 23 -12 18 -25l-133 -373c-2 -7 -11 -12 -18 -12h-4c-5 0 -14 4 -16 8l-129 200h-1l-127 -200c-3 -4 -11 -8 -16 -8
h-5c-6 0 -16 5 -17 12zM390 512l-182 82c-8 5 -14 15 -6 30l34 59c5 9 20 7 26 3l170 -104c5 -4 10 -11 6 -19l-21 -42c-5 -10 -14 -17 -27 -9z" />
    <glyph glyph-name="yacute" unicode="&#xfd;" horiz-adv-x="465" 
d="M156 41l-150 333c-6 13 2 26 17 26h114c8 0 14 -5 17 -11l77 -186h2l79 186c2 6 9 11 17 11h113c15 0 24 -13 17 -26l-306 -662c-3 -6 -9 -12 -17 -12h-112c-15 0 -24 13 -17 27zM160 512c-13 -8 -22 -1 -27 9l-21 42c-4 8 1 15 6 19l170 104c6 4 21 6 26 -3l34 -59
c8 -15 2 -25 -6 -30z" />
    <glyph glyph-name="ycircumflex" unicode="&#x177;" horiz-adv-x="465" 
d="M156 41l-150 333c-6 13 2 26 17 26h114c8 0 14 -5 17 -11l77 -186h2l79 186c2 6 9 11 17 11h113c15 0 24 -13 17 -26l-306 -662c-3 -6 -9 -12 -17 -12h-112c-15 0 -24 13 -17 27zM133 512c-11 -6 -16 -4 -22 4l-33 47c-5 7 1 15 6 19l135 104c8 6 18 4 24 0l138 -104
c5 -4 10 -11 6 -19l-34 -46c-5 -7 -14 -9 -21 -5l-99 58z" />
    <glyph glyph-name="ydieresis" unicode="&#xff;" horiz-adv-x="465" 
d="M156 41l-150 333c-6 13 2 26 17 26h114c8 0 14 -5 17 -11l77 -186h2l79 186c2 6 9 11 17 11h113c15 0 24 -13 17 -26l-306 -662c-3 -6 -9 -12 -17 -12h-112c-15 0 -24 13 -17 27zM334 535c-39 0 -70 32 -70 71s31 70 70 70s71 -31 71 -70s-32 -71 -71 -71zM129 535
c-39 0 -70 32 -70 71s31 70 70 70s71 -31 71 -70s-32 -71 -71 -71z" />
    <glyph glyph-name="ygrave" unicode="&#x1ef3;" horiz-adv-x="465" 
d="M156 41l-150 333c-6 13 2 26 17 26h114c8 0 14 -5 17 -11l77 -186h2l79 186c2 6 9 11 17 11h113c15 0 24 -13 17 -26l-306 -662c-3 -6 -9 -12 -17 -12h-112c-15 0 -24 13 -17 27zM304 512l-182 82c-8 5 -14 15 -6 30l34 59c5 9 20 7 26 3l170 -104c5 -4 10 -11 6 -19
l-21 -42c-5 -10 -14 -17 -27 -9z" />
    <glyph glyph-name="zacute" unicode="&#x17a;" horiz-adv-x="369" 
d="M28 19v10l117 240v2h-89c-10 0 -18 9 -18 19v91c0 11 8 19 18 19h271c15 0 24 -13 17 -27l-126 -243v-2h89c11 0 19 -8 19 -19v-90c0 -10 -8 -19 -19 -19h-260c-10 0 -19 9 -19 19zM125 512c-13 -8 -22 -1 -27 9l-21 42c-4 8 1 15 6 19l170 104c6 4 21 6 26 -3l34 -59
c8 -15 2 -25 -6 -30z" />
    <glyph glyph-name="zcaron" unicode="&#x17e;" horiz-adv-x="369" 
d="M28 19v10l117 240v2h-89c-10 0 -18 9 -18 19v91c0 11 8 19 18 19h271c15 0 24 -13 17 -27l-126 -243v-2h89c11 0 19 -8 19 -19v-90c0 -10 -8 -19 -19 -19h-260c-10 0 -19 9 -19 19zM185 512l-138 104c-5 4 -10 11 -6 19l34 46c5 7 14 9 21 5l99 -58l100 58
c11 6 16 4 22 -4l33 -47c5 -7 -1 -15 -6 -19l-135 -104c-8 -6 -18 -4 -24 0z" />
    <glyph glyph-name="zdotaccent" unicode="&#x17c;" horiz-adv-x="369" 
d="M28 19v10l117 240v2h-89c-10 0 -18 9 -18 19v91c0 11 8 19 18 19h271c15 0 24 -13 17 -27l-126 -243v-2h89c11 0 19 -8 19 -19v-90c0 -10 -8 -19 -19 -19h-260c-10 0 -19 9 -19 19zM195 521c-44 0 -79 35 -79 79s35 80 79 80s80 -36 80 -80s-36 -79 -80 -79z" />
    <glyph glyph-name="IJ" unicode="&#x132;" horiz-adv-x="776" 
d="M86 19v662c0 10 9 19 19 19h120c10 0 19 -9 19 -19v-662c0 -10 -9 -19 -19 -19h-120c-10 0 -19 9 -19 19zM338 63c-5 8 -4 18 2 25l68 67c8 7 19 8 27 0c12 -12 24 -21 51 -21c28 0 59 26 59 76v471c0 10 8 19 19 19h122c11 0 19 -9 19 -19v-472
c0 -139 -98 -219 -215 -219c-87 0 -135 52 -152 73z" />
    <glyph glyph-name="ij" unicode="&#x133;" horiz-adv-x="525" 
d="M127 521c-44 0 -79 35 -79 79s35 80 79 80s80 -36 80 -80s-36 -79 -80 -79zM54 19v362c0 11 9 19 19 19h110c10 0 19 -8 19 -19v-362c0 -10 -9 -19 -19 -19h-110c-10 0 -19 9 -19 19zM396 521c-44 0 -79 35 -79 79s35 80 79 80s80 -36 80 -80s-36 -79 -80 -79zM322 -92
v473c0 11 9 19 19 19h111c10 0 19 -8 19 -19v-473c0 -140 -87 -218 -203 -218c-52 0 -105 22 -122 38c-6 5 -8 16 -4 23l42 83c3 7 15 11 23 7c13 -7 32 -16 52 -16c45 0 63 34 63 83z" />
    <glyph glyph-name="grave.cap" horiz-adv-x="302" 
d="M222 762l-182 82c-8 5 -14 15 -6 30l34 59c5 9 20 7 26 3l170 -104c5 -4 10 -11 6 -19l-21 -42c-5 -10 -14 -17 -27 -9z" />
    <glyph glyph-name="acute" unicode="&#xb4;" horiz-adv-x="302" 
d="M80 512c-13 -8 -22 -1 -27 9l-21 42c-4 8 1 15 6 19l170 104c6 4 21 6 26 -3l34 -59c8 -15 2 -25 -6 -30z" />
    <glyph glyph-name="acute.cap" horiz-adv-x="302" 
d="M80 762c-13 -8 -22 -1 -27 9l-21 42c-4 8 1 15 6 19l170 104c6 4 21 6 26 -3l34 -59c8 -15 2 -25 -6 -30z" />
    <glyph glyph-name="circumflex" unicode="&#x2c6;" horiz-adv-x="373" 
d="M87 512c-11 -6 -16 -4 -22 4l-33 47c-5 7 1 15 6 19l135 104c8 6 18 4 24 0l138 -104c5 -4 10 -11 6 -19l-34 -46c-5 -7 -14 -9 -21 -5l-99 58z" />
    <glyph glyph-name="circumflex.cap" horiz-adv-x="373" 
d="M87 762c-11 -6 -16 -4 -22 4l-33 47c-5 7 1 15 6 19l135 104c8 6 18 4 24 0l138 -104c5 -4 10 -11 6 -19l-34 -46c-5 -7 -14 -9 -21 -5l-99 58z" />
    <glyph glyph-name="caron" unicode="&#x2c7;" horiz-adv-x="373" 
d="M175 512l-138 104c-5 4 -10 11 -6 19l34 46c5 7 14 9 21 5l99 -58l100 58c11 6 16 4 22 -4l33 -47c5 -7 -1 -15 -6 -19l-135 -104c-8 -6 -18 -4 -24 0z" />
    <glyph glyph-name="caron.cap" horiz-adv-x="373" 
d="M175 762l-138 104c-5 4 -10 11 -6 19l34 46c5 7 14 9 21 5l99 -58l100 58c11 6 16 4 22 -4l33 -47c5 -7 -1 -15 -6 -19l-135 -104c-8 -6 -18 -4 -24 0z" />
    <glyph glyph-name="caron.alt" horiz-adv-x="373" 
d="M175 710c38 0 91 -29 91 -116c0 -105 -70 -160 -93 -179c-7 -5 -14 -7 -22 2l-15 15c-7 8 -5 17 1 22c11 8 70 52 71 120c0 0 -17 -7 -40 -7c-39 0 -72 31 -72 71c0 39 33 72 79 72z" />
    <glyph glyph-name="tilde" unicode="&#x2dc;" horiz-adv-x="380" 
d="M73 555l-35 28c-7 5 -9 16 -6 23c10 18 53 84 107 84c48 0 69 -47 108 -47c16 0 31 20 38 31c5 8 15 11 25 2l34 -26c8 -6 9 -17 1 -29c-10 -17 -47 -78 -100 -78c-52 0 -76 48 -110 48c-18 0 -31 -25 -40 -35c-6 -6 -13 -7 -22 -1z" />
    <glyph glyph-name="tilde.cap" horiz-adv-x="380" 
d="M73 785l-35 28c-7 5 -9 16 -6 23c10 18 53 84 107 84c48 0 69 -47 108 -47c16 0 31 20 38 31c5 8 15 11 25 2l34 -26c8 -6 9 -17 1 -29c-10 -17 -47 -78 -100 -78c-52 0 -76 48 -110 48c-18 0 -31 -25 -40 -35c-6 -6 -13 -7 -22 -1z" />
    <glyph glyph-name="dieresis" unicode="&#xa8;" horiz-adv-x="414" 
d="M309 535c-39 0 -70 32 -70 71s31 70 70 70s71 -31 71 -70s-32 -71 -71 -71zM104 535c-39 0 -70 32 -70 71s31 70 70 70s71 -31 71 -70s-32 -71 -71 -71z" />
    <glyph glyph-name="dieresis.cap" horiz-adv-x="474" 
d="M369 768c-39 0 -70 32 -70 71s31 70 70 70s71 -31 71 -70s-32 -71 -71 -71zM104 768c-39 0 -70 32 -70 71s31 70 70 70s71 -31 71 -70s-32 -71 -71 -71z" />
    <glyph glyph-name="macron" unicode="&#xaf;" horiz-adv-x="414" 
d="M79 563c-11 0 -19 8 -19 18v41c0 11 8 19 19 19h256c11 0 19 -8 19 -19v-41c0 -10 -8 -18 -19 -18h-256z" />
    <glyph glyph-name="macron.cap" horiz-adv-x="414" 
d="M79 801c-11 0 -19 8 -19 18v41c0 11 8 19 19 19h256c11 0 19 -8 19 -19v-41c0 -10 -8 -18 -19 -18h-256z" />
    <glyph glyph-name="uni02C9" unicode="&#x2c9;" horiz-adv-x="414" 
d="M79 563c-11 0 -19 8 -19 18v41c0 11 8 19 19 19h256c11 0 19 -8 19 -19v-41c0 -10 -8 -18 -19 -18h-256z" />
    <glyph glyph-name="breve" unicode="&#x2d8;" horiz-adv-x="346" 
d="M173 527c-74 0 -132 52 -142 120c-2 12 6 22 19 22h45c8 0 15 -6 17 -12c9 -27 32 -48 61 -48c26 0 50 24 59 48c2 7 10 12 17 12h47c12 0 20 -10 19 -22c-11 -68 -69 -120 -142 -120z" />
    <glyph glyph-name="breve.cap" horiz-adv-x="346" 
d="M173 763c-74 0 -132 52 -142 120c-2 12 6 22 19 22h45c8 0 15 -6 17 -12c9 -27 32 -48 61 -48c26 0 50 24 59 48c2 7 10 12 17 12h47c12 0 20 -10 19 -22c-11 -68 -69 -120 -142 -120z" />
    <glyph glyph-name="ring" unicode="&#x2da;" horiz-adv-x="290" 
d="M145 480c-64 0 -115 51 -115 115s51 115 115 115c63 0 115 -51 115 -115s-52 -115 -115 -115zM145 551c23 0 43 21 43 44s-20 43 -43 43s-44 -20 -44 -43s21 -44 44 -44z" />
    <glyph glyph-name="ring.cap" horiz-adv-x="290" 
d="M145 752c-64 0 -115 51 -115 115s51 115 115 115c63 0 115 -51 115 -115s-52 -115 -115 -115zM145 823c23 0 43 21 43 44s-20 43 -43 43s-44 -20 -44 -43s21 -44 44 -44z" />
    <glyph glyph-name="hungarumlaut" unicode="&#x2dd;" horiz-adv-x="392" 
d="M216 521c-10 0 -22 9 -19 19l30 141c3 10 9 19 19 19h94c19 0 26 -13 18 -25l-78 -139c-5 -7 -11 -15 -18 -15h-46zM50 521c-10 0 -22 9 -19 19l30 141c3 10 9 19 19 19h94c19 0 25 -12 18 -25l-78 -139c-4 -8 -11 -15 -18 -15h-46z" />
    <glyph glyph-name="hungarumlaut.cap" horiz-adv-x="392" 
d="M216 768c-10 0 -22 9 -19 19l30 141c3 10 9 19 19 19h94c19 0 26 -13 18 -25l-78 -139c-5 -7 -11 -15 -18 -15h-46zM50 768c-10 0 -22 9 -19 19l30 141c3 10 9 19 19 19h94c19 0 25 -12 18 -25l-78 -139c-4 -8 -11 -15 -18 -15h-46z" />
    <glyph glyph-name="dotaccent" unicode="&#x2d9;" horiz-adv-x="219" 
d="M109 521c-44 0 -79 35 -79 79s35 80 79 80s80 -36 80 -80s-36 -79 -80 -79z" />
    <glyph glyph-name="dotaccent.cap" horiz-adv-x="219" 
d="M109 774c-44 0 -79 35 -79 79s35 80 79 80s80 -36 80 -80s-36 -79 -80 -79z" />
    <glyph glyph-name="cedilla" unicode="&#xb8;" horiz-adv-x="247" 
d="M51 0h73v-52c61 -8 92 -48 92 -102c0 -58 -47 -106 -106 -106c-30 0 -59 15 -76 35c-8 9 -6 20 4 29l23 20c6 6 16 4 21 -2c5 -7 16 -9 24 -9c16 0 30 16 30 32c0 14 -7 39 -68 42c-15 2 -17 13 -17 18v95z" />
    <glyph glyph-name="cedilla.cap" horiz-adv-x="247" 
d="M51 0h73v-52c61 -8 92 -48 92 -102c0 -58 -47 -106 -106 -106c-30 0 -59 15 -76 35c-8 9 -6 20 4 29l23 20c6 6 16 4 21 -2c5 -7 16 -9 24 -9c16 0 30 16 30 32c0 14 -7 39 -68 42c-15 2 -17 13 -17 18v95z" />
    <glyph glyph-name="ogonek" unicode="&#x2db;" horiz-adv-x="276" 
d="M104 15h71s-61 -49 -61 -110c0 -36 21 -67 70 -67c17 0 30 4 41 6c13 2 22 -7 22 -19v-33c0 -9 -7 -17 -15 -19c0 0 -35 -8 -63 -8c-76 0 -138 36 -138 114c0 84 73 136 73 136z" />
    <glyph glyph-name="ogonek.cap" horiz-adv-x="276" 
d="M104 15h71s-61 -49 -61 -110c0 -36 21 -67 70 -67c17 0 30 4 41 6c13 2 22 -7 22 -19v-33c0 -9 -7 -17 -15 -19c0 0 -35 -8 -63 -8c-76 0 -138 36 -138 114c0 84 73 136 73 136z" />
    <glyph glyph-name="commaaccent" horiz-adv-x="292" 
d="M150 -90c38 0 91 -29 91 -116c0 -105 -70 -160 -93 -179c-7 -5 -14 -7 -22 2l-15 15c-7 8 -5 17 1 22c11 8 70 52 71 120c0 0 -17 -7 -40 -7c-39 0 -72 31 -72 71c0 39 33 72 79 72z" />
    <glyph glyph-name="commaaccent.alt" horiz-adv-x="292" 
d="M150 -90c38 0 91 -29 91 -116c0 -105 -70 -160 -93 -179c-7 -5 -14 -7 -22 2l-15 15c-7 8 -5 17 1 22c11 8 70 52 71 120c0 0 -17 -7 -40 -7c-39 0 -72 31 -72 71c0 39 33 72 79 72z" />
    <glyph glyph-name="commaaccent.cap" horiz-adv-x="292" 
d="M150 -90c38 0 91 -29 91 -116c0 -105 -70 -160 -93 -179c-7 -5 -14 -7 -22 2l-15 15c-7 8 -5 17 1 22c11 8 70 52 71 120c0 0 -17 -7 -40 -7c-39 0 -72 31 -72 71c0 39 33 72 79 72z" />
    <glyph glyph-name="ellipsis" unicode="&#x2026;" horiz-adv-x="690" 
d="M491 70c0 44 35 79 79 79s80 -35 80 -79s-36 -80 -80 -80s-79 36 -79 80zM269 70c0 44 35 79 79 79s80 -35 80 -79s-36 -80 -80 -80s-79 36 -79 80zM40 70c0 44 35 79 79 79s80 -35 80 -79s-36 -80 -80 -80s-79 36 -79 80z" />
    <glyph glyph-name="uni00AD" unicode="&#xad;" horiz-adv-x="500" 
 />
    <glyph glyph-name="exclamdown" unicode="&#xa1;" horiz-adv-x="282" 
d="M142 220c-52 0 -96 44 -96 96c0 51 44 94 96 94c51 0 94 -43 94 -94c0 -52 -43 -96 -94 -96zM101 112c1 8 10 16 19 16h42c9 0 18 -8 19 -16l49 -279v-114c0 -10 -9 -19 -19 -19h-140c-10 0 -19 9 -19 19v112z" />
    <glyph glyph-name="questiondown" unicode="&#xbf;" horiz-adv-x="446" 
d="M240 220c-52 0 -96 44 -96 96c0 51 44 94 96 94c51 0 94 -43 94 -94c0 -52 -43 -96 -94 -96zM17 -135c0 132 150 136 150 244c0 11 9 19 19 19h107c10 0 19 -8 19 -19v-42c0 -84 -138 -121 -138 -185c0 -31 32 -59 75 -59c70 0 89 63 114 41l61 -60c8 -7 7 -19 0 -26
c0 0 -74 -88 -203 -88c-106 0 -204 74 -204 175z" />
    <glyph glyph-name="quoteleft" unicode="&#x2018;" horiz-adv-x="204" 
d="M110 408c-38 0 -91 29 -91 116c0 105 70 160 93 179c7 5 14 7 22 -2l15 -15c7 -8 5 -17 -1 -22c-11 -8 -70 -52 -71 -120c0 0 17 7 40 7c39 0 72 -31 72 -71c0 -39 -33 -72 -79 -72z" />
    <glyph glyph-name="quoteright" unicode="&#x2019;" horiz-adv-x="200" 
d="M68 417l-15 15c-7 8 -5 17 1 22c11 8 70 52 71 120c0 0 -17 -7 -40 -7c-39 0 -72 31 -72 71c0 39 33 72 79 72c38 0 91 -29 91 -116c0 -105 -70 -160 -93 -179c-7 -5 -14 -7 -22 2z" />
    <glyph glyph-name="quotedblleft" unicode="&#x201c;" horiz-adv-x="403" 
d="M309 409c-38 0 -91 29 -91 116c0 105 70 160 93 179c7 5 14 7 22 -2l15 -15c7 -8 5 -17 -1 -22c-11 -8 -70 -52 -71 -120c0 0 17 7 40 7c39 0 72 -31 72 -71c0 -39 -33 -72 -79 -72zM110 409c-38 0 -91 29 -91 116c0 105 70 160 93 179c7 5 14 7 22 -2l15 -15
c7 -8 5 -17 -1 -22c-11 -8 -70 -52 -71 -120c0 0 17 7 40 7c39 0 72 -31 72 -71c0 -39 -33 -72 -79 -72z" />
    <glyph glyph-name="quotedblright" unicode="&#x201d;" horiz-adv-x="399" 
d="M267 417l-15 15c-7 8 -5 17 1 22c11 8 70 52 71 120c0 0 -17 -7 -40 -7c-39 0 -72 31 -72 71c0 39 33 72 79 72c38 0 91 -29 91 -116c0 -105 -70 -160 -93 -179c-7 -5 -14 -7 -22 2zM68 417l-15 15c-7 8 -5 17 1 22c11 8 70 52 71 120c0 0 -17 -7 -40 -7
c-39 0 -72 31 -72 71c0 39 33 72 79 72c38 0 91 -29 91 -116c0 -105 -70 -160 -93 -179c-7 -5 -14 -7 -22 2z" />
    <glyph glyph-name="quotesinglbase" unicode="&#x201a;" horiz-adv-x="228" 
d="M30 61c0 39 33 72 79 72c38 0 91 -29 91 -116c0 -105 -70 -160 -93 -179c-7 -5 -14 -7 -22 2l-15 15c-7 8 -5 17 1 22c11 8 70 52 71 120c0 0 -17 -7 -40 -7c-39 0 -72 31 -72 71z" />
    <glyph glyph-name="quotedblbase" unicode="&#x201e;" horiz-adv-x="428" 
d="M229 61c0 39 33 72 79 72c38 0 91 -29 91 -116c0 -105 -70 -160 -93 -179c-7 -5 -14 -7 -22 2l-15 15c-7 8 -5 17 1 22c11 8 70 52 71 120c0 0 -17 -7 -40 -7c-39 0 -72 31 -72 71zM30 61c0 39 33 72 79 72c38 0 91 -29 91 -116c0 -105 -70 -160 -93 -179
c-7 -5 -14 -7 -22 2l-15 15c-7 8 -5 17 1 22c11 8 70 52 71 120c0 0 -17 -7 -40 -7c-39 0 -72 31 -72 71z" />
    <glyph glyph-name="guilsinglleft" unicode="&#x2039;" horiz-adv-x="283" 
d="M125 39l-104 155c-6 8 -4 18 0 24l109 148c3 5 10 12 18 12h79c17 0 23 -15 15 -31l-65 -139l62 -147c7 -16 2 -30 -15 -30h-84c-4 0 -12 4 -15 8z" />
    <glyph glyph-name="guilsinglright" unicode="&#x203a;" horiz-adv-x="283" 
d="M58 31c-17 0 -22 14 -15 30l62 147l-65 139c-8 16 -2 31 15 31h79c8 0 15 -7 18 -12l109 -148c4 -6 6 -16 0 -24l-104 -155c-3 -4 -11 -8 -15 -8h-84z" />
    <glyph glyph-name="guillemotleft" unicode="&#xab;" horiz-adv-x="501" 
d="M239 194c-6 8 -4 18 0 24l109 148c3 5 10 12 18 12h79c17 0 23 -15 15 -31l-65 -139l62 -147c7 -16 2 -30 -15 -30h-84c-4 0 -12 4 -15 8zM125 39l-104 155c-6 8 -4 18 0 24l109 148c3 5 10 12 18 12h79c17 0 23 -15 15 -31l-65 -139l62 -147c7 -16 2 -30 -15 -30h-84
c-4 0 -12 4 -15 8z" />
    <glyph glyph-name="guillemotright" unicode="&#xbb;" horiz-adv-x="501" 
d="M261 61l62 147l-65 139c-8 16 -2 31 15 31h79c8 0 15 -7 18 -12l109 -148c4 -6 6 -16 0 -24l-104 -155c-3 -4 -11 -8 -15 -8h-84c-17 0 -22 14 -15 30zM58 31c-17 0 -22 14 -15 30l62 147l-65 139c-8 16 -2 31 15 31h79c8 0 15 -7 18 -12l109 -148c4 -6 6 -16 0 -24
l-104 -155c-3 -4 -11 -8 -15 -8h-84z" />
    <glyph glyph-name="endash" unicode="&#x2013;" horiz-adv-x="535" 
d="M63 203c-11 0 -19 8 -19 18v51c0 11 8 19 19 19h409c11 0 19 -8 19 -19v-51c0 -10 -8 -18 -19 -18h-409z" />
    <glyph glyph-name="emdash" unicode="&#x2014;" horiz-adv-x="755" 
d="M63 203c-11 0 -19 8 -19 18v51c0 11 8 19 19 19h629c11 0 19 -8 19 -19v-51c0 -10 -8 -18 -19 -18h-629z" />
    <glyph glyph-name="bullet" unicode="&#x2022;" horiz-adv-x="406" 
d="M201 83c-76 0 -141 65 -141 141c0 79 65 145 141 145c79 0 145 -66 145 -145c0 -76 -66 -141 -145 -141z" />
    <glyph glyph-name="periodcentered" unicode="&#xb7;" horiz-adv-x="276" 
d="M136 149c-57 0 -105 48 -105 105c0 60 48 109 105 109c60 0 109 -49 109 -109c0 -57 -49 -105 -109 -105z" />
    <glyph glyph-name="uni2219" unicode="&#x2219;" horiz-adv-x="406" 
d="M201 149c-57 0 -105 48 -105 105c0 60 48 109 105 109c60 0 109 -49 109 -109c0 -57 -49 -105 -109 -105z" />
    <glyph glyph-name="dagger" unicode="&#x2020;" horiz-adv-x="618" 
d="M69 262c-10 0 -19 9 -19 19v100c0 10 9 19 19 19h157v281c0 10 9 19 19 19h120c10 0 19 -9 19 -19v-281h166c10 0 18 -9 18 -19v-100c0 -10 -8 -19 -18 -19h-176l-39 -546c-1 -8 -7 -16 -19 -16h-22c-11 0 -18 8 -19 16l-39 546h-167z" />
    <glyph glyph-name="daggerdbl" unicode="&#x2021;" horiz-adv-x="618" 
d="M80 20v100c0 10 9 19 19 19h145l-18 259v1h-157c-10 0 -19 9 -19 19v100c0 10 9 19 19 19h157v144c0 10 9 19 19 19h120c10 0 19 -9 19 -19v-144h166c10 0 18 -9 18 -19v-100c0 -10 -8 -19 -18 -19h-166l-19 -260h155c10 0 18 -9 18 -19v-100c0 -10 -8 -19 -18 -19h-165
l-20 -285c-1 -8 -8 -16 -19 -16h-22c-11 0 -18 8 -19 16l-21 285h-155c-10 0 -19 9 -19 19z" />
    <glyph glyph-name="section" unicode="&#xa7;" horiz-adv-x="504" 
d="M74 -77c8 14 21 21 38 11c10 -5 81 -50 131 -50c37 0 65 21 65 56c0 47 -43 72 -96 93c-82 33 -182 95 -182 208c0 55 22 103 68 141c-39 35 -68 81 -68 140c0 95 71 188 216 188c98 0 173 -51 201 -71c11 -6 11 -22 6 -29l-53 -78c-8 -12 -19 -14 -33 -4
c-17 12 -81 52 -128 52c-35 0 -60 -21 -60 -46c0 -36 28 -62 102 -92c74 -29 191 -86 191 -214c0 -54 -25 -102 -66 -139c37 -35 66 -80 66 -143c0 -96 -84 -194 -222 -194c-123 0 -189 52 -208 70c-11 11 -13 19 -4 34zM172 254c0 -49 47 -72 115 -100c0 0 28 23 28 71
c0 50 -46 70 -115 100l-4 -4c-8 -9 -24 -31 -24 -67z" />
    <glyph glyph-name="paragraph" unicode="&#xb6;" horiz-adv-x="704" 
d="M225 281c-113 0 -208 92 -208 210c0 114 85 209 194 209l462 -1c10 0 19 -9 19 -19v-60c0 -11 -9 -19 -19 -19h-61v-882c0 -10 -8 -19 -19 -19h-71c-10 0 -19 9 -19 19v882h-126v-882c0 -10 -9 -19 -19 -19h-70c-10 0 -19 9 -19 19v562h-44z" />
    <glyph glyph-name="brokenbar.case" horiz-adv-x="294" 
d="M139 512c-10 0 -19 8 -19 18v331c0 11 9 19 19 19h17c10 0 18 -8 18 -19v-331c0 -10 -9 -18 -19 -18h-16zM120 169c0 11 9 19 19 19h17c10 0 18 -8 18 -19v-331c0 -10 -9 -18 -19 -18h-16c-10 0 -19 8 -19 18v331z" />
    <glyph glyph-name="copyright" unicode="&#xa9;" horiz-adv-x="789" 
d="M35 350c0 198 161 360 359 360s360 -162 360 -360s-162 -360 -360 -360s-359 162 -359 360zM122 350c0 -150 122 -273 272 -273c151 0 272 123 272 273c0 151 -121 272 -272 272c-150 0 -272 -121 -272 -272zM216 348c0 105 84 188 187 188c40 0 82 -12 115 -38
c9 -8 10 -20 2 -29l-48 -48c-6 -6 -17 -8 -24 -3c-14 10 -29 13 -45 13c-45 0 -78 -37 -78 -80c0 -45 33 -80 78 -80c16 0 30 3 44 13c7 5 18 3 24 -3l50 -50c7 -8 7 -20 -1 -28c-35 -30 -74 -42 -117 -42c-103 0 -187 84 -187 187z" />
    <glyph glyph-name="registered" unicode="&#xae;" horiz-adv-x="789" 
d="M35 350c0 198 161 360 359 360s360 -162 360 -360s-162 -360 -360 -360s-359 162 -359 360zM122 350c0 -150 122 -273 272 -273c151 0 272 123 272 273c0 151 -121 272 -272 272c-150 0 -272 -121 -272 -272zM256 187v328c0 10 8 19 19 19h162c62 0 123 -50 123 -130
c0 -62 -34 -93 -67 -112l40 -97c6 -13 -3 -27 -17 -27h-68c-8 0 -16 7 -18 14l-37 106h-39v-101c0 -10 -8 -19 -19 -19h-60c-11 0 -19 9 -19 19zM351 369h69c17 0 32 15 32 33c0 19 -15 33 -32 33h-69v-66z" />
    <glyph glyph-name="trademark" unicode="&#x2122;" horiz-adv-x="721" 
d="M331 378c-13 0 -21 11 -19 23l52 289c1 8 8 15 19 15h4c8 0 13 -4 17 -11l91 -172l92 172c4 8 9 11 17 11h4c9 0 18 -7 19 -15l53 -290c2 -12 -7 -22 -19 -22h-52c-9 0 -18 8 -19 17l-17 105l-59 -116c-3 -5 -7 -9 -16 -9h-6c-8 0 -14 4 -17 10l-57 115l-18 -106
c-1 -8 -11 -16 -19 -16h-50zM138 378c-11 0 -19 9 -19 19v216h-60c-10 0 -19 8 -19 19v49c0 10 9 19 19 19h211c11 0 19 -9 19 -19v-49c0 -11 -8 -19 -19 -19h-60v-216c0 -10 -9 -19 -19 -19h-53z" />
    <glyph glyph-name="currency" unicode="&#xa4;" horiz-adv-x="447" 
d="M96 147l-49 50c-7 7 -7 20 0 27l52 52c-12 30 -12 64 -1 95l-52 53c-7 7 -7 20 0 27l50 49c7 7 19 7 26 0l51 -51c32 14 68 14 101 2l51 51c7 7 20 7 27 -1l49 -49c7 -7 8 -19 1 -26l-51 -51c13 -33 13 -69 -1 -103l51 -51c7 -7 6 -19 -1 -26l-49 -49
c-7 -7 -19 -8 -26 -1l-53 53c-31 -11 -67 -11 -97 1l-52 -52c-7 -7 -20 -7 -27 0zM196 295c16 -16 42 -16 59 1c15 15 15 42 0 58c-17 16 -43 16 -59 0s-16 -43 0 -59z" />
    <glyph glyph-name="Euro" unicode="&#x20ac;" horiz-adv-x="712" 
d="M38 248c-10 0 -18 9 -18 19v17c0 10 8 19 18 19h38c-2 15 -2 30 -2 46v19h-36c-10 0 -18 9 -18 19v17c0 10 8 19 18 19h43c34 164 179 287 354 287c100 0 174 -31 242 -93c9 -8 9 -20 1 -28l-78 -81c-7 -7 -18 -7 -25 0c-37 33 -86 51 -135 51c-89 0 -158 -58 -185 -136
h210c11 0 19 -9 19 -19v-19c0 -10 -8 -18 -19 -18h-221v-14c0 -17 2 -34 6 -50h175c11 0 19 -9 19 -19v-18c0 -10 -8 -18 -19 -18h-154c34 -59 96 -98 170 -98c47 0 98 17 134 48c7 6 20 6 26 -1l78 -83c7 -7 6 -20 -1 -27c-68 -66 -154 -97 -243 -97
c-165 0 -304 108 -347 258h-50z" />
    <glyph glyph-name="cent" unicode="&#xa2;" horiz-adv-x="413" 
d="M154 4c-79 30 -137 104 -137 196c0 118 102 210 216 210c10 0 20 -1 30 -2l11 41c3 10 13 16 23 13l17 -5c10 -2 16 -12 13 -23l-11 -42c25 -12 47 -31 67 -54c7 -9 5 -21 -5 -28l-60 -57c-5 -5 -17 -3 -22 2c-4 4 -9 8 -14 12l-40 -147c31 1 47 15 62 30c5 5 16 9 22 4
l60 -52c9 -8 14 -18 7 -28c-37 -56 -89 -84 -161 -84c-8 0 -17 1 -25 2l-26 -98c-2 -10 -13 -15 -23 -13l-16 5c-10 2 -16 12 -14 22zM189 135l39 145c-39 -5 -70 -39 -70 -80c0 -27 12 -50 31 -65z" />
    <glyph glyph-name="sterling" unicode="&#xa3;" horiz-adv-x="479" 
d="M60 19v18c50 94 50 177 36 252h-43c-10 0 -18 9 -18 19v17c0 10 8 19 18 19h31c-14 54 -29 103 -29 150c0 137 84 216 214 216c86 0 148 -49 173 -71c8 -6 9 -18 2 -26l-63 -76c-6 -8 -18 -8 -26 -3c0 0 -46 39 -83 39c-36 0 -65 -25 -65 -70c0 -37 26 -88 41 -159h92
c11 0 19 -9 19 -19v-18c0 -10 -8 -18 -19 -18h-83c4 -46 4 -97 -9 -155h169c10 0 18 -8 18 -19v-96c0 -10 -8 -19 -18 -19h-338c-10 0 -19 9 -19 19z" />
    <glyph glyph-name="florin" unicode="&#x192;" horiz-adv-x="398" 
d="M117 -92v365h-81c-11 0 -19 9 -19 19v89c0 11 8 19 19 19h81v93c0 137 86 217 214 217c58 0 95 -25 111 -38c6 -6 9 -17 4 -25l-48 -79c-5 -8 -15 -11 -23 -7c0 0 -25 11 -42 11c-36 0 -63 -25 -63 -80v-92h92c11 0 19 -8 19 -19v-89c0 -10 -8 -19 -19 -19h-92v-366
c0 -137 -92 -217 -214 -217c-58 0 -95 25 -111 38c-6 6 -9 17 -4 25l48 79c5 8 15 11 23 7c0 0 25 -11 42 -11c35 0 63 25 63 80z" />
    <glyph glyph-name="yen" unicode="&#xa5;" horiz-adv-x="642" 
d="M140 118c-10 0 -18 9 -18 19v17c0 10 8 19 18 19h101v65h-101c-10 0 -18 9 -18 19v17c0 10 8 19 18 19h101v44l-221 334c-8 13 0 29 16 29h130c8 0 13 -5 16 -9l139 -205l139 205c3 4 7 9 16 9h130c16 0 24 -16 16 -29l-224 -333v-45h99c11 0 19 -9 19 -19v-18
c0 -10 -8 -18 -19 -18h-99v-65h99c11 0 19 -9 19 -19v-18c0 -10 -8 -18 -19 -18h-99v-99c0 -10 -9 -19 -19 -19h-119c-11 0 -19 9 -19 19v99h-101z" />
    <glyph glyph-name="ordfeminine" unicode="&#xaa;" horiz-adv-x="316" 
d="M122 396c-62 0 -105 40 -105 104c0 52 44 93 119 93c30 0 51 -7 51 -7c1 28 -10 43 -41 43c-20 0 -55 -5 -74 -9c-11 -2 -17 4 -18 16l-7 42c-2 14 5 19 11 21c7 2 59 11 100 11c92 0 126 -39 126 -127v-166c0 -7 -7 -14 -14 -14h-33c-5 0 -10 2 -14 10l-10 21
c-18 -17 -43 -38 -91 -38zM149 467c18 0 32 15 32 33c0 17 -14 32 -32 32c-19 0 -32 -15 -32 -32c0 -18 13 -33 32 -33z" />
    <glyph glyph-name="ordmasculine" unicode="&#xba;" horiz-adv-x="302" 
d="M151 394c-84 0 -131 60 -131 158c0 99 47 158 131 158s131 -59 131 -158c0 -98 -47 -158 -131 -158zM151 474c20 0 31 23 31 78c0 56 -11 78 -31 78s-31 -22 -31 -78c0 -55 11 -78 31 -78z" />
    <glyph glyph-name="onesuperior" unicode="&#xb9;" horiz-adv-x="204" 
d="M83 504c-6 0 -10 4 -10 9v184h-54c-5 0 -8 5 -8 11v38c0 5 3 8 8 11l76 43h63c5 0 9 -4 9 -9v-278c0 -5 -4 -9 -9 -9h-75z" />
    <glyph glyph-name="twosuperior" unicode="&#xb2;" horiz-adv-x="267" 
d="M30 504c-6 0 -10 4 -10 9v18l102 123c14 18 20 35 20 47c0 20 -15 29 -31 29c-15 0 -30 -10 -35 -15c-6 -4 -13 -5 -18 4l-22 36c-7 12 -11 16 4 27c9 7 44 28 93 28c58 0 104 -36 104 -94c0 -29 -11 -57 -30 -84l-40 -53h58c5 0 10 -4 10 -9v-57c0 -5 -5 -9 -10 -9h-195
z" />
    <glyph glyph-name="threesuperior" unicode="&#xb3;" horiz-adv-x="256" 
d="M116 494c-54 0 -82 23 -90 29s-9 13 -3 22l23 34c5 7 11 9 20 4c0 0 14 -11 36 -11c24 0 33 9 33 24c0 14 -11 25 -33 25h-33c-8 1 -13 3 -13 16v34c0 12 7 17 18 17h28c15 0 28 9 28 24c0 13 -11 22 -29 22c-12 0 -22 -5 -30 -11c-6 -4 -10 -6 -17 4l-26 35
c-7 9 -4 16 1 21c0 0 31 27 87 27c67 0 110 -32 110 -83c0 -37 -27 -58 -51 -70c23 -9 60 -30 60 -77c0 -57 -57 -86 -119 -86z" />
    <glyph glyph-name="fraction" unicode="&#x2044;" horiz-adv-x="104" 
d="M-74 10c-2 -4 -7 -10 -17 -10h-55c-15 0 -24 14 -17 27l344 663c3 6 9 10 17 10h56c15 0 24 -14 17 -27z" />
    <glyph glyph-name="uni2215" unicode="&#x2215;" horiz-adv-x="104" 
d="M-74 10c-2 -4 -7 -10 -17 -10h-55c-15 0 -24 14 -17 27l344 663c3 6 9 10 17 10h56c15 0 24 -14 17 -27z" />
    <glyph glyph-name="onehalf" unicode="&#xbd;" horiz-adv-x="635" 
d="M72 27l344 663c3 6 9 10 17 10h56c15 0 24 -14 17 -27l-345 -663c-2 -4 -7 -10 -17 -10h-55c-15 0 -24 14 -17 27zM91 404c-6 0 -10 4 -10 9v184h-54c-5 0 -8 5 -8 11v38c0 5 3 8 8 11l76 43h63c5 0 9 -4 9 -9v-278c0 -5 -4 -9 -9 -9h-75zM369 9v18l102 123
c14 18 20 35 20 47c0 20 -15 29 -31 29c-15 0 -30 -10 -35 -15c-6 -4 -13 -5 -18 4l-22 36c-7 12 -11 16 4 27c9 7 44 28 93 28c58 0 104 -36 104 -94c0 -29 -11 -57 -30 -84l-40 -53h58c5 0 10 -4 10 -9v-57c0 -5 -5 -9 -10 -9h-195c-6 0 -10 4 -10 9z" />
    <glyph glyph-name="onethird" unicode="&#x2153;" horiz-adv-x="667" 
d="M103 27l344 663c3 6 9 10 17 10h56c15 0 24 -14 17 -27l-345 -663c-2 -4 -7 -10 -17 -10h-55c-15 0 -24 14 -17 27zM122 404c-6 0 -10 4 -10 9v184h-54c-5 0 -8 5 -8 11v38c0 5 3 8 8 11l76 43h63c5 0 9 -4 9 -9v-278c0 -5 -4 -9 -9 -9h-75zM412 41l23 34c5 7 11 9 20 4
c0 0 14 -11 36 -11c24 0 33 9 33 24c0 14 -11 25 -33 25h-33c-8 1 -13 3 -13 16v34c0 12 7 17 18 17h28c15 0 28 9 28 24c0 13 -11 22 -29 22c-12 0 -22 -5 -30 -11c-6 -4 -10 -6 -17 4l-26 35c-7 9 -4 16 1 21c0 0 31 27 87 27c67 0 110 -32 110 -83c0 -37 -27 -58 -51 -70
c23 -9 60 -30 60 -77c0 -57 -57 -86 -119 -86c-54 0 -82 23 -90 29s-9 13 -3 22z" />
    <glyph glyph-name="onequarter" unicode="&#xbc;" horiz-adv-x="628" 
d="M72 27l344 663c3 6 9 10 17 10h56c15 0 24 -14 17 -27l-345 -663c-2 -4 -7 -10 -17 -10h-55c-15 0 -24 14 -17 27zM91 404c-6 0 -10 4 -10 9v184h-54c-5 0 -8 5 -8 11v38c0 5 3 8 8 11l76 43h63c5 0 9 -4 9 -9v-278c0 -5 -4 -9 -9 -9h-75zM315 64v62l159 167c1 2 5 3 7 3
h51c5 0 9 -4 9 -9v-163h39c5 0 9 -4 9 -8v-51c0 -5 -4 -9 -9 -9h-39v-47c0 -5 -4 -9 -9 -9h-68c-5 0 -10 4 -10 9v47h-130c-5 0 -9 4 -9 8zM404 122h51v65z" />
    <glyph glyph-name="oneeighth" unicode="&#x215b;" horiz-adv-x="667" 
d="M103 27l344 663c3 6 9 10 17 10h56c15 0 24 -14 17 -27l-345 -663c-2 -4 -7 -10 -17 -10h-55c-15 0 -24 14 -17 27zM122 404c-6 0 -10 4 -10 9v184h-54c-5 0 -8 5 -8 11v38c0 5 3 8 8 11l76 43h63c5 0 9 -4 9 -9v-278c0 -5 -4 -9 -9 -9h-75zM388 77c0 50 57 75 61 76v1
c-19 7 -52 29 -52 70c0 51 54 83 116 83c65 0 118 -32 118 -83c0 -40 -32 -64 -52 -70v-1c25 -6 62 -28 62 -76c0 -49 -51 -86 -128 -86c-75 0 -125 37 -125 86zM490 210c0 -13 12 -23 24 -23s23 10 23 23s-11 24 -23 24s-24 -11 -24 -24zM486 89c0 -16 15 -27 29 -27
c13 0 28 9 28 27c0 15 -11 28 -28 28c-15 0 -29 -13 -29 -28z" />
    <glyph glyph-name="twothirds" unicode="&#x2154;" horiz-adv-x="667" 
d="M11 404c-6 0 -10 4 -10 9v18l102 123c14 18 20 35 20 47c0 20 -15 29 -31 29c-15 0 -30 -10 -35 -15c-6 -4 -13 -5 -18 4l-22 36c-7 12 -11 16 4 27c9 7 44 28 93 28c58 0 104 -36 104 -94c0 -29 -11 -57 -30 -84l-40 -53h58c5 0 10 -4 10 -9v-57c0 -5 -5 -9 -10 -9h-195
zM103 27l344 663c3 6 9 10 17 10h56c15 0 24 -14 17 -27l-345 -663c-2 -4 -7 -10 -17 -10h-55c-15 0 -24 14 -17 27zM412 41l23 34c5 7 11 9 20 4c0 0 14 -11 36 -11c24 0 33 9 33 24c0 14 -11 25 -33 25h-33c-8 1 -13 3 -13 16v34c0 12 7 17 18 17h28c15 0 28 9 28 24
c0 13 -11 22 -29 22c-12 0 -22 -5 -30 -11c-6 -4 -10 -6 -17 4l-26 35c-7 9 -4 16 1 21c0 0 31 27 87 27c67 0 110 -32 110 -83c0 -37 -27 -58 -51 -70c23 -9 60 -30 60 -77c0 -57 -57 -86 -119 -86c-54 0 -82 23 -90 29s-9 13 -3 22z" />
    <glyph glyph-name="threequarters" unicode="&#xbe;" horiz-adv-x="655" 
d="M122 394c-54 0 -82 23 -90 29s-9 13 -3 22l23 34c5 7 11 9 20 4c0 0 14 -11 36 -11c24 0 33 9 33 24c0 14 -11 25 -33 25h-33c-8 1 -13 3 -13 16v34c0 12 7 17 18 17h28c15 0 28 9 28 24c0 13 -11 22 -29 22c-12 0 -22 -5 -30 -11c-6 -4 -10 -6 -17 4l-26 35
c-7 9 -4 16 1 21c0 0 31 27 87 27c67 0 110 -32 110 -83c0 -37 -27 -58 -51 -70c23 -9 60 -30 60 -77c0 -57 -57 -86 -119 -86zM99 27l344 663c3 6 9 10 17 10h56c15 0 24 -14 17 -27l-345 -663c-2 -4 -7 -10 -17 -10h-55c-15 0 -24 14 -17 27zM342 64v62l159 167
c1 2 5 3 7 3h51c5 0 9 -4 9 -9v-163h39c5 0 9 -4 9 -8v-51c0 -5 -4 -9 -9 -9h-39v-47c0 -5 -4 -9 -9 -9h-68c-5 0 -10 4 -10 9v47h-130c-5 0 -9 4 -9 8zM431 122h51v65z" />
    <glyph glyph-name="threeeighths" unicode="&#x215c;" horiz-adv-x="691" 
d="M147 394c-54 0 -82 23 -90 29s-9 13 -3 22l23 34c5 7 11 9 20 4c0 0 14 -11 36 -11c24 0 33 9 33 24c0 14 -11 25 -33 25h-33c-8 1 -13 3 -13 16v34c0 12 7 17 18 17h28c15 0 28 9 28 24c0 13 -11 22 -29 22c-12 0 -22 -5 -30 -11c-6 -4 -10 -6 -17 4l-26 35
c-7 9 -4 16 1 21c0 0 31 27 87 27c67 0 110 -32 110 -83c0 -37 -27 -58 -51 -70c23 -9 60 -30 60 -77c0 -57 -57 -86 -119 -86zM124 27l344 663c3 6 9 10 17 10h56c15 0 24 -14 17 -27l-345 -663c-2 -4 -7 -10 -17 -10h-55c-15 0 -24 14 -17 27zM408 77c0 50 57 75 61 76v1
c-19 7 -52 29 -52 70c0 51 54 83 116 83c65 0 118 -32 118 -83c0 -40 -32 -64 -52 -70v-1c25 -6 62 -28 62 -76c0 -49 -51 -86 -128 -86c-75 0 -125 37 -125 86zM510 210c0 -13 12 -23 24 -23s23 10 23 23s-11 24 -23 24s-24 -11 -24 -24zM506 89c0 -16 15 -27 29 -27
c13 0 28 9 28 27c0 15 -11 28 -28 28c-15 0 -29 -13 -29 -28z" />
    <glyph glyph-name="fiveeighths" unicode="&#x215d;" horiz-adv-x="691" 
d="M124 27l344 663c3 6 9 10 17 10h56c15 0 24 -14 17 -27l-345 -663c-2 -4 -7 -10 -17 -10h-55c-15 0 -24 14 -17 27zM139 394c-50 0 -84 24 -96 38c-4 4 -5 9 -1 15l30 39c6 9 12 9 17 4c0 0 19 -18 51 -18c16 0 35 10 35 28s-16 29 -38 29h-72c-10 0 -16 8 -16 15v147
c0 5 4 9 10 9h161c6 0 10 -4 10 -9v-53c0 -5 -4 -9 -10 -9h-96v-29h29c71 0 114 -35 114 -99c0 -63 -50 -107 -128 -107zM408 77c0 50 57 75 61 76v1c-19 7 -52 29 -52 70c0 51 54 83 116 83c65 0 118 -32 118 -83c0 -40 -32 -64 -52 -70v-1c25 -6 62 -28 62 -76
c0 -49 -51 -86 -128 -86c-75 0 -125 37 -125 86zM510 210c0 -13 12 -23 24 -23s23 10 23 23s-11 24 -23 24s-24 -11 -24 -24zM506 89c0 -16 15 -27 29 -27c13 0 28 9 28 27c0 15 -11 28 -28 28c-15 0 -29 -13 -29 -28z" />
    <glyph glyph-name="seveneighths" unicode="&#x215e;" horiz-adv-x="691" 
d="M124 27l344 663c3 6 9 10 17 10h56c15 0 24 -14 17 -27l-345 -663c-2 -4 -7 -10 -17 -10h-55c-15 0 -24 14 -17 27zM88 404c-8 0 -13 2 -13 9v5l108 208h-92c-5 0 -10 4 -10 8v57c0 5 5 9 10 9h198c5 0 10 -4 10 -9v-16l-127 -262c-4 -7 -9 -9 -16 -9h-68zM408 77
c0 50 57 75 61 76v1c-19 7 -52 29 -52 70c0 51 54 83 116 83c65 0 118 -32 118 -83c0 -40 -32 -64 -52 -70v-1c25 -6 62 -28 62 -76c0 -49 -51 -86 -128 -86c-75 0 -125 37 -125 86zM510 210c0 -13 12 -23 24 -23s23 10 23 23s-11 24 -23 24s-24 -11 -24 -24zM506 89
c0 -16 15 -27 29 -27c13 0 28 9 28 27c0 15 -11 28 -28 28c-15 0 -29 -13 -29 -28z" />
    <glyph glyph-name="perthousand" unicode="&#x2030;" horiz-adv-x="986" 
d="M175 441c-75 0 -135 60 -135 135s60 135 135 135c74 0 135 -60 135 -135s-61 -135 -135 -135zM114 27l343 663c4 7 12 10 17 10h76c15 0 24 -14 17 -27l-345 -663c-3 -4 -12 -10 -17 -10h-74c-15 0 -24 14 -17 27zM175 541c18 0 34 16 34 35c0 18 -16 34 -34 34
c-19 0 -35 -16 -35 -34c0 -19 16 -35 35 -35zM675 125c0 75 61 135 135 135c75 0 136 -60 136 -135c0 -74 -61 -135 -136 -135c-74 0 -135 61 -135 135zM375 125c0 75 61 135 135 135c75 0 136 -60 136 -135c0 -74 -61 -135 -136 -135c-74 0 -135 61 -135 135zM776 125
c0 -18 16 -34 34 -34c19 0 35 16 35 34c0 19 -16 35 -35 35c-18 0 -34 -16 -34 -35zM476 125c0 -18 16 -34 34 -34c19 0 35 16 35 34c0 19 -16 35 -35 35c-18 0 -34 -16 -34 -35z" />
    <glyph glyph-name="minus" unicode="&#x2212;" horiz-adv-x="539" 
d="M69 293c-10 0 -19 9 -19 19v70c0 10 9 19 19 19h401c10 0 18 -9 18 -19v-70c0 -10 -8 -19 -18 -19h-401z" />
    <glyph glyph-name="plusminus" unicode="&#xb1;" horiz-adv-x="557" 
d="M244 239c-10 0 -19 8 -19 18v96h-146c-10 0 -19 9 -19 19v70c0 10 9 19 19 19h146v147c0 10 9 18 19 18h70c10 0 19 -8 19 -18v-147h147c10 0 18 -9 18 -19v-70c0 -10 -8 -19 -18 -19h-147v-96c0 -10 -9 -18 -19 -18h-70zM70 58v70c0 10 9 19 19 19h374
c10 0 18 -9 18 -19v-70c0 -10 -8 -19 -18 -19h-374c-10 0 -19 9 -19 19z" />
    <glyph glyph-name="multiply" unicode="&#xd7;" horiz-adv-x="459" 
d="M100 168l-50 50c-7 7 -7 19 0 26l103 103l-103 104c-7 7 -7 19 0 26l49 50c7 7 20 7 27 0l103 -103l104 104c7 7 19 6 26 -1l50 -50c7 -7 8 -19 1 -26l-104 -104l104 -104c7 -7 6 -19 -1 -26l-50 -49c-7 -7 -19 -8 -26 -1l-104 104l-103 -103c-7 -7 -19 -7 -26 0z" />
    <glyph glyph-name="divide" unicode="&#xf7;" horiz-adv-x="494" 
d="M244 471c-41 0 -74 34 -74 75s33 74 74 74s75 -33 75 -74s-34 -75 -75 -75zM47 292c-10 0 -19 9 -19 19v70c0 10 9 19 19 19h401c10 0 18 -9 18 -19v-70c0 -10 -8 -19 -18 -19h-401zM169 154c0 41 33 74 74 74s75 -33 75 -74s-34 -75 -75 -75s-74 34 -74 75z" />
    <glyph glyph-name="notequal" unicode="&#x2260;" horiz-adv-x="477" 
d="M124 48c-9 4 -14 15 -10 24l22 48h-67c-11 0 -19 9 -19 19v71c0 10 8 19 19 19h118l47 102h-165c-11 0 -19 9 -19 19v70c0 10 8 19 19 19h215l35 74c4 10 16 13 25 9l15 -8c10 -3 14 -14 9 -24l-24 -51h64c11 0 19 -9 19 -19v-70c0 -10 -8 -19 -19 -19h-114l-47 -102h161
c11 0 19 -9 19 -19v-71c0 -10 -8 -19 -19 -19h-211l-33 -72c-4 -9 -16 -12 -25 -8z" />
    <glyph glyph-name="approxequal" unicode="&#x2248;" horiz-adv-x="477" 
d="M93 309l-47 41c-4 6 -6 14 -1 19c0 0 55 83 128 83c33 0 54 -18 77 -34c18 -11 36 -27 59 -27c22 0 43 28 54 44c7 8 16 8 24 1l44 -40c4 -5 6 -14 1 -20c0 0 -53 -82 -125 -82c-40 0 -59 21 -85 39c-16 10 -30 21 -49 21c-22 0 -46 -27 -57 -43c-6 -9 -17 -9 -23 -2z
M93 113l-47 41c-4 6 -6 14 -1 19c0 0 55 83 128 83c33 0 54 -18 77 -34c18 -11 36 -27 59 -27c22 0 43 28 54 44c7 8 16 8 24 1l44 -40c4 -5 6 -14 1 -20c0 0 -53 -82 -125 -82c-40 0 -59 21 -85 39c-16 10 -30 21 -49 21c-22 0 -46 -27 -57 -43c-6 -9 -17 -9 -23 -2z" />
    <glyph glyph-name="lessequal" unicode="&#x2264;" horiz-adv-x="458" 
d="M26 383c-5 3 -10 6 -10 17v15c0 9 5 14 10 17l377 182c14 7 28 0 28 -16v-87c0 -7 -4 -12 -8 -14l-208 -88l208 -84c4 -2 8 -7 8 -14v-87c0 -16 -15 -24 -28 -16zM39 39c-10 0 -19 9 -19 19v70c0 10 9 19 19 19h374c10 0 18 -9 18 -19v-70c0 -10 -8 -19 -18 -19h-374z
" />
    <glyph glyph-name="greaterequal" unicode="&#x2265;" horiz-adv-x="458" 
d="M44 208c-13 -8 -28 0 -28 16v87c0 7 4 12 8 14l208 84l-208 88c-4 2 -8 7 -8 14v87c0 16 14 23 28 16l377 -182c5 -3 10 -8 10 -17v-15c0 -11 -5 -14 -10 -17zM34 39c-10 0 -18 9 -18 19v70c0 10 8 19 18 19h374c10 0 19 -9 19 -19v-70c0 -10 -9 -19 -19 -19h-374z" />
    <glyph glyph-name="logicalnot" unicode="&#xac;" horiz-adv-x="549" 
d="M51 293c-10 0 -19 9 -19 19v70c0 10 9 19 19 19h400c11 0 19 -10 19 -19v-236c0 -10 -9 -18 -19 -18h-70c-10 0 -19 8 -19 18v147h-311z" />
    <glyph glyph-name="Delta" unicode="&#x2206;" horiz-adv-x="710" 
d="M29 45l305 654c3 6 10 11 17 11h10c7 0 14 -5 17 -11l304 -656c10 -22 3 -43 -20 -43h-604c-26 0 -44 13 -29 45zM237 144l238 1l-121 260h-1z" />
    <glyph glyph-name="uni0394" unicode="&#x394;" horiz-adv-x="710" 
d="M29 45l305 654c3 6 10 11 17 11h10c7 0 14 -5 17 -11l304 -656c10 -22 3 -43 -20 -43h-604c-26 0 -44 13 -29 45zM237 144l238 1l-121 260h-1z" />
    <glyph glyph-name="Omega" unicode="&#x2126;" horiz-adv-x="781" 
d="M26 19v109c0 10 8 19 19 19h77c-53 38 -92 135 -92 211c0 200 160 352 360 352s360 -152 360 -352c0 -76 -39 -173 -92 -211h77c11 0 19 -9 19 -19v-109c0 -10 -8 -19 -19 -19h-279c-11 0 -19 9 -19 19v65c0 32 9 35 28 46c84 50 125 140 125 219c0 110 -90 201 -200 201
s-200 -91 -200 -201c0 -79 41 -169 125 -219c19 -11 28 -14 28 -46v-65c0 -10 -8 -19 -19 -19h-279c-11 0 -19 9 -19 19z" />
    <glyph glyph-name="uni03A9" unicode="&#x3a9;" horiz-adv-x="781" 
d="M26 19v109c0 10 8 19 19 19h77c-53 38 -92 135 -92 211c0 200 160 352 360 352s360 -152 360 -352c0 -76 -39 -173 -92 -211h77c11 0 19 -9 19 -19v-109c0 -10 -8 -19 -19 -19h-279c-11 0 -19 9 -19 19v65c0 32 9 35 28 46c84 50 125 140 125 219c0 110 -90 201 -200 201
s-200 -91 -200 -201c0 -79 41 -169 125 -219c19 -11 28 -14 28 -46v-65c0 -10 -8 -19 -19 -19h-279c-11 0 -19 9 -19 19z" />
    <glyph glyph-name="mu" unicode="&#xb5;" horiz-adv-x="519" 
d="M199 -7v-274c0 -10 -9 -19 -19 -19h-107c-10 0 -19 9 -19 19v662c0 11 9 19 19 19h107c10 0 19 -8 19 -19v-187c2 -38 25 -67 64 -67s60 33 60 67v187c0 16 11 19 21 19h102c10 0 19 -8 19 -19v-362c0 -10 -9 -19 -19 -19h-47c-9 0 -16 7 -19 14l-15 37
c-26 -25 -58 -61 -135 -61c-11 0 -21 1 -31 3z" />
    <glyph glyph-name="uni03BC" unicode="&#x3bc;" horiz-adv-x="519" 
d="M199 -7v-274c0 -10 -9 -19 -19 -19h-107c-10 0 -19 9 -19 19v662c0 11 9 19 19 19h107c10 0 19 -8 19 -19v-187c2 -38 25 -67 64 -67s60 33 60 67v187c0 16 11 19 21 19h102c10 0 19 -8 19 -19v-362c0 -10 -9 -19 -19 -19h-47c-9 0 -16 7 -19 14l-15 37
c-26 -25 -58 -61 -135 -61c-11 0 -21 1 -31 3z" />
    <glyph glyph-name="pi" unicode="&#x3c0;" horiz-adv-x="703" 
d="M114 19v254h-65c-11 0 -19 9 -19 19v89c0 11 8 19 19 19h577c11 0 19 -8 19 -19v-89c0 -10 -8 -19 -19 -19h-72v-254c0 -10 -9 -19 -19 -19h-115c-10 0 -19 9 -19 19v254h-134v-254c0 -10 -9 -19 -19 -19h-115c-10 0 -19 9 -19 19z" />
    <glyph glyph-name="degree" unicode="&#xb0;" horiz-adv-x="300" 
d="M150 440c-75 0 -135 60 -135 135s60 135 135 135c74 0 135 -60 135 -135s-61 -135 -135 -135zM150 540c18 0 34 16 34 35c0 18 -16 34 -34 34c-19 0 -35 -16 -35 -34c0 -19 16 -35 35 -35z" />
    <glyph glyph-name="afii61289" unicode="&#x2113;" horiz-adv-x="505" 
d="M89 156c0 17 1 33 3 49c-12 -3 -31 -9 -41 -10c-9 -2 -14 3 -15 12l-5 45c-1 7 -4 17 16 21c21 4 41 8 61 15c5 28 9 53 15 81c40 218 104 341 209 341c75 0 119 -54 119 -139c0 -174 -135 -284 -279 -339c-5 -25 -8 -49 -8 -74c0 -47 20 -92 69 -92s95 14 143 43
c17 10 22 9 29 -5l16 -24c9 -16 10 -17 -2 -30c-14 -9 -92 -60 -186 -60c-101 0 -144 80 -144 166zM189 310c108 49 187 136 187 261c0 40 -17 63 -44 63c-60 0 -105 -106 -135 -278z" />
    <glyph glyph-name="estimated" unicode="&#x212e;" horiz-adv-x="823" 
d="M153 172c49 -68 139 -109 230 -109c67 0 139 30 196 79c11 10 19 15 31 3l24 -26c9 -10 6 -19 -7 -32c-69 -65 -154 -97 -244 -97c-203 0 -363 157 -363 359c0 203 160 361 363 361c201 0 361 -162 363 -365c0 -25 -6 -32 -26 -32h-567v-141zM153 384h461v142
c-53 67 -137 110 -231 110c-97 0 -178 -39 -230 -108v-144z" />
    <glyph glyph-name="eng" unicode="&#x14b;" horiz-adv-x="528" 
d="M54 19v362c0 11 9 19 19 19h47c6 0 15 -5 18 -12l16 -40c22 24 68 62 141 62c124 0 190 -95 190 -209v-293c0 -140 -87 -218 -203 -218c-52 0 -105 22 -122 38c-6 5 -8 16 -4 23l42 83c3 7 15 11 23 7c13 -7 32 -16 52 -16c45 0 67 34 67 83v293c0 40 -23 71 -68 71
c-40 0 -76 -25 -76 -66v-187c0 -9 -4 -19 -18 -19h-105c-10 0 -19 9 -19 19z" />
    <glyph glyph-name="Eng" unicode="&#x14a;" horiz-adv-x="773" 
d="M86 19l-1 673c0 10 9 18 19 18h25l399 -390h1v361c0 10 8 19 19 19h120c10 0 19 -9 19 -19l-1 -773c0 -140 -87 -218 -203 -218c-52 0 -105 22 -122 38c-6 5 -8 16 -4 23l42 83c3 7 15 11 23 7c13 -7 32 -16 52 -16c45 0 61 34 61 83v194l-291 290h-1v-373
c0 -10 -8 -19 -19 -19h-119c-10 0 -19 9 -19 19z" />
    <glyph glyph-name="infinity" unicode="&#x221e;" horiz-adv-x="586" 
d="M190 156c-77 0 -140 63 -140 140c0 78 63 140 140 140c40 0 77 -23 102 -50c26 27 63 50 103 50c78 0 141 -62 141 -140c0 -77 -63 -140 -141 -140c-40 0 -77 22 -103 50c-25 -28 -62 -50 -102 -50zM352 296c0 -21 17 -38 38 -38c22 0 39 17 39 38c0 22 -17 39 -39 39
c-21 0 -38 -17 -38 -39zM195 258c22 0 39 17 39 38c0 22 -17 39 -39 39c-21 0 -38 -17 -38 -39c0 -21 17 -38 38 -38z" />
    <glyph glyph-name="partialdiff" unicode="&#x2202;" horiz-adv-x="570" 
d="M50 219c0 148 105 217 199 217c27 0 69 -9 95 -20c-21 103 -154 149 -201 164c-20 6 -23 17 -19 29l29 77c5 14 16 21 31 16c86 -27 336 -146 336 -440c0 -156 -86 -272 -241 -272c-125 0 -229 103 -229 229zM185 224c0 -52 43 -96 96 -96s96 44 96 96
c0 53 -43 97 -96 97s-96 -44 -96 -97z" />
    <glyph glyph-name="integral" unicode="&#x222b;" horiz-adv-x="393" 
d="M111 -92v585c0 137 86 217 214 217c58 0 95 -25 111 -38c6 -6 9 -17 4 -25l-48 -79c-5 -8 -15 -11 -23 -7c0 0 -25 11 -42 11c-36 0 -63 -25 -63 -80v-585c0 -137 -92 -217 -214 -217c-58 0 -95 25 -111 38c-6 6 -9 17 -4 25l48 79c5 8 15 11 23 7c0 0 25 -11 42 -11
c35 0 63 25 63 80z" />
    <glyph glyph-name="radical" unicode="&#x221a;" horiz-adv-x="696" 
d="M242 1l-174 373c-6 13 2 26 17 26h113c8 0 15 -6 17 -11l47 -106h6l185 406c2 5 9 11 17 11h205c11 0 19 -8 19 -19v-89c0 -10 -8 -19 -19 -19h-122l-267 -572c-3 -6 -12 -11 -17 -11h-10c-5 0 -14 5 -17 11z" />
    <glyph glyph-name="summation" unicode="&#x2211;" horiz-adv-x="552" 
d="M50 19v49l265 285l-265 287v41c0 10 8 19 19 19h414c11 0 19 -9 19 -19v-109c0 -10 -8 -19 -19 -19h-184l135 -124c7 -7 19 -19 19 -41v-69c0 -19 -12 -30 -19 -37l-135 -135h184c11 0 19 -9 19 -19v-109c0 -10 -8 -19 -19 -19h-414c-11 0 -19 9 -19 19z" />
    <glyph glyph-name="product" unicode="&#x220f;" horiz-adv-x="698" 
d="M49 19v662c0 10 9 19 19 19h562c10 0 19 -9 19 -19v-662c0 -10 -9 -19 -19 -19h-119c-11 0 -19 9 -19 19v534h-286v-534c0 -10 -8 -19 -19 -19h-119c-10 0 -19 9 -19 19z" />
    <glyph glyph-name="lozenge" unicode="&#x25ca;" horiz-adv-x="710" 
d="M86 314c-18 22 -18 57 6 86l241 299c3 6 10 11 17 11h10c7 0 14 -5 17 -11l242 -299c23 -28 26 -58 -1 -91l-241 -298c-3 -6 -10 -11 -17 -11h-10c-7 0 -14 5 -17 11zM354 198h1l124 157l-124 157h-1l-124 -157z" />
    <glyph glyph-name="uniF8FF" unicode="&#xf8ff;" horiz-adv-x="599" 
d="M50 30v640c0 21 9 30 30 30h439c21 0 30 -9 30 -30v-640c0 -21 -9 -30 -30 -30h-439c-21 0 -30 9 -30 30zM262 314c0 -7 7 -12 14 -12h36c9 0 15 4 15 13v26c0 48 105 63 105 150c0 65 -54 111 -125 111c-87 0 -130 -61 -130 -61c-4 -6 -6 -13 0 -18l22 -22
c6 -4 11 -4 17 0c13 12 36 41 84 41c40 0 61 -25 61 -52c0 -63 -99 -72 -99 -147v-29zM245 156c0 -26 22 -48 48 -48c27 0 49 22 49 48s-22 48 -49 48c-26 0 -48 -22 -48 -48z" />
    <glyph glyph-name="zero.tf" horiz-adv-x="560" 
d="M280 -10c-163 0 -256 131 -256 350s93 350 256 350s256 -131 256 -350s-93 -350 -256 -350zM280 135c61 0 95 73 95 205c0 131 -34 205 -95 205s-95 -74 -95 -205c0 -132 34 -205 95 -205z" />
    <glyph glyph-name="one.tf" horiz-adv-x="560" 
d="M111 0c-11 0 -19 8 -19 18v91c0 11 8 19 19 19h121v341h-96c-10 0 -18 9 -18 19v63c0 4 3 12 6 15l146 114h92c10 0 18 -9 18 -19v-533h90c11 0 19 -8 19 -19v-91c0 -10 -8 -18 -19 -18h-359z" />
    <glyph glyph-name="two.tf" horiz-adv-x="560" 
d="M46 19v20c58 76 206 277 265 367c13 20 26 48 26 76c0 38 -32 72 -88 72c-41 0 -78 -29 -97 -50c-8 -8 -20 -8 -28 0l-61 62c-7 6 -8 18 -1 26c0 0 81 98 200 98c143 0 227 -91 227 -202c0 -53 -15 -83 -39 -130c-32 -57 -114 -164 -161 -230h176c10 0 19 -9 19 -19v-90
c0 -10 -9 -19 -19 -19h-400c-11 0 -19 9 -19 19z" />
    <glyph glyph-name="three.tf" horiz-adv-x="560" 
d="M51 79c-6 7 -5 18 1 25l63 63c7 7 17 8 25 2c0 0 62 -46 110 -46c43 0 87 36 87 80s-45 81 -119 81h-56c-10 0 -19 9 -19 19v83c0 11 9 19 19 19h56c70 0 107 34 107 77s-37 75 -80 75c-44 0 -72 -23 -87 -40c-7 -8 -19 -8 -27 -1l-61 60c-8 7 -7 19 0 26
c0 0 82 88 191 88c116 0 216 -71 216 -183c0 -77 -58 -134 -103 -155v-3c47 -20 121 -82 121 -168c0 -109 -95 -191 -233 -191c-126 0 -190 62 -211 89z" />
    <glyph glyph-name="four.tf" horiz-adv-x="560" 
d="M13 141c-11 0 -19 9 -19 19v106l349 419c3 3 6 6 15 6h72c10 0 19 -8 19 -19l1 -410h79c11 0 19 -8 19 -18v-83c0 -10 -8 -19 -19 -19h-79l1 -123c0 -10 -9 -19 -19 -19h-107c-10 0 -19 9 -19 19v122h-293zM151 265h159v186z" />
    <glyph glyph-name="five.tf" horiz-adv-x="560" 
d="M69 73c-13 15 -14 22 -2 34l63 62c6 6 16 8 24 3c0 0 71 -48 119 -48c54 0 95 40 95 95c0 54 -38 97 -103 97h-154c-20 0 -31 19 -31 35v310c0 10 8 19 19 19h322c11 0 19 -9 19 -19v-88c0 -10 -8 -19 -19 -19h-206v-107h71c138 0 228 -97 228 -228
c0 -125 -107 -229 -247 -229c-104 0 -173 53 -198 83z" />
    <glyph glyph-name="six.tf" horiz-adv-x="560" 
d="M48 262c0 294 250 413 336 440c15 5 26 -2 31 -16l29 -77c4 -12 1 -23 -19 -29c-47 -15 -180 -61 -201 -164c26 11 68 20 95 20c94 0 199 -69 199 -217c0 -126 -104 -229 -229 -229c-155 0 -241 116 -241 272zM191 224c0 -52 43 -96 96 -96s96 44 96 96
c0 53 -43 97 -96 97s-96 -44 -96 -97z" />
    <glyph glyph-name="seven.tf" horiz-adv-x="560" 
d="M75 19v11l250 522h-232c-10 0 -19 9 -19 19v90c0 10 9 19 19 19h422c10 0 19 -9 19 -19v-7l-299 -625c-12 -25 -26 -29 -41 -29h-99c-11 0 -20 8 -20 19z" />
    <glyph glyph-name="eight.tf" horiz-adv-x="560" 
d="M36 181c0 88 103 157 122 168v3c-39 22 -103 76 -103 155c0 112 100 183 222 183c127 0 227 -71 227 -183c0 -76 -64 -129 -103 -154v-4c45 -25 122 -82 122 -168c0 -109 -96 -191 -246 -191c-145 0 -241 82 -241 191zM279 418c47 17 71 49 71 83s-33 65 -71 65
c-37 0 -70 -31 -70 -65c0 -36 23 -65 70 -83zM198 188c0 -44 41 -75 82 -75c40 0 81 32 81 75c0 37 -28 74 -82 92c-52 -18 -81 -55 -81 -92z" />
    <glyph glyph-name="nine.tf" horiz-adv-x="560" 
d="M115 77c-4 12 -1 23 19 29c47 15 180 61 201 164c-26 -11 -68 -20 -95 -20c-94 0 -199 69 -199 217c0 126 104 229 229 229c155 0 241 -116 241 -272c0 -294 -244 -413 -336 -440c-15 -4 -26 2 -31 16zM272 365c53 0 96 44 96 97c0 52 -43 96 -96 96s-96 -44 -96 -96
c0 -53 43 -97 96 -97z" />
    <glyph glyph-name="zerosuperior" unicode="&#x2070;" horiz-adv-x="362" 
d="M181 494c-84 0 -131 60 -131 158c0 99 47 158 131 158s131 -59 131 -158c0 -98 -47 -158 -131 -158zM181 574c20 0 31 23 31 78c0 56 -11 78 -31 78s-31 -22 -31 -78c0 -55 11 -78 31 -78z" />
    <glyph glyph-name="foursuperior" unicode="&#x2074;" horiz-adv-x="374" 
d="M199 504c-5 0 -10 4 -10 9v47h-130c-5 0 -9 4 -9 8v62l159 167c1 2 5 3 7 3h51c5 0 9 -4 9 -9v-163h39c5 0 9 -4 9 -8v-51c0 -5 -4 -9 -9 -9h-39v-47c0 -5 -4 -9 -9 -9h-68zM132 626h58v65z" />
    <glyph glyph-name="fivesuperior" unicode="&#x2075;" horiz-adv-x="328" 
d="M150 494c-50 0 -84 24 -96 38c-4 4 -5 9 -1 15l30 39c6 9 12 9 17 4c0 0 19 -18 51 -18c16 0 35 10 35 28s-16 29 -38 29h-72c-10 0 -16 8 -16 15v147c0 5 4 9 10 9h161c6 0 10 -4 10 -9v-53c0 -5 -4 -9 -10 -9h-96v-29h29c71 0 114 -35 114 -99
c0 -63 -50 -107 -128 -107z" />
    <glyph glyph-name="sixsuperior" unicode="&#x2076;" horiz-adv-x="339" 
d="M173 494c-76 0 -123 50 -123 119c0 136 133 190 169 201c10 3 17 -1 20 -9l15 -40c2 -6 1 -14 -9 -17c-24 -7 -82 -31 -97 -65c0 0 17 12 50 12c44 0 91 -32 91 -97c0 -57 -53 -104 -116 -104zM173 574c16 0 29 12 29 29s-13 30 -29 30s-30 -13 -30 -30s14 -29 30 -29z
" />
    <glyph glyph-name="sevensuperior" unicode="&#x2077;" horiz-adv-x="324" 
d="M63 504c-8 0 -13 2 -13 9v5l108 208h-92c-5 0 -10 4 -10 8v57c0 5 5 9 10 9h198c5 0 10 -4 10 -9v-16l-127 -262c-4 -7 -9 -9 -16 -9h-68z" />
    <glyph glyph-name="eightsuperior" unicode="&#x2078;" horiz-adv-x="353" 
d="M175 494c-75 0 -125 37 -125 86c0 50 57 75 61 76v1c-19 7 -52 29 -52 70c0 51 54 83 116 83c65 0 118 -32 118 -83c0 -40 -32 -64 -52 -70v-1c25 -6 62 -28 62 -76c0 -49 -51 -86 -128 -86zM176 688c13 0 25 11 25 25s-12 26 -25 26s-26 -12 -26 -26s13 -25 26 -25z
M177 562c14 0 31 10 31 30c0 16 -12 31 -31 31c-16 0 -32 -15 -32 -31c0 -18 17 -30 32 -30z" />
    <glyph glyph-name="ninesuperior" unicode="&#x2079;" horiz-adv-x="339" 
d="M120 490c-10 -3 -17 1 -20 9l-15 40c-2 6 -1 14 9 17c24 7 82 31 97 65c0 0 -17 -12 -54 -12c-40 0 -87 34 -87 97c0 57 53 104 116 104c76 0 123 -50 123 -119c0 -136 -133 -190 -169 -201zM166 671c16 0 30 13 30 30s-14 29 -30 29s-29 -12 -29 -29s13 -30 29 -30z" />
    <glyph glyph-name="zeroinferior" unicode="&#x2080;" horiz-adv-x="362" 
d="M50 -2c0 99 47 158 131 158s131 -59 131 -158c0 -98 -47 -158 -131 -158s-131 60 -131 158zM150 -2c0 -55 11 -78 31 -78s31 23 31 78c0 56 -11 78 -31 78s-31 -22 -31 -78z" />
    <glyph glyph-name="oneinferior" unicode="&#x2081;" horiz-adv-x="256" 
d="M58 43c-5 0 -8 5 -8 11v38c0 5 3 8 8 11l76 43h63c5 0 9 -4 9 -9v-278c0 -5 -4 -9 -9 -9h-75c-6 0 -10 4 -10 9v184h-54z" />
    <glyph glyph-name="twoinferior" unicode="&#x2082;" horiz-adv-x="317" 
d="M88 65l-22 36c-7 12 -11 16 4 27c9 7 44 28 93 28c58 0 104 -36 104 -94c0 -29 -11 -57 -30 -84l-40 -53h58c5 0 10 -4 10 -9v-57c0 -5 -5 -9 -10 -9h-195c-6 0 -10 4 -10 9v18l102 123c14 18 20 35 20 47c0 20 -15 29 -31 29c-15 0 -30 -10 -35 -15c-6 -4 -13 -5 -18 4z
" />
    <glyph glyph-name="threeinferior" unicode="&#x2083;" horiz-adv-x="316" 
d="M87 17c0 12 7 17 18 17h28c15 0 28 9 28 24c0 13 -11 22 -29 22c-12 0 -22 -5 -30 -11c-6 -4 -10 -6 -17 4l-26 35c-7 9 -4 16 1 21c0 0 31 27 87 27c67 0 110 -32 110 -83c0 -37 -27 -58 -51 -70c23 -9 60 -30 60 -77c0 -57 -57 -86 -119 -86c-54 0 -82 23 -90 29
s-9 13 -3 22l23 34c5 7 11 9 20 4c0 0 14 -11 36 -11c24 0 33 9 33 24c0 14 -11 25 -33 25h-33c-8 1 -13 3 -13 16v34z" />
    <glyph glyph-name="fourinferior" unicode="&#x2084;" horiz-adv-x="374" 
d="M50 -24l159 167c1 2 5 3 7 3h51c5 0 9 -4 9 -9v-163h39c5 0 9 -4 9 -8v-51c0 -5 -4 -9 -9 -9h-39v-47c0 -5 -4 -9 -9 -9h-68c-5 0 -10 4 -10 9v47h-130c-5 0 -9 4 -9 8v62zM132 -28h58v65z" />
    <glyph glyph-name="fiveinferior" unicode="&#x2085;" horiz-adv-x="328" 
d="M60 -10v147c0 5 4 9 10 9h161c6 0 10 -4 10 -9v-53c0 -5 -4 -9 -10 -9h-96v-29h29c71 0 114 -35 114 -99c0 -63 -50 -107 -128 -107c-50 0 -84 24 -96 38c-4 4 -5 9 -1 15l30 39c6 9 12 9 17 4c0 0 19 -18 51 -18c16 0 35 10 35 28s-16 29 -38 29h-72c-10 0 -16 8 -16 15
z" />
    <glyph glyph-name="sixinferior" unicode="&#x2086;" horiz-adv-x="339" 
d="M50 -41c0 136 133 190 169 201c10 3 17 -1 20 -9l15 -40c2 -6 1 -14 -9 -17c-24 -7 -82 -31 -97 -65c0 0 17 12 50 12c44 0 91 -32 91 -97c0 -57 -53 -104 -116 -104c-76 0 -123 50 -123 119zM143 -51c0 -17 14 -29 30 -29s29 12 29 29s-13 30 -29 30s-30 -13 -30 -30z
" />
    <glyph glyph-name="seveninferior" unicode="&#x2087;" horiz-adv-x="324" 
d="M56 80v57c0 5 5 9 10 9h198c5 0 10 -4 10 -9v-16l-127 -262c-4 -7 -9 -9 -16 -9h-68c-8 0 -13 2 -13 9v5l108 208h-92c-5 0 -10 4 -10 8z" />
    <glyph glyph-name="eightinferior" unicode="&#x2088;" horiz-adv-x="353" 
d="M50 -74c0 50 57 75 61 76v1c-19 7 -52 29 -52 70c0 51 54 83 116 83c65 0 118 -32 118 -83c0 -40 -32 -64 -52 -70v-1c25 -6 62 -28 62 -76c0 -49 -51 -86 -128 -86c-75 0 -125 37 -125 86zM150 59c0 -14 13 -25 26 -25s25 11 25 25s-12 26 -25 26s-26 -12 -26 -26z
M145 -62c0 -18 17 -30 32 -30c14 0 31 10 31 30c0 16 -12 31 -31 31c-16 0 -32 -15 -32 -31z" />
    <glyph glyph-name="nineinferior" unicode="&#x2089;" horiz-adv-x="339" 
d="M50 52c0 57 53 104 116 104c76 0 123 -50 123 -119c0 -136 -133 -190 -169 -201c-10 -3 -17 1 -20 9l-15 40c-2 6 -1 14 9 17c24 7 82 31 97 65c0 0 -17 -12 -54 -12c-40 0 -87 34 -87 97zM137 47c0 -17 13 -30 29 -30s30 13 30 30s-14 29 -30 29s-29 -12 -29 -29z" />
    <glyph glyph-name="zero.denom" horiz-adv-x="362" 
d="M50 148c0 99 47 158 131 158s131 -59 131 -158c0 -98 -47 -158 -131 -158s-131 60 -131 158zM181 70c20 0 31 23 31 78c0 56 -11 78 -31 78s-31 -22 -31 -78c0 -55 11 -78 31 -78z" />
    <glyph glyph-name="one.denom" horiz-adv-x="256" 
d="M112 9v184h-54c-5 0 -8 5 -8 11v38c0 5 3 8 8 11l76 43h63c5 0 9 -4 9 -9v-278c0 -5 -4 -9 -9 -9h-75c-6 0 -10 4 -10 9z" />
    <glyph glyph-name="two.denom" horiz-adv-x="317" 
d="M50 9v18l102 123c14 18 20 35 20 47c0 20 -15 29 -31 29c-15 0 -30 -10 -35 -15c-6 -4 -13 -5 -18 4l-22 36c-7 12 -11 16 4 27c9 7 44 28 93 28c58 0 104 -36 104 -94c0 -29 -11 -57 -30 -84l-40 -53h58c5 0 10 -4 10 -9v-57c0 -5 -5 -9 -10 -9h-195c-6 0 -10 4 -10 9z
" />
    <glyph glyph-name="three.denom" horiz-adv-x="316" 
d="M57 19c-8 6 -9 13 -3 22l23 34c5 7 11 9 20 4c0 0 14 -11 36 -11c24 0 33 9 33 24c0 14 -11 25 -33 25h-33c-8 1 -13 3 -13 16v34c0 12 7 17 18 17h28c15 0 28 9 28 24c0 13 -11 22 -29 22c-12 0 -22 -5 -30 -11c-6 -4 -10 -6 -17 4l-26 35c-7 9 -4 16 1 21
c0 0 31 27 87 27c67 0 110 -32 110 -83c0 -37 -27 -58 -51 -70c23 -9 60 -30 60 -77c0 -57 -57 -86 -119 -86c-54 0 -82 23 -90 29z" />
    <glyph glyph-name="four.denom" horiz-adv-x="374" 
d="M50 64v62l159 167c1 2 5 3 7 3h51c5 0 9 -4 9 -9v-163h39c5 0 9 -4 9 -8v-51c0 -5 -4 -9 -9 -9h-39v-47c0 -5 -4 -9 -9 -9h-68c-5 0 -10 4 -10 9v47h-130c-5 0 -9 4 -9 8zM132 122h58v65z" />
    <glyph glyph-name="five.denom" horiz-adv-x="328" 
d="M54 28c-4 4 -5 9 -1 15l30 39c6 9 12 9 17 4c0 0 19 -18 51 -18c16 0 35 10 35 28s-16 29 -38 29h-72c-10 0 -16 8 -16 15v147c0 5 4 9 10 9h161c6 0 10 -4 10 -9v-53c0 -5 -4 -9 -10 -9h-96v-29h29c71 0 114 -35 114 -99c0 -63 -50 -107 -128 -107c-50 0 -84 24 -96 38z
" />
    <glyph glyph-name="six.denom" horiz-adv-x="339" 
d="M50 109c0 136 133 190 169 201c10 3 17 -1 20 -9l15 -40c2 -6 1 -14 -9 -17c-24 -7 -82 -31 -97 -65c0 0 17 12 50 12c44 0 91 -32 91 -97c0 -57 -53 -104 -116 -104c-76 0 -123 50 -123 119zM143 99c0 -17 14 -29 30 -29s29 12 29 29s-13 30 -29 30s-30 -13 -30 -30z
" />
    <glyph glyph-name="seven.denom" horiz-adv-x="324" 
d="M50 9v5l108 208h-92c-5 0 -10 4 -10 8v57c0 5 5 9 10 9h198c5 0 10 -4 10 -9v-16l-127 -262c-4 -7 -9 -9 -16 -9h-68c-8 0 -13 2 -13 9z" />
    <glyph glyph-name="eight.denom" horiz-adv-x="353" 
d="M50 76c0 50 57 75 61 76v1c-19 7 -52 29 -52 70c0 51 54 83 116 83c65 0 118 -32 118 -83c0 -40 -32 -64 -52 -70v-1c25 -6 62 -28 62 -76c0 -49 -51 -86 -128 -86c-75 0 -125 37 -125 86zM176 184c13 0 25 11 25 25s-12 26 -25 26s-26 -12 -26 -26s13 -25 26 -25z
M145 88c0 -18 17 -30 32 -30c14 0 31 10 31 30c0 16 -12 31 -31 31c-16 0 -32 -15 -32 -31z" />
    <glyph glyph-name="nine.denom" horiz-adv-x="339" 
d="M85 35c-2 6 -1 14 9 17c24 7 82 31 97 65c0 0 -17 -12 -54 -12c-40 0 -87 34 -87 97c0 57 53 104 116 104c76 0 123 -50 123 -119c0 -136 -133 -190 -169 -201c-10 -3 -17 1 -20 9zM166 167c16 0 30 13 30 30s-14 29 -30 29s-29 -12 -29 -29s13 -30 29 -30z" />
    <glyph glyph-name="zero.num" horiz-adv-x="362" 
d="M181 394c-84 0 -131 60 -131 158c0 99 47 158 131 158s131 -59 131 -158c0 -98 -47 -158 -131 -158zM181 474c20 0 31 23 31 78c0 56 -11 78 -31 78s-31 -22 -31 -78c0 -55 11 -78 31 -78z" />
    <glyph glyph-name="one.num" horiz-adv-x="256" 
d="M122 404c-6 0 -10 4 -10 9v184h-54c-5 0 -8 5 -8 11v38c0 5 3 8 8 11l76 43h63c5 0 9 -4 9 -9v-278c0 -5 -4 -9 -9 -9h-75z" />
    <glyph glyph-name="two.num" horiz-adv-x="317" 
d="M60 404c-6 0 -10 4 -10 9v18l102 123c14 18 20 35 20 47c0 20 -15 29 -31 29c-15 0 -30 -10 -35 -15c-6 -4 -13 -5 -18 4l-22 36c-7 12 -11 16 4 27c9 7 44 28 93 28c58 0 104 -36 104 -94c0 -29 -11 -57 -30 -84l-40 -53h58c5 0 10 -4 10 -9v-57c0 -5 -5 -9 -10 -9h-195
z" />
    <glyph glyph-name="three.num" horiz-adv-x="316" 
d="M147 394c-54 0 -82 23 -90 29s-9 13 -3 22l23 34c5 7 11 9 20 4c0 0 14 -11 36 -11c24 0 33 9 33 24c0 14 -11 25 -33 25h-33c-8 1 -13 3 -13 16v34c0 12 7 17 18 17h28c15 0 28 9 28 24c0 13 -11 22 -29 22c-12 0 -22 -5 -30 -11c-6 -4 -10 -6 -17 4l-26 35
c-7 9 -4 16 1 21c0 0 31 27 87 27c67 0 110 -32 110 -83c0 -37 -27 -58 -51 -70c23 -9 60 -30 60 -77c0 -57 -57 -86 -119 -86z" />
    <glyph glyph-name="four.num" horiz-adv-x="374" 
d="M199 404c-5 0 -10 4 -10 9v47h-130c-5 0 -9 4 -9 8v62l159 167c1 2 5 3 7 3h51c5 0 9 -4 9 -9v-163h39c5 0 9 -4 9 -8v-51c0 -5 -4 -9 -9 -9h-39v-47c0 -5 -4 -9 -9 -9h-68zM132 526h58v65z" />
    <glyph glyph-name="five.num" horiz-adv-x="328" 
d="M150 394c-50 0 -84 24 -96 38c-4 4 -5 9 -1 15l30 39c6 9 12 9 17 4c0 0 19 -18 51 -18c16 0 35 10 35 28s-16 29 -38 29h-72c-10 0 -16 8 -16 15v147c0 5 4 9 10 9h161c6 0 10 -4 10 -9v-53c0 -5 -4 -9 -10 -9h-96v-29h29c71 0 114 -35 114 -99
c0 -63 -50 -107 -128 -107z" />
    <glyph glyph-name="six.num" horiz-adv-x="339" 
d="M173 394c-76 0 -123 50 -123 119c0 136 133 190 169 201c10 3 17 -1 20 -9l15 -40c2 -6 1 -14 -9 -17c-24 -7 -82 -31 -97 -65c0 0 17 12 50 12c44 0 91 -32 91 -97c0 -57 -53 -104 -116 -104zM173 474c16 0 29 12 29 29s-13 30 -29 30s-30 -13 -30 -30s14 -29 30 -29z
" />
    <glyph glyph-name="seven.num" horiz-adv-x="324" 
d="M63 404c-8 0 -13 2 -13 9v5l108 208h-92c-5 0 -10 4 -10 8v57c0 5 5 9 10 9h198c5 0 10 -4 10 -9v-16l-127 -262c-4 -7 -9 -9 -16 -9h-68z" />
    <glyph glyph-name="eight.num" horiz-adv-x="353" 
d="M175 394c-75 0 -125 37 -125 86c0 50 57 75 61 76v1c-19 7 -52 29 -52 70c0 51 54 83 116 83c65 0 118 -32 118 -83c0 -40 -32 -64 -52 -70v-1c25 -6 62 -28 62 -76c0 -49 -51 -86 -128 -86zM176 588c13 0 25 11 25 25s-12 26 -25 26s-26 -12 -26 -26s13 -25 26 -25z
M177 462c14 0 31 10 31 30c0 16 -12 31 -31 31c-16 0 -32 -15 -32 -31c0 -18 17 -30 32 -30z" />
    <glyph glyph-name="nine.num" horiz-adv-x="339" 
d="M120 390c-10 -3 -17 1 -20 9l-15 40c-2 6 -1 14 9 17c24 7 82 31 97 65c0 0 -17 -12 -54 -12c-40 0 -87 34 -87 97c0 57 53 104 116 104c76 0 123 -50 123 -119c0 -136 -133 -190 -169 -201zM166 571c16 0 30 13 30 30s-14 29 -30 29s-29 -12 -29 -29s13 -30 29 -30z" />
    <glyph glyph-name="a.alt" 
d="M456 381v-362c0 -10 -9 -19 -19 -19h-47c-10 0 -17 9 -21 20l-12 33s-45 -63 -133 -63c-114 0 -199 92 -199 210c0 115 85 210 198 210c88 0 134 -63 134 -63l12 33c4 11 11 20 21 20h47c10 0 19 -9 19 -19zM162 199c0 -45 35 -80 81 -80s80 35 80 80c0 46 -34 82 -80 82
s-81 -36 -81 -82z" />
    <glyph glyph-name="agrave.alt" 
d="M456 381v-362c0 -10 -9 -19 -19 -19h-47c-10 0 -17 9 -21 20l-12 33s-45 -63 -133 -63c-114 0 -199 92 -199 210c0 115 85 210 198 210c88 0 134 -63 134 -63l12 33c4 11 11 20 21 20h47c10 0 19 -9 19 -19zM162 199c0 -45 35 -80 81 -80s80 35 80 80c0 46 -34 82 -80 82
s-81 -36 -81 -82zM330 512l-182 82c-8 5 -14 15 -6 30l34 59c5 9 20 7 26 3l170 -104c5 -4 10 -11 6 -19l-21 -42c-5 -10 -14 -17 -27 -9z" />
    <glyph glyph-name="aacute.alt" 
d="M456 381v-362c0 -10 -9 -19 -19 -19h-47c-10 0 -17 9 -21 20l-12 33s-45 -63 -133 -63c-114 0 -199 92 -199 210c0 115 85 210 198 210c88 0 134 -63 134 -63l12 33c4 11 11 20 21 20h47c10 0 19 -9 19 -19zM162 199c0 -45 35 -80 81 -80s80 35 80 80c0 46 -34 82 -80 82
s-81 -36 -81 -82zM178 512c-13 -8 -22 -1 -27 9l-21 42c-4 8 1 15 6 19l170 104c6 4 21 6 26 -3l34 -59c8 -15 2 -25 -6 -30z" />
    <glyph glyph-name="acircumflex.alt" 
d="M456 381v-362c0 -10 -9 -19 -19 -19h-47c-10 0 -17 9 -21 20l-12 33s-45 -63 -133 -63c-114 0 -199 92 -199 210c0 115 85 210 198 210c88 0 134 -63 134 -63l12 33c4 11 11 20 21 20h47c10 0 19 -9 19 -19zM162 199c0 -45 35 -80 81 -80s80 35 80 80c0 46 -34 82 -80 82
s-81 -36 -81 -82zM145 512c-11 -6 -16 -4 -22 4l-33 47c-5 7 1 15 6 19l135 104c8 6 18 4 24 0l138 -104c5 -4 10 -11 6 -19l-34 -46c-5 -7 -14 -9 -21 -5l-99 58z" />
    <glyph glyph-name="atilde.alt" 
d="M456 381v-362c0 -10 -9 -19 -19 -19h-47c-10 0 -17 9 -21 20l-12 33s-45 -63 -133 -63c-114 0 -199 92 -199 210c0 115 85 210 198 210c88 0 134 -63 134 -63l12 33c4 11 11 20 21 20h47c10 0 19 -9 19 -19zM162 199c0 -45 35 -80 81 -80s80 35 80 80c0 46 -34 82 -80 82
s-81 -36 -81 -82zM125 555l-35 28c-7 5 -9 16 -6 23c10 18 53 84 107 84c48 0 69 -47 108 -47c16 0 31 20 38 31c5 8 15 11 25 2l34 -26c8 -6 9 -17 1 -29c-10 -17 -47 -78 -100 -78c-52 0 -76 48 -110 48c-18 0 -31 -25 -40 -35c-6 -6 -13 -7 -22 -1z" />
    <glyph glyph-name="adieresis.alt" 
d="M456 381v-362c0 -10 -9 -19 -19 -19h-47c-10 0 -17 9 -21 20l-12 33s-45 -63 -133 -63c-114 0 -199 92 -199 210c0 115 85 210 198 210c88 0 134 -63 134 -63l12 33c4 11 11 20 21 20h47c10 0 19 -9 19 -19zM162 199c0 -45 35 -80 81 -80s80 35 80 80c0 46 -34 82 -80 82
s-81 -36 -81 -82zM353 535c-39 0 -70 32 -70 71s31 70 70 70s71 -31 71 -70s-32 -71 -71 -71zM148 535c-39 0 -70 32 -70 71s31 70 70 70s71 -31 71 -70s-32 -71 -71 -71z" />
    <glyph glyph-name="amacron.alt" 
d="M456 381v-362c0 -10 -9 -19 -19 -19h-47c-10 0 -17 9 -21 20l-12 33s-45 -63 -133 -63c-114 0 -199 92 -199 210c0 115 85 210 198 210c88 0 134 -63 134 -63l12 33c4 11 11 20 21 20h47c10 0 19 -9 19 -19zM162 199c0 -45 35 -80 81 -80s80 35 80 80c0 46 -34 82 -80 82
s-81 -36 -81 -82zM119 563c-11 0 -19 8 -19 18v41c0 11 8 19 19 19h256c11 0 19 -8 19 -19v-41c0 -10 -8 -18 -19 -18h-256z" />
    <glyph glyph-name="abreve.alt" 
d="M456 381v-362c0 -10 -9 -19 -19 -19h-47c-10 0 -17 9 -21 20l-12 33s-45 -63 -133 -63c-114 0 -199 92 -199 210c0 115 85 210 198 210c88 0 134 -63 134 -63l12 33c4 11 11 20 21 20h47c10 0 19 -9 19 -19zM162 199c0 -45 35 -80 81 -80s80 35 80 80c0 46 -34 82 -80 82
s-81 -36 -81 -82zM245 527c-74 0 -132 52 -142 120c-2 12 6 22 19 22h45c8 0 15 -6 17 -12c9 -27 32 -48 61 -48c26 0 50 24 59 48c2 7 10 12 17 12h47c12 0 20 -10 19 -22c-11 -68 -69 -120 -142 -120z" />
    <glyph glyph-name="aring.alt" 
d="M456 381v-362c0 -10 -9 -19 -19 -19h-47c-10 0 -17 9 -21 20l-12 33s-45 -63 -133 -63c-114 0 -199 92 -199 210c0 115 85 210 198 210c88 0 134 -63 134 -63l12 33c4 11 11 20 21 20h47c10 0 19 -9 19 -19zM162 199c0 -45 35 -80 81 -80s80 35 80 80c0 46 -34 82 -80 82
s-81 -36 -81 -82zM247 480c-64 0 -115 51 -115 115s51 115 115 115c63 0 115 -51 115 -115s-52 -115 -115 -115zM247 551c23 0 43 21 43 44s-20 43 -43 43s-44 -20 -44 -43s21 -44 44 -44z" />
    <glyph glyph-name="aringacute.alt" 
d="M456 381v-362c0 -10 -9 -19 -19 -19h-47c-10 0 -17 9 -21 20l-12 33s-45 -63 -133 -63c-114 0 -199 92 -199 210c0 115 85 210 198 210c88 0 134 -63 134 -63l12 33c4 11 11 20 21 20h47c10 0 19 -9 19 -19zM162 199c0 -45 35 -80 81 -80s80 35 80 80c0 46 -34 82 -80 82
s-81 -36 -81 -82zM240 429c-64 0 -115 51 -115 115s51 115 115 115c63 0 115 -51 115 -115s-52 -115 -115 -115zM240 500c23 0 43 21 43 44s-20 43 -43 43s-44 -20 -44 -43s21 -44 44 -44zM169 661c-13 -8 -22 -1 -27 9l-21 42c-4 8 1 15 6 19l170 104c6 4 21 6 26 -3
l34 -59c8 -15 2 -25 -6 -30z" />
    <glyph glyph-name="aogonek.alt" 
d="M456 381v-362c0 -10 -9 -19 -19 -19h-10c-18 -18 -45 -53 -45 -95c0 -36 21 -67 70 -67c17 0 30 4 41 6c13 2 22 -7 22 -19v-33c0 -9 -7 -17 -15 -19c0 0 -35 -8 -63 -8c-76 0 -138 36 -138 114c0 83 70 134 72 135l-14 39s-45 -63 -133 -63c-114 0 -199 92 -199 210
c0 115 85 210 198 210c88 0 134 -63 134 -63l12 33c4 11 11 20 21 20h47c10 0 19 -9 19 -19zM162 199c0 -45 35 -80 81 -80s80 35 80 80c0 46 -34 82 -80 82s-81 -36 -81 -82z" />
    <glyph glyph-name="parenleft.case" horiz-adv-x="344" 
d="M291 -49c-114 8 -254 70 -254 394s140 387 254 393c11 1 20 -8 20 -18l4 -85c0 -7 -6 -17 -13 -19c-84 -26 -115 -120 -115 -271c0 -152 31 -245 115 -272c7 -3 13 -12 13 -19l-4 -84c-1 -11 -8 -19 -20 -19z" />
    <glyph glyph-name="parenright.case" horiz-adv-x="344" 
d="M29 55c0 7 7 16 13 18c84 27 115 120 115 272c0 151 -31 245 -115 271c-7 2 -13 12 -13 19l4 85c0 10 9 19 20 18c114 -6 254 -69 254 -393s-140 -386 -254 -394c-11 0 -20 8 -20 18z" />
    <glyph glyph-name="hyphen.case" horiz-adv-x="359" 
d="M65 268c-11 0 -19 8 -19 18v91c0 11 8 19 19 19h229c11 0 19 -8 19 -19v-91c0 -10 -8 -18 -19 -18h-229z" />
    <glyph glyph-name="bracketleft.case" horiz-adv-x="361" 
d="M198 -63h127c10 0 19 -8 19 -18v-81c0 -10 -9 -19 -19 -19h-246c-10 0 -19 9 -19 19v963c0 10 9 19 19 19h246c10 0 19 -9 19 -19v-80c0 -11 -9 -19 -19 -19h-127v-765z" />
    <glyph glyph-name="bracketright.case" horiz-adv-x="361" 
d="M36 -63h127v765h-127c-10 0 -19 8 -19 19v80c0 10 9 19 19 19h246c10 0 19 -9 19 -19v-963c0 -10 -9 -19 -19 -19h-246c-10 0 -19 9 -19 19v81c0 10 9 18 19 18z" />
    <glyph glyph-name="braceleft.case" horiz-adv-x="393" 
d="M101 101v104c0 45 -45 59 -69 64c-8 1 -15 10 -15 18v58c0 8 7 16 13 18c0 0 71 23 71 64v111c0 239 147 285 250 291c11 1 19 -6 20 -17c2 -30 3 -54 5 -85c0 -8 -7 -17 -14 -19c-70 -18 -110 -72 -110 -170v-91c0 -79 -85 -128 -85 -128v-4c26 -11 85 -48 85 -120v-94
c0 -98 40 -152 110 -170c7 -2 14 -11 14 -19c-1 -35 -1 -55 -5 -85c-1 -10 -10 -18 -20 -17c-103 6 -250 52 -250 291z" />
    <glyph glyph-name="bar.case" horiz-adv-x="174" 
d="M60 -162v1023c0 11 9 19 19 19h17c10 0 18 -8 18 -19v-1023c0 -10 -9 -18 -19 -18h-16c-10 0 -19 8 -19 18z" />
    <glyph glyph-name="braceright.case" horiz-adv-x="393" 
d="M141 101v94c0 72 59 109 85 120v4s-85 49 -85 128v91c0 98 -40 152 -110 170c-7 2 -14 11 -14 19c2 31 3 55 5 85c1 11 9 18 20 17c103 -6 250 -52 250 -291v-111c0 -41 71 -64 71 -64c6 -2 13 -10 13 -18v-58c0 -8 -7 -17 -15 -18c-24 -5 -69 -19 -69 -64v-104
c0 -239 -147 -285 -250 -291c-10 -1 -19 7 -20 17c-4 30 -4 50 -5 85c0 8 7 17 14 19c70 18 110 72 110 170z" />
    <glyph glyph-name="guilsinglleft.case" horiz-adv-x="283" 
d="M125 159l-104 155c-6 8 -4 18 0 24l109 148c3 5 10 12 18 12h79c17 0 23 -15 15 -31l-65 -139l62 -147c7 -16 2 -30 -15 -30h-84c-4 0 -12 4 -15 8z" />
    <glyph glyph-name="guilsinglright.case" horiz-adv-x="283" 
d="M58 151c-17 0 -22 14 -15 30l62 147l-65 139c-8 16 -2 31 15 31h79c8 0 15 -7 18 -12l109 -148c4 -6 6 -16 0 -24l-104 -155c-3 -4 -11 -8 -15 -8h-84z" />
    <glyph glyph-name="guillemotleft.case" horiz-adv-x="501" 
d="M239 314c-6 8 -4 18 0 24l109 148c3 5 10 12 18 12h79c17 0 23 -15 15 -31l-65 -139l62 -147c7 -16 2 -30 -15 -30h-84c-4 0 -12 4 -15 8zM125 159l-104 155c-6 8 -4 18 0 24l109 148c3 5 10 12 18 12h79c17 0 23 -15 15 -31l-65 -139l62 -147c7 -16 2 -30 -15 -30h-84
c-4 0 -12 4 -15 8z" />
    <glyph glyph-name="guillemotright.case" horiz-adv-x="501" 
d="M261 181l62 147l-65 139c-8 16 -2 31 15 31h79c8 0 15 -7 18 -12l109 -148c4 -6 6 -16 0 -24l-104 -155c-3 -4 -11 -8 -15 -8h-84c-17 0 -22 14 -15 30zM58 151c-17 0 -22 14 -15 30l62 147l-65 139c-8 16 -2 31 15 31h79c8 0 15 -7 18 -12l109 -148c4 -6 6 -16 0 -24
l-104 -155c-3 -4 -11 -8 -15 -8h-84z" />
    <glyph glyph-name="endash.case" horiz-adv-x="535" 
d="M63 293c-11 0 -19 8 -19 18v51c0 11 8 19 19 19h409c11 0 19 -8 19 -19v-51c0 -10 -8 -18 -19 -18h-409z" />
    <glyph glyph-name="emdash.case" horiz-adv-x="755" 
d="M63 293c-11 0 -19 8 -19 18v51c0 11 8 19 19 19h629c11 0 19 -8 19 -19v-51c0 -10 -8 -18 -19 -18h-629z" />
    <glyph glyph-name="bullet.case" horiz-adv-x="406" 
d="M201 173c-76 0 -141 65 -141 141c0 79 65 145 141 145c79 0 145 -66 145 -145c0 -76 -66 -141 -145 -141z" />
    <glyph glyph-name="periodcentered.case" horiz-adv-x="276" 
d="M136 239c-57 0 -105 48 -105 105c0 60 48 109 105 109c60 0 109 -49 109 -109c0 -57 -49 -105 -109 -105z" />
    <glyph glyph-name="brokenbar" unicode="&#xa6;" horiz-adv-x="294" 
d="M139 392c-10 0 -19 8 -19 18v331c0 11 9 19 19 19h17c10 0 18 -8 18 -19v-331c0 -10 -9 -18 -19 -18h-16zM120 49c0 11 9 19 19 19h17c10 0 18 -8 18 -19v-331c0 -10 -9 -18 -19 -18h-16c-10 0 -19 8 -19 18v331z" />
    </font>
</defs>
</svg>
