<?xml version="1.0" standalone="no"?>
<!DOCTYPE svg PUBLIC "-//W3C//DTD SVG 1.1//EN" "http://www.w3.org/Graphics/SVG/1.1/DTD/svg11.dtd" >
<svg xmlns="http://www.w3.org/2000/svg" width="100%" height="100%">
<metadata>
Created by FontXChange 20110222 at Fri Dec  5 12:07:12 2014
 By Timothy Brister
Copyright (c) 2009 by Hannes von Dhren. All rights reserved.
</metadata>
<defs>
<font id="BrandonGrotesque-Bold" horiz-adv-x="500" >
  <font-face 
    font-family="BrandonGrotesque"
    font-weight="450"
    font-stretch="normal"
    units-per-em="1000"
    panose-1="2 11 8 3 2 2 3 6 2 2"
    ascent="700"
    descent="-300"
    x-height="400"
    cap-height="700"
    bbox="-157 -383.75 1110.85 1042.59"
    underline-thickness="50"
    underline-position="-50"
    stemh="108"
    stemv="130"
    unicode-range="U+0020-FB02"
  />
<missing-glyph horiz-adv-x="599" 
d="M50 30v640c0 21 9 30 30 30h439c21 0 30 -9 30 -30v-640c0 -21 -9 -30 -30 -30h-439c-21 0 -30 9 -30 30zM262 314c0 -7 7 -12 14 -12h36c9 0 15 4 15 13v26c0 48 105 63 105 150c0 65 -54 111 -125 111c-87 0 -130 -61 -130 -61c-4 -6 -6 -13 0 -18l22 -22
c6 -4 11 -4 17 0c13 12 36 41 84 41c40 0 61 -25 61 -52c0 -63 -99 -72 -99 -147v-29zM245 156c0 -26 22 -48 48 -48c27 0 49 22 49 48s-22 48 -49 48c-26 0 -48 -22 -48 -48z" />
    <glyph glyph-name="fi" unicode="fi" horiz-adv-x="557" 
d="M84 19v276h-34c-11 0 -19 9 -19 19v67c0 11 8 19 19 19h34v109c0 122 85 201 197 201c66 0 128 -29 153 -43c9 -5 11 -17 6 -26l-34 -63c-7 -14 -15 -15 -27 -9c-4 2 -57 28 -97 28c-36 0 -73 -27 -73 -89v-108h269c10 0 19 -8 19 -19v-362c0 -10 -9 -19 -19 -19h-83
c-11 0 -19 9 -19 19v276h-167v-276c0 -19 -23 -19 -38 -19h-68c-10 0 -19 9 -19 19z" />
    <glyph glyph-name="fl" unicode="fl" horiz-adv-x="570" 
d="M84 19v277h-36c-11 0 -19 8 -19 18v66c0 11 8 20 19 20h36v109c0 130 90 201 197 201c87 0 143 -56 143 -56l11 28c5 11 11 18 24 18h32c10 0 19 -9 19 -19v-662c0 -10 -9 -19 -19 -19h-84c-10 0 -19 9 -19 19v528c-5 7 -42 49 -96 49c-42 0 -84 -26 -84 -88v-108h84
c10 0 19 -8 19 -19v-66c0 -10 -9 -19 -19 -19h-84v-277c0 -10 -9 -19 -19 -19h-87c-10 0 -18 9 -18 19z" />
    <glyph glyph-name="f_f" unicode="ff" horiz-adv-x="642" 
d="M84 19v276h-35c-11 0 -19 9 -19 19v67c0 11 8 19 19 19h35v89c0 141 97 211 209 211c69 0 114 -26 139 -46c34 37 81 56 137 56c53 0 100 -23 118 -39c6 -5 8 -16 4 -23l-34 -64c-4 -8 -15 -10 -24 -5c-13 8 -37 20 -59 20c-43 0 -67 -33 -67 -91v-108h100
c11 0 19 -8 19 -19v-67c0 -10 -8 -19 -19 -19h-100v-276c0 -10 -9 -19 -19 -19h-87c-10 0 -19 9 -19 19v276h-173v-276c0 -10 -9 -19 -19 -19h-87c-10 0 -19 9 -19 19zM209 400h173v108c0 16 2 32 4 46c-13 15 -45 35 -86 35c-51 0 -91 -36 -91 -100v-89z" />
    <glyph glyph-name="f_f_i" unicode="ffi" horiz-adv-x="855" 
d="M84 19v276h-34c-11 0 -19 9 -19 19v67c0 11 8 19 19 19h34v89c0 114 73 204 210 211c86 0 132 -41 138 -46c34 37 79 56 144 56c66 0 132 -29 156 -43c9 -5 12 -17 7 -26l-36 -67c-6 -9 -16 -10 -26 -5c-4 2 -56 28 -96 28c-38 0 -73 -27 -73 -89v-108h268
c11 0 19 -8 19 -19v-362c0 -10 -8 -19 -19 -19h-83c-11 0 -19 9 -19 19v276h-166v-276c0 -10 -9 -19 -19 -19h-87c-10 0 -19 9 -19 19v276h-174v-276c0 -10 -9 -19 -19 -19h-87c-10 0 -19 9 -19 19zM209 400h174v108c0 16 1 32 3 46c-13 15 -45 35 -85 35
c-52 0 -92 -36 -92 -100v-89z" />
    <glyph glyph-name="f_f_l" unicode="ffl" horiz-adv-x="869" 
d="M84 19v276h-35c-11 0 -19 9 -19 19v67c0 11 8 19 19 19h35v89c0 141 97 211 209 211c69 0 114 -26 139 -46c34 37 84 56 150 56c84 0 141 -56 141 -56l11 28c4 11 11 18 24 18h32c10 0 19 -9 19 -19v-662c0 -10 -9 -19 -19 -19h-84c-10 0 -19 9 -19 19v528
c-5 7 -42 49 -96 49c-42 0 -84 -26 -84 -88v-108h84c10 0 19 -8 19 -19v-66c0 -10 -9 -19 -19 -19h-84v-277c0 -10 -9 -19 -19 -19h-87c-10 0 -19 9 -19 19v276h-173v-276c0 -10 -9 -19 -19 -19h-87c-10 0 -19 9 -19 19zM209 400h173v108c0 16 2 32 4 46
c-13 15 -45 35 -86 35c-51 0 -91 -36 -91 -100v-89z" />
    <glyph glyph-name="f_f_h" unicode="ffh" horiz-adv-x="1147" 
d="M84 19v276h-35c-11 0 -19 9 -19 19v67c0 11 8 19 19 19h35v84c0 138 91 216 209 216c69 0 114 -26 139 -46c34 37 84 56 150 56c84 0 141 -56 141 -56l11 28c4 11 11 18 24 18h32c10 0 19 -9 19 -19l1 -304c20 15 59 33 106 33c127 0 179 -98 179 -199v-192
c0 -10 -9 -19 -19 -19h-81c-11 0 -19 9 -19 19v191c0 55 -31 90 -79 90c-46 0 -77 -30 -87 -71v-210c0 -11 -6 -19 -21 -19h-83c-10 0 -19 9 -19 19v528c-5 7 -42 49 -96 49c-44 0 -84 -26 -84 -91v-105h84c10 0 19 -8 19 -19v-66c0 -10 -9 -19 -19 -19h-84v-277
c0 -10 -9 -19 -19 -19h-87c-10 0 -19 9 -19 19v276h-173v-276c0 -10 -9 -19 -19 -19h-87c-10 0 -19 9 -19 19zM209 400h173v108c0 16 2 32 4 46c-13 15 -45 35 -86 35c-51 0 -91 -36 -91 -100v-89z" />
    <glyph glyph-name="f_k" unicode="fk" horiz-adv-x="817" 
d="M84 19v277h-36c-11 0 -19 9 -19 19v66c0 11 8 19 19 19h36v109c0 130 93 201 196 201c88 0 144 -56 144 -56l11 28c4 11 11 18 24 18h32c10 0 19 -9 19 -19v-433l139 140c6 6 14 12 25 12h91c17 0 23 -18 13 -29l-149 -152l178 -191c10 -11 4 -28 -13 -28h-109
c-5 0 -13 4 -16 8l-159 180v-169c0 -10 -9 -19 -19 -19h-84c-10 0 -19 9 -19 19v528c-5 7 -42 49 -96 49c-42 0 -84 -26 -84 -88v-108h84c10 0 19 -8 19 -19v-66c0 -10 -9 -19 -19 -19h-84v-277c0 -10 -9 -19 -19 -19h-87c-10 0 -18 9 -18 19z" />
    <glyph glyph-name="f_j" unicode="fj" horiz-adv-x="557" 
d="M84 19v276h-34c-11 0 -19 9 -19 19v67c0 11 8 19 19 19h34v109c0 122 85 201 197 201c66 0 128 -29 153 -43c9 -5 11 -17 6 -26l-34 -63c-7 -14 -15 -15 -27 -9c-4 2 -57 28 -97 28c-36 0 -73 -27 -73 -89v-108h269c10 0 19 -8 19 -19v-489c0 -132 -81 -202 -187 -202
c-53 0 -100 23 -118 39c-6 5 -8 16 -4 23l34 64c4 8 15 10 24 5c13 -8 37 -20 59 -20c45 0 69 33 69 91v403h-165v-276c0 -10 -9 -19 -19 -19h-87c-10 0 -19 9 -19 19z" />
    <glyph glyph-name="f_f_j" unicode="ffj" horiz-adv-x="855" 
d="M84 19v276h-34c-11 0 -19 9 -19 19v67c0 11 8 19 19 19h34v84c0 138 89 216 210 216c86 0 132 -41 138 -46c34 37 79 56 144 56c66 0 131 -29 156 -43c9 -5 12 -17 7 -26l-36 -67c-6 -9 -16 -10 -26 -5c-4 2 -56 28 -96 28c-45 0 -73 -32 -73 -101v-96h268
c11 0 19 -8 19 -19v-475c0 -16 -1 -32 -3 -47c-12 -112 -87 -169 -183 -169c-75 0 -136 38 -122 62l33 64c4 8 15 10 24 5c13 -8 37 -20 59 -20c45 0 70 33 70 91v403h-165v-276c0 -10 -9 -19 -19 -19h-87c-10 0 -19 9 -19 19v276h-174v-276c0 -10 -9 -19 -19 -19h-87
c-10 0 -19 9 -19 19zM209 400h174v101c0 23 1 39 3 53c-13 15 -45 35 -85 35c-52 0 -92 -36 -92 -100v-89z" />
    <glyph glyph-name="f_b" unicode="fb" horiz-adv-x="828" 
d="M84 19v277h-36c-11 0 -19 9 -19 19v66c0 11 8 19 19 19h36v108c0 113 78 202 196 202c88 0 144 -56 144 -56l11 28c4 11 11 18 24 18h32c10 0 19 -9 19 -19v-290c18 7 50 19 85 19c113 0 203 -93 203 -210c0 -115 -83 -210 -192 -210c-84 0 -131 60 -131 60l-10 -31
c-3 -11 -10 -19 -19 -19h-39c-10 0 -19 9 -19 19v528c-5 7 -42 49 -96 49c-42 0 -84 -26 -84 -88v-108h84c10 0 19 -8 19 -19v-66c0 -10 -9 -19 -19 -19h-84v-277c0 -10 -9 -19 -19 -19h-87c-10 0 -18 9 -18 19zM507 159c4 -21 31 -61 82 -61c55 0 93 46 93 102
s-41 100 -97 100c-50 0 -78 -23 -78 -23v-118z" />
    <glyph glyph-name="f_f_k" unicode="ffk" horiz-adv-x="1116" 
d="M84 19v276h-35c-11 0 -19 9 -19 19v67c0 11 8 19 19 19h35v89c0 141 97 211 209 211c69 0 114 -26 139 -46c34 37 84 56 148 56c86 0 143 -56 143 -56l13 33c2 6 9 13 18 13h36c10 0 19 -9 19 -19v-433l139 140c6 6 14 12 25 12h91c17 0 23 -18 13 -29l-149 -152
l178 -191c10 -11 4 -28 -13 -28h-109c-5 0 -13 4 -16 8l-159 180v-169c0 -10 -9 -19 -19 -19h-84c-10 0 -19 9 -19 19v528c-5 7 -42 49 -96 49c-42 0 -84 -26 -84 -88v-108h84c10 0 19 -8 19 -19v-66c0 -10 -9 -19 -19 -19h-84v-277c0 -10 -9 -19 -19 -19h-87
c-10 0 -19 9 -19 19v276h-173v-276c0 -10 -9 -19 -19 -19h-87c-10 0 -19 9 -19 19zM209 400h173v108c0 16 2 32 4 46c-13 15 -45 35 -86 35c-51 0 -91 -36 -91 -100v-89z" />
    <glyph glyph-name="f_h" unicode="fh" horiz-adv-x="848" 
d="M84 19v277h-36c-11 0 -19 9 -19 19v66c0 11 8 19 19 19h36v108c0 115 79 202 199 202c85 0 141 -56 141 -56l11 28c4 11 11 18 24 18h32c10 0 19 -9 19 -19l1 -304c20 15 59 33 106 33c127 0 179 -98 179 -199v-192c0 -10 -9 -19 -19 -19h-81c-11 0 -19 9 -19 19v191
c0 55 -31 90 -79 90c-46 0 -77 -30 -87 -71v-210c0 -11 -6 -19 -21 -19h-83c-10 0 -19 9 -19 19v528c-5 7 -42 49 -96 49c-42 0 -84 -26 -84 -88v-108h84c10 0 19 -8 19 -19v-66c0 -10 -9 -19 -19 -19h-84v-277c0 -10 -9 -19 -19 -19h-87c-10 0 -18 9 -18 19z" />
    <glyph glyph-name="f_f_b" unicode="ffb" horiz-adv-x="1127" 
d="M84 19v276h-35c-11 0 -19 9 -19 19v67c0 11 8 19 19 19h35v88c0 123 81 212 209 212c69 0 114 -26 139 -46c34 37 84 56 148 56c86 0 143 -56 143 -56l11 28c4 11 11 18 24 18h32c10 0 19 -9 19 -19v-290c18 7 50 19 85 19c113 0 203 -93 203 -210
c0 -115 -83 -210 -192 -210c-84 0 -131 60 -131 60l-10 -31c-3 -11 -10 -19 -19 -19h-39c-10 0 -19 9 -19 19v528c-5 7 -42 49 -96 49c-42 0 -84 -26 -84 -88v-108h84c10 0 19 -8 19 -19v-66c0 -10 -9 -19 -19 -19h-84v-277c0 -10 -9 -19 -19 -19h-87c-10 0 -19 9 -19 19
v276h-173v-276c0 -10 -9 -19 -19 -19h-87c-10 0 -19 9 -19 19zM209 400h173v108c0 16 2 32 4 46c-13 15 -45 35 -86 35c-51 0 -91 -36 -91 -100v-89zM806 159c4 -21 31 -61 82 -61c55 0 93 46 93 102s-41 100 -97 100c-50 0 -78 -23 -78 -23v-118z" />
    <glyph glyph-name=".notdef" horiz-adv-x="599" 
d="M50 30v640c0 21 9 30 30 30h439c21 0 30 -9 30 -30v-640c0 -21 -9 -30 -30 -30h-439c-21 0 -30 9 -30 30zM262 314c0 -7 7 -12 14 -12h36c9 0 15 4 15 13v26c0 48 105 63 105 150c0 65 -54 111 -125 111c-87 0 -130 -61 -130 -61c-4 -6 -6 -13 0 -18l22 -22
c6 -4 11 -4 17 0c13 12 36 41 84 41c40 0 61 -25 61 -52c0 -63 -99 -72 -99 -147v-29zM245 156c0 -26 22 -48 48 -48c27 0 49 22 49 48s-22 48 -49 48c-26 0 -48 -22 -48 -48z" />
    <glyph glyph-name=".null" horiz-adv-x="0" 
 />
    <glyph glyph-name="CR" horiz-adv-x="0" 
 />
    <glyph glyph-name="space" unicode=" " horiz-adv-x="221" 
 />
    <glyph glyph-name="exclam" unicode="!" horiz-adv-x="310" 
d="M139 272c-9 0 -18 8 -19 16l-39 279v114c0 10 9 19 19 19h110c10 0 19 -9 19 -19v-112l-39 -281c-1 -8 -10 -16 -19 -16h-32zM73 72c0 45 37 83 81 83c46 0 83 -38 83 -83s-37 -82 -83 -82c-44 0 -81 37 -81 82z" />
    <glyph glyph-name="quotedbl" unicode="&#x22;" horiz-adv-x="343" 
d="M226 501c-10 0 -19 9 -19 19v161c0 10 9 19 19 19h80c13 0 22 -11 18 -25l-41 -159c-2 -8 -11 -15 -18 -15h-39zM55 501c-10 0 -19 9 -19 19v161c0 10 9 19 19 19h80c13 0 22 -11 18 -25l-41 -159c-2 -8 -11 -15 -18 -15h-39z" />
    <glyph glyph-name="numbersign" unicode="#" horiz-adv-x="538" 
d="M104 22l23 166h-71c-11 0 -19 9 -19 19v14c0 11 8 19 19 19h78l23 164h-72c-10 0 -19 9 -19 19v14c0 10 9 19 19 19h79l32 228c1 8 9 16 18 16h14c11 0 20 -10 18 -22l-30 -222h158l33 228c1 8 10 16 19 16h12c12 0 21 -10 19 -22l-32 -222h64c11 0 19 -9 19 -19v-14
c0 -10 -8 -19 -19 -19h-71l-23 -164h65c10 0 19 -8 19 -19v-14c0 -10 -9 -19 -19 -19h-73l-22 -172c-1 -9 -9 -16 -19 -16h-13c-12 0 -20 10 -19 22l22 166h-159l-23 -172c-1 -9 -10 -16 -19 -16h-12c-13 0 -21 10 -19 22zM185 240h159l22 164h-158z" />
    <glyph glyph-name="dollar" unicode="$" horiz-adv-x="525" 
d="M46 68c-9 9 -15 15 -5 30c19 31 43 90 71 69c4 -3 64 -47 124 -62c0 65 1 127 1 192c-93 37 -199 90 -199 222c0 95 63 179 200 190v32c0 11 9 19 19 19h13c10 0 19 -8 19 -19v-33c89 -7 156 -52 174 -65c10 -6 13 -22 6 -33c-20 -30 -49 -85 -72 -69
c-7 3 -59 39 -108 54v-180c87 -36 206 -96 206 -227c0 -109 -74 -189 -208 -197v-104c0 -11 -9 -18 -20 -18c-12 0 -31 1 -31 18v104c-108 8 -172 60 -190 77zM235 437v161c-50 -6 -75 -35 -75 -65c0 -40 24 -69 75 -96zM289 99c43 7 75 36 75 75s-25 71 -75 100v-175z" />
    <glyph glyph-name="percent" unicode="%" horiz-adv-x="662" 
d="M157 440c-75 0 -135 60 -135 135s60 135 135 135c74 0 135 -60 135 -135s-61 -135 -135 -135zM104 27l343 663c3 6 9 10 17 10h50c15 0 24 -14 17 -27l-345 -663c-2 -4 -9 -10 -17 -10h-48c-15 0 -24 14 -17 27zM157 526c26 0 48 22 48 49c0 26 -22 48 -48 48
c-27 0 -49 -22 -49 -48c0 -27 22 -49 49 -49zM351 125c0 75 61 135 135 135c75 0 136 -60 136 -135s-61 -135 -136 -135c-74 0 -135 60 -135 135zM437 125c0 -27 22 -49 49 -49c26 0 49 22 49 49c0 26 -23 48 -49 48c-27 0 -49 -22 -49 -48z" />
    <glyph glyph-name="ampersand" unicode="&#x26;" horiz-adv-x="689" 
d="M74 178c0 132 120 190 138 201v2l-21 23c-40 42 -69 85 -68 144c0 76 63 162 189 162c112 0 189 -73 189 -163c0 -103 -102 -164 -122 -182l115 -116c16 32 29 73 36 111c4 21 10 32 33 25l55 -16c26 -7 19 -29 17 -39c-17 -72 -49 -135 -62 -159l89 -84
c12 -12 22 -23 -2 -46l-41 -42c-12 -11 -28 -13 -44 3l-72 73c-18 -21 -88 -85 -218 -85c-127 0 -211 86 -211 188zM308 436c15 9 85 43 85 105c0 38 -33 75 -85 75c-46 0 -74 -31 -74 -68c-1 -35 22 -58 52 -90zM193 191c0 -55 46 -94 105 -94c75 0 114 42 129 59l-149 158
c-16 -10 -85 -43 -85 -123z" />
    <glyph glyph-name="quotesingle" unicode="'" horiz-adv-x="172" 
d="M55 501c-10 0 -19 9 -19 19v161c0 10 9 19 19 19h80c13 0 22 -11 18 -25l-41 -159c-2 -8 -11 -15 -18 -15h-39z" />
    <glyph glyph-name="parenleft" unicode="(" horiz-adv-x="342" 
d="M291 -79c-114 8 -248 80 -248 394s134 388 248 394c11 1 19 -6 19 -15l3 -66c1 -8 -5 -17 -12 -18c-98 -26 -135 -129 -135 -295c0 -167 37 -268 135 -294c9 -2 13 -11 12 -19l-3 -65c-1 -10 -8 -16 -19 -16z" />
    <glyph glyph-name="parenright" unicode=")" horiz-adv-x="343" 
d="M29 2c-1 8 3 17 12 19c98 26 135 127 135 294c0 166 -37 269 -135 295c-7 1 -13 10 -12 18l3 66c0 9 8 16 19 15c114 -6 248 -80 248 -394s-134 -386 -248 -394c-11 0 -18 6 -19 16z" />
    <glyph glyph-name="asterisk" unicode="*" horiz-adv-x="350" 
d="M159 370c-10 0 -19 9 -19 19l2 87l-72 -50c-8 -6 -21 -3 -26 5l-17 27c-6 9 -4 21 5 27l83 50l-83 50c-9 6 -11 18 -6 27c8 11 12 18 19 27c5 7 17 10 25 4l72 -50l-2 88c0 10 9 19 19 19h32c10 0 19 -9 19 -19l-2 -88l72 51c8 5 21 3 26 -5l17 -27c6 -9 5 -21 -5 -27
l-83 -50l83 -51c10 -6 11 -18 6 -26l-19 -27c-5 -9 -17 -11 -25 -6l-72 50l2 -86c0 -10 -9 -19 -19 -19h-32z" />
    <glyph glyph-name="plus" unicode="+" horiz-adv-x="560" 
d="M233 150v149h-150c-10 0 -19 9 -19 19v56c0 10 9 19 19 19h150v151c0 10 9 18 19 18h56c10 0 19 -8 19 -18v-151h151c10 0 18 -9 18 -19v-56c0 -10 -8 -19 -18 -19h-151v-149c0 -10 -9 -18 -19 -18h-56c-10 0 -19 8 -19 18z" />
    <glyph glyph-name="comma" unicode="," horiz-adv-x="259" 
d="M36 71c0 45 37 83 88 83c43 0 101 -32 101 -131c0 -123 -77 -193 -114 -216c-9 -6 -16 -7 -25 2l-15 16c-7 8 -6 19 4 27c11 10 80 62 80 146c-1 0 -17 -8 -38 -8c-44 0 -81 37 -81 81z" />
    <glyph glyph-name="hyphen" unicode="-" horiz-adv-x="369" 
d="M73 192c-11 0 -19 8 -19 18v67c0 11 8 19 19 19h223c11 0 19 -8 19 -19v-67c0 -10 -8 -18 -19 -18h-223z" />
    <glyph glyph-name="period" unicode="." horiz-adv-x="235" 
d="M35 72c0 45 37 83 82 83s83 -38 83 -83s-38 -82 -83 -82s-82 37 -82 82z" />
    <glyph glyph-name="slash" unicode="/" horiz-adv-x="353" 
d="M29 25l196 662c2 7 10 13 18 13h72c14 0 22 -11 18 -25l-195 -662c-2 -7 -11 -13 -18 -13h-73c-13 0 -22 11 -18 25z" />
    <glyph glyph-name="zero" unicode="0" horiz-adv-x="626" 
d="M313 -10c-160 0 -252 131 -252 350s92 350 252 350s252 -131 252 -350s-92 -350 -252 -350zM313 108c77 0 121 83 121 232c0 148 -44 232 -121 232s-121 -84 -121 -232c0 -149 44 -232 121 -232z" />
    <glyph glyph-name="one" unicode="1" horiz-adv-x="357" 
d="M141 19v479l-88 -19c-9 -2 -19 4 -20 13l-6 49c-1 8 1 14 5 18l144 121h70c10 0 18 -9 18 -19v-642c0 -10 -8 -19 -18 -19h-86c-11 0 -19 9 -19 19z" />
    <glyph glyph-name="two" unicode="2" horiz-adv-x="518" 
d="M31 19v23c66 80 192 244 259 333c31 38 51 77 51 111c0 45 -34 91 -106 91c-48 0 -89 -34 -112 -59c-8 -8 -19 -8 -27 0l-48 48c-6 6 -8 18 -1 26c0 0 78 98 197 98c143 0 223 -91 223 -199c0 -65 -28 -106 -67 -162c-43 -61 -119 -155 -172 -222h216c10 0 19 -9 19 -19
v-69c0 -10 -9 -19 -19 -19h-394c-11 0 -19 9 -19 19z" />
    <glyph glyph-name="three" unicode="3" horiz-adv-x="522" 
d="M36 79c-6 7 -5 18 1 25l51 49c9 8 18 8 26 0c3 -4 62 -54 123 -54c54 0 106 39 106 94c0 52 -48 99 -138 99h-56c-11 0 -19 8 -19 20v63c0 13 7 20 19 20h56c82 0 124 41 124 92c0 55 -46 92 -97 92c-52 0 -84 -28 -101 -48c-7 -8 -18 -9 -27 -1l-49 46c-8 7 -7 19 0 26
c0 0 76 88 188 88c116 0 213 -71 213 -183c0 -77 -58 -135 -103 -156v-3c47 -20 121 -74 121 -163c0 -113 -92 -195 -230 -195c-125 0 -186 63 -208 89z" />
    <glyph glyph-name="four" unicode="4" horiz-adv-x="597" 
d="M35 145c-11 0 -19 9 -19 19v83l360 438c3 3 8 6 15 6h54c10 0 19 -8 19 -19v-426h80c11 0 19 -8 19 -18v-62c0 -10 -8 -19 -19 -19h-80l1 -128c0 -10 -9 -19 -19 -19h-83c-10 0 -19 9 -19 19v126h-309zM148 249h200v240z" />
    <glyph glyph-name="five" unicode="5" horiz-adv-x="528" 
d="M57 73c-13 15 -14 22 -2 34l50 49c7 6 16 8 24 1c4 -4 62 -56 129 -56c68 0 116 55 116 118c0 62 -42 112 -121 112h-154c-20 0 -31 19 -31 35v295c0 10 8 19 19 19h316c11 0 19 -9 19 -19v-68c0 -10 -8 -19 -19 -19h-222v-133h86c142 0 229 -91 229 -222
c0 -125 -104 -229 -242 -229c-107 0 -172 53 -197 83z" />
    <glyph glyph-name="six" unicode="6" horiz-adv-x="539" 
d="M43 266c0 292 247 408 333 436c14 4 24 -1 28 -14l23 -59c5 -12 1 -23 -18 -29c-47 -15 -189 -82 -220 -192c17 10 67 28 114 28c100 0 204 -74 204 -217c0 -126 -103 -229 -226 -229c-157 0 -238 126 -238 276zM280 104c63 0 114 54 114 117c0 64 -51 117 -115 117
c-66 0 -105 -51 -116 -87c0 -68 36 -147 117 -147z" />
    <glyph glyph-name="seven" unicode="7" horiz-adv-x="484" 
d="M53 19v11l260 542h-264c-10 0 -19 9 -19 19v70c0 10 9 19 19 19h416c10 0 19 -9 19 -19v-7l-298 -627c-7 -16 -17 -27 -34 -27h-74c-12 0 -25 3 -25 19z" />
    <glyph glyph-name="eight" unicode="8" horiz-adv-x="567" 
d="M47 182c0 87 93 153 121 167v3c-41 22 -103 77 -103 155c0 111 96 183 217 183c125 0 221 -72 221 -183c0 -76 -62 -130 -103 -154v-4c45 -23 121 -81 121 -167c0 -109 -92 -192 -239 -192c-143 0 -235 83 -235 192zM284 407c62 14 91 52 91 95c0 48 -41 85 -93 85
c-48 0 -89 -37 -89 -85c0 -45 28 -80 91 -95zM180 184c0 -55 50 -92 104 -92c55 0 104 37 104 92c0 45 -37 91 -104 106c-67 -15 -104 -61 -104 -106z" />
    <glyph glyph-name="nine" unicode="9" horiz-adv-x="539" 
d="M112 57c-5 12 -1 23 18 29c47 15 189 82 220 192c-17 -10 -67 -28 -114 -28c-100 0 -204 74 -204 217c0 126 103 229 226 229c157 0 238 -126 238 -276c0 -292 -247 -408 -333 -436c-14 -4 -24 1 -28 14zM260 348c66 0 105 51 116 87c0 68 -36 147 -117 147
c-63 0 -114 -54 -114 -117c0 -64 51 -117 115 -117z" />
    <glyph glyph-name="colon" unicode=":" horiz-adv-x="268" 
d="M134 266c-40 0 -72 32 -72 72s32 72 72 72s72 -32 72 -72s-32 -72 -72 -72zM62 62c0 40 32 72 72 72s72 -32 72 -72s-32 -72 -72 -72s-72 32 -72 72z" />
    <glyph glyph-name="semicolon" unicode=";" horiz-adv-x="247" 
d="M119 266c-40 0 -72 32 -72 72s32 72 72 72s72 -32 72 -72s-32 -72 -72 -72zM51 57c0 36 30 67 71 67c36 0 83 -26 83 -108c0 -97 -64 -158 -90 -181c-8 -6 -15 -7 -23 1l-14 15c-7 7 -5 16 2 22c10 7 68 53 68 122c-1 0 -14 -5 -30 -5c-37 0 -67 30 -67 67z" />
    <glyph glyph-name="less" unicode="&#x3c;" horiz-adv-x="436" 
d="M29 210c-5 3 -10 11 -10 17v5c0 6 5 14 10 17l347 212c13 8 28 0 28 -16v-70c0 -9 -5 -13 -9 -16l-215 -128l215 -124c4 -3 9 -7 9 -16v-70c0 -16 -15 -24 -28 -16z" />
    <glyph glyph-name="equal" unicode="=" horiz-adv-x="488" 
d="M81 338c-11 0 -19 9 -19 19v56c0 10 8 19 19 19h326c11 0 19 -9 19 -19v-56c0 -10 -8 -19 -19 -19h-326zM81 127c-11 0 -19 9 -19 19v57c0 10 8 19 19 19h326c11 0 19 -9 19 -19v-57c0 -10 -8 -19 -19 -19h-326z" />
    <glyph glyph-name="greater" unicode="&#x3e;" horiz-adv-x="436" 
d="M32 21v70c0 9 4 13 9 16l214 124l-214 128c-5 3 -9 7 -9 16v70c0 16 15 24 28 16l347 -212c5 -3 10 -11 10 -17v-5c0 -6 -5 -14 -10 -17l-347 -205c-13 -8 -28 0 -28 16z" />
    <glyph glyph-name="question" unicode="?" horiz-adv-x="449" 
d="M165 272c-10 0 -19 8 -19 19v42c0 95 139 131 139 201c0 36 -30 67 -80 67c-61 0 -88 -39 -108 -52c-8 -5 -15 -5 -22 1l-47 46c-8 7 -7 19 0 26c0 0 68 88 196 88c105 0 194 -70 194 -168c0 -121 -152 -156 -152 -216v-33c0 -12 -7 -21 -20 -21h-81zM123 72
c0 45 37 83 82 83s83 -38 83 -83s-38 -82 -83 -82s-82 37 -82 82z" />
    <glyph glyph-name="at" unicode="@" horiz-adv-x="986" 
d="M32 223c0 284 192 487 476 487c277 0 436 -181 436 -422c0 -132 -59 -298 -227 -298c-69 0 -103 36 -119 78h-8c-21 -42 -67 -78 -130 -78c-105 0 -181 96 -181 211c0 120 77 209 184 209c64 0 105 -42 121 -59c12 33 10 49 47 49h17c10 0 19 -8 19 -19v-183
c0 -90 29 -106 62 -106c65 0 103 90 103 191c0 183 -109 324 -328 324c-221 0 -363 -147 -363 -384c0 -163 100 -293 241 -352c11 -5 15 -13 11 -24l-24 -63c-4 -10 -12 -15 -22 -11c-181 66 -315 240 -315 450zM383 208c-4 -64 39 -111 87 -111c64 0 83 54 85 109v37
c-5 24 -38 66 -86 66s-83 -41 -86 -101z" />
    <glyph glyph-name="A" unicode="A" horiz-adv-x="663" 
d="M17 0c-15 0 -23 13 -17 26l311 673c3 6 8 11 17 11h10c10 0 14 -5 17 -11l308 -673c6 -13 -2 -26 -17 -26h-87c-15 0 -22 6 -29 20l-49 108h-299l-49 -108c-4 -10 -13 -20 -29 -20h-87zM231 239h201l-100 220h-3z" />
    <glyph glyph-name="B" unicode="B" horiz-adv-x="617" 
d="M91 19v662c0 10 8 19 19 19h229c119 0 211 -80 211 -185c0 -77 -63 -137 -110 -159c53 -17 130 -71 130 -163c0 -112 -96 -193 -218 -193h-242c-11 0 -19 9 -19 19zM220 406h107c51 0 86 40 86 90s-35 85 -86 85h-107v-175zM220 118h121c50 0 90 39 90 91
c0 50 -50 87 -102 87h-109v-178z" />
    <glyph glyph-name="C" unicode="C" horiz-adv-x="684" 
d="M40 349c0 200 161 361 361 361c101 0 174 -32 242 -93c9 -8 9 -20 1 -28l-61 -63c-7 -8 -17 -8 -25 0c-42 37 -98 59 -154 59c-128 0 -223 -107 -223 -233c0 -125 96 -231 224 -231c60 0 111 23 153 57c8 7 19 6 25 0l62 -64c8 -7 6 -20 -1 -27
c-68 -66 -154 -97 -243 -97c-200 0 -361 159 -361 359z" />
    <glyph glyph-name="D" unicode="D" horiz-adv-x="738" 
d="M91 19v662c0 10 8 19 18 19h237c193 0 351 -157 351 -349c0 -194 -158 -351 -351 -351h-237c-10 0 -18 9 -18 19zM220 122h114c130 0 225 98 225 229c0 130 -95 228 -225 228h-114v-457z" />
    <glyph glyph-name="E" unicode="E" horiz-adv-x="588" 
d="M91 19v662c0 10 8 19 19 19h407c11 0 19 -9 19 -19v-82c0 -10 -8 -19 -19 -19h-296v-164h247c10 0 19 -9 19 -19v-83c0 -11 -9 -19 -19 -19h-247v-175h296c11 0 19 -9 19 -19v-82c0 -10 -8 -19 -19 -19h-407c-11 0 -19 9 -19 19z" />
    <glyph glyph-name="F" unicode="F" horiz-adv-x="564" 
d="M91 19v662c0 10 8 19 19 19h407c11 0 19 -9 19 -19v-82c0 -10 -8 -19 -19 -19h-296v-188h247c10 0 19 -9 19 -19v-82c0 -10 -9 -19 -19 -19h-247v-253c0 -10 -9 -19 -19 -19h-92c-11 0 -19 9 -19 19z" />
    <glyph glyph-name="G" unicode="G" horiz-adv-x="712" 
d="M41 349c0 200 160 361 359 361c90 0 176 -35 244 -93c8 -8 9 -20 1 -28l-62 -65c-8 -8 -17 -8 -26 0c-43 38 -96 58 -151 58c-125 0 -224 -107 -224 -232c0 -124 99 -229 225 -229c56 0 99 17 119 25v85h-80c-11 0 -19 8 -19 18v79c0 11 8 19 19 19h192
c10 0 18 -9 18 -19v-256c0 -8 -4 -13 -8 -16c0 0 -103 -65 -248 -65c-199 0 -359 158 -359 358z" />
    <glyph glyph-name="H" unicode="H" horiz-adv-x="769" 
d="M91 19v662c0 10 9 19 19 19h93c11 0 19 -9 19 -19v-265h326v265c0 10 8 19 19 19h92c10 0 19 -9 19 -19v-662c0 -10 -9 -19 -19 -19h-92c-11 0 -19 9 -19 19v276h-326v-276c0 -10 -8 -19 -19 -19h-93c-10 0 -19 9 -19 19z" />
    <glyph glyph-name="I" unicode="I" horiz-adv-x="313" 
d="M91 19v662c0 10 9 19 19 19h93c10 0 19 -9 19 -19v-662c0 -10 -9 -19 -19 -19h-93c-10 0 -19 9 -19 19z" />
    <glyph glyph-name="J" unicode="J" horiz-adv-x="418" 
d="M-16 63c-5 8 -4 18 2 25l52 53c11 10 21 8 30 -1c13 -14 33 -32 66 -32c39 0 80 32 80 101v472c0 10 8 19 19 19h94c11 0 19 -9 19 -19v-472c0 -139 -93 -219 -210 -219c-87 0 -135 52 -152 73z" />
    <glyph glyph-name="K" unicode="K" horiz-adv-x="655" 
d="M91 24v652c0 13 10 24 24 24h88c13 0 24 -11 24 -24v-270l252 284c4 5 10 10 19 10h100c19 0 29 -21 16 -36l-261 -294l280 -335c10 -13 2 -35 -18 -35h-109c-10 0 -16 4 -18 7l-261 322v-305c0 -13 -11 -24 -24 -24h-88c-14 0 -24 11 -24 24z" />
    <glyph glyph-name="L" unicode="L" horiz-adv-x="505" 
d="M91 19v662c0 10 8 19 19 19h92c10 0 19 -9 19 -19v-561h255c11 0 19 -9 19 -19v-82c0 -10 -8 -19 -19 -19h-366c-11 0 -19 9 -19 19z" />
    <glyph glyph-name="M" unicode="M" horiz-adv-x="873" 
d="M45 23l119 672c1 8 7 15 18 15h16c8 0 14 -4 17 -10l220 -472h3l220 472c3 6 8 10 17 10h16c11 0 17 -7 18 -15l118 -672c3 -14 -5 -23 -18 -23h-91c-9 0 -17 8 -19 15l-59 379h-3l-175 -393c-2 -6 -8 -11 -17 -11h-18c-9 0 -14 5 -17 11l-177 393h-3l-58 -379
c-1 -7 -9 -15 -18 -15h-90c-13 0 -21 9 -19 23z" />
    <glyph glyph-name="N" unicode="N" horiz-adv-x="773" 
d="M91 19v673c0 10 9 18 19 18h25l416 -442h1v413c0 10 8 19 19 19h92c10 0 19 -9 19 -19v-673c0 -10 -9 -18 -19 -18h-24l-418 459h-1v-430c0 -10 -8 -19 -19 -19h-91c-10 0 -19 9 -19 19z" />
    <glyph glyph-name="O" unicode="O" horiz-adv-x="800" 
d="M41 349c0 200 159 361 359 361s360 -161 360 -361s-160 -359 -360 -359s-359 159 -359 359zM171 349c0 -126 103 -229 229 -229s230 103 230 229s-104 231 -230 231s-229 -105 -229 -231z" />
    <glyph glyph-name="P" unicode="P" horiz-adv-x="592" 
d="M91 19v662c0 10 8 19 19 19h235c123 0 224 -100 224 -221c0 -124 -101 -225 -223 -225h-125v-235c0 -10 -9 -19 -19 -19h-92c-11 0 -19 9 -19 19zM221 376h116c56 0 103 45 103 104c0 55 -47 97 -103 97h-116v-201z" />
    <glyph glyph-name="Q" unicode="Q" horiz-adv-x="801" 
d="M41 349c0 200 159 361 359 361s360 -161 360 -361c0 -136 -79 -256 -195 -320l125 -197c9 -14 0 -30 -16 -30h-106c-4 0 -13 4 -16 10l-107 181c-16 -2 -33 -3 -45 -3c-200 0 -359 159 -359 359zM171 349c0 -126 103 -229 229 -229s230 103 230 229s-104 231 -230 231
s-229 -105 -229 -231z" />
    <glyph glyph-name="R" unicode="R" horiz-adv-x="666" 
d="M91 19v662c0 10 8 19 19 19h286c120 0 218 -96 218 -215c0 -92 -61 -167 -148 -202l137 -254c7 -13 0 -29 -17 -29h-105c-9 0 -14 5 -16 9l-133 265h-111v-255c0 -10 -9 -19 -19 -19h-92c-11 0 -19 9 -19 19zM222 381h163c53 0 99 46 99 102c0 53 -46 97 -99 97h-163
v-199z" />
    <glyph glyph-name="S" unicode="S" horiz-adv-x="542" 
d="M55 68c-9 9 -14 14 -5 30l36 62c8 14 25 14 34 7c5 -3 86 -62 151 -62c52 0 91 34 91 77c0 51 -43 86 -127 120c-94 38 -188 98 -188 216c0 89 66 192 225 192c102 0 180 -52 200 -67c10 -6 13 -23 6 -33l-38 -57c-8 -12 -23 -20 -35 -12c-8 5 -84 55 -139 55
c-57 0 -88 -38 -88 -70c0 -47 37 -79 118 -112c97 -39 209 -97 209 -226c0 -103 -89 -198 -230 -198c-126 0 -200 59 -220 78z" />
    <glyph glyph-name="T" unicode="T" horiz-adv-x="501" 
d="M185 19v561h-153c-11 0 -19 9 -19 19v82c0 10 8 19 19 19h437c11 0 19 -9 19 -19v-82c0 -10 -8 -19 -19 -19h-153v-561c0 -10 -9 -19 -19 -19h-93c-10 0 -19 9 -19 19z" />
    <glyph glyph-name="U" unicode="U" horiz-adv-x="719" 
d="M81 265v416c0 10 9 19 19 19h95c11 0 19 -9 19 -19v-409c0 -85 58 -152 145 -152s146 67 146 151v410c0 10 8 19 19 19h95c10 0 19 -9 19 -19v-416c0 -152 -121 -275 -279 -275c-157 0 -278 123 -278 275z" />
    <glyph glyph-name="V" unicode="V" horiz-adv-x="663" 
d="M309 1l-309 673c-6 13 2 26 17 26h102c9 0 15 -6 17 -11l192 -430h7l192 430c2 5 8 11 17 11h102c15 0 23 -13 17 -26l-310 -673c-3 -6 -8 -11 -17 -11h-10c-9 0 -14 5 -17 11z" />
    <glyph glyph-name="W" unicode="W" horiz-adv-x="899" 
d="M218 4l-189 672c-4 14 4 24 18 24h92c8 0 16 -7 18 -14l104 -399h4l159 412c2 6 7 11 17 11h18c10 0 15 -5 17 -11l160 -412h4l102 399c2 7 10 14 18 14h92c14 0 22 -10 18 -24l-189 -672c-2 -8 -10 -14 -18 -14h-16c-9 0 -15 5 -17 11l-179 453h-5l-177 -453
c-3 -6 -7 -11 -17 -11h-16c-8 0 -16 6 -18 14z" />
    <glyph glyph-name="X" unicode="X" horiz-adv-x="632" 
d="M30 28l208 331l-200 313c-8 13 0 28 17 28h116c8 0 13 -5 16 -9l128 -212h1l130 212c2 4 8 9 16 9h116c17 0 25 -15 17 -28l-201 -313l208 -331c8 -14 0 -28 -17 -28h-108c-8 0 -15 5 -17 9l-143 229h-3l-141 -229c-3 -4 -9 -9 -17 -9h-108c-18 0 -26 15 -18 28z" />
    <glyph glyph-name="Y" unicode="Y" horiz-adv-x="583" 
d="M225 19v318l-228 334c-8 13 0 29 16 29h102c8 0 13 -5 16 -9l160 -230l160 230c3 4 8 9 16 9h103c16 0 24 -16 16 -29l-231 -333v-319c0 -10 -9 -19 -19 -19h-92c-11 0 -19 9 -19 19z" />
    <glyph glyph-name="Z" unicode="Z" horiz-adv-x="538" 
d="M25 19v18l298 538v4h-250c-10 0 -19 9 -19 19v83c0 10 9 19 19 19h418c10 0 19 -9 19 -19v-13l-294 -545v-2h255c11 0 19 -9 19 -19v-83c0 -10 -8 -19 -19 -19h-427c-10 0 -19 9 -19 19z" />
    <glyph glyph-name="bracketleft" unicode="[" horiz-adv-x="349" 
d="M181 -200h130c10 0 19 -8 19 -18v-63c0 -10 -9 -19 -19 -19h-226c-10 0 -19 9 -19 19v962c0 10 9 19 19 19h226c10 0 19 -9 19 -19v-62c0 -11 -9 -19 -19 -19h-130v-800z" />
    <glyph glyph-name="backslash" unicode="\" horiz-adv-x="357" 
d="M215 13l-195 662c-4 14 4 25 18 25h76c8 0 16 -6 18 -13l196 -662c4 -14 -5 -25 -18 -25h-77c-7 0 -16 6 -18 13z" />
    <glyph glyph-name="bracketright" unicode="]" horiz-adv-x="349" 
d="M38 -200h130v800h-130c-10 0 -19 8 -19 19v62c0 10 9 19 19 19h226c10 0 19 -9 19 -19v-962c0 -10 -9 -19 -19 -19h-226c-10 0 -19 9 -19 19v63c0 10 9 18 19 18z" />
    <glyph glyph-name="asciicircum" unicode="^" horiz-adv-x="524" 
d="M53 385c-16 0 -24 15 -16 28l208 291c3 5 9 10 17 10h5c8 0 14 -5 17 -10l203 -291c8 -13 0 -28 -16 -28h-69c-7 0 -13 5 -16 9l-123 169l-125 -169c-3 -4 -9 -9 -16 -9h-69z" />
    <glyph glyph-name="underscore" unicode="_" horiz-adv-x="415" 
d="M19 -29c0 11 8 19 19 19h339c11 0 19 -8 19 -19v-39c0 -10 -8 -18 -19 -18h-339c-11 0 -19 8 -19 18v39z" />
    <glyph glyph-name="grave" unicode="`" horiz-adv-x="302" 
d="M234 528l-175 77c-8 4 -13 14 -6 27l28 51c5 9 17 9 26 3l164 -97c6 -3 10 -11 6 -19l-18 -36c-4 -9 -11 -12 -25 -6z" />
    <glyph glyph-name="a" unicode="a" horiz-adv-x="427" 
d="M31 127c0 71 58 126 160 126c40 0 73 -11 73 -11c1 51 -15 69 -52 69s-89 -8 -112 -15c-14 -4 -21 5 -23 18l-9 52c-3 15 5 22 14 25c8 3 72 19 136 19c125 0 154 -65 154 -174v-217c0 -10 -9 -19 -19 -19h-36c-7 0 -12 3 -17 14l-12 27c-23 -21 -60 -51 -122 -51
c-80 0 -135 52 -135 137zM141 127c0 -30 21 -52 52 -52c32 0 63 27 69 39v55s-27 12 -56 12c-39 0 -65 -22 -65 -54z" />
    <glyph glyph-name="b" unicode="b" 
d="M60 19v662c0 10 9 19 19 19h85c10 0 19 -9 19 -19v-289c18 7 49 18 89 18c119 0 198 -93 198 -210c0 -115 -83 -210 -192 -210c-84 0 -131 60 -131 60l-10 -31c-3 -11 -10 -19 -19 -19h-39c-10 0 -19 9 -19 19zM179 163c7 -24 31 -65 84 -65s91 46 91 102
s-41 102 -97 102c-50 0 -78 -23 -78 -23v-116z" />
    <glyph glyph-name="c" unicode="c" horiz-adv-x="426" 
d="M29 200c0 118 101 210 213 210c62 0 110 -25 148 -71c7 -9 5 -21 -5 -28l-46 -44c-9 -8 -18 -3 -25 3c-16 18 -41 32 -69 32c-54 0 -98 -46 -98 -102c0 -57 43 -102 97 -102c43 0 62 21 80 38c7 7 17 9 25 3l43 -37c10 -8 14 -18 7 -28c-34 -53 -87 -84 -158 -84
c-113 0 -212 90 -212 210z" />
    <glyph glyph-name="d" unicode="d" 
d="M30 200c0 117 79 210 198 210c40 0 71 -11 89 -18v289c0 10 9 19 19 19h85c10 0 19 -9 19 -19v-662c0 -10 -9 -19 -19 -19h-39c-9 0 -16 8 -19 19l-10 31s-47 -60 -131 -60c-109 0 -192 95 -192 210zM146 200c0 -56 38 -102 91 -102s77 41 84 65v116s-28 23 -78 23
c-56 0 -97 -46 -97 -102z" />
    <glyph glyph-name="e" unicode="e" horiz-adv-x="445" 
d="M30 200c0 113 85 210 204 210c103 0 187 -78 187 -186c0 -7 -1 -20 -2 -27c-1 -10 -10 -17 -19 -17h-256c3 -41 38 -87 96 -87c31 0 60 12 78 25c10 6 19 8 26 0l41 -47c7 -7 9 -18 -1 -26c-33 -31 -84 -55 -149 -55c-120 0 -205 95 -205 210zM153 250h151
c-3 37 -35 68 -73 68c-40 0 -73 -30 -78 -68z" />
    <glyph glyph-name="f" unicode="f" horiz-adv-x="344" 
d="M84 19v276h-34c-11 0 -19 9 -19 19v67c0 11 8 19 19 19h34v108c0 132 81 202 187 202c53 0 100 -23 118 -39c6 -5 8 -16 4 -23l-34 -64c-4 -8 -15 -10 -24 -5c-13 8 -37 20 -59 20c-43 0 -67 -33 -67 -91v-108h100c11 0 19 -8 19 -19v-67c0 -10 -8 -19 -19 -19h-100v-276
c0 -10 -9 -19 -19 -19h-87c-10 0 -19 9 -19 19z" />
    <glyph glyph-name="g" unicode="g" horiz-adv-x="462" 
d="M18 30c0 78 75 112 75 112s-30 34 -30 94c0 93 75 174 174 174h182c11 0 19 -8 19 -19v-33c0 -7 -4 -15 -11 -17l-56 -18s40 -31 40 -102c0 -79 -66 -157 -171 -157c-38 0 -64 8 -80 8c-14 0 -37 -14 -37 -38c0 -21 18 -34 40 -34h128c91 0 165 -52 165 -140
c0 -92 -74 -170 -219 -170c-148 0 -204 73 -204 137c0 60 50 89 60 95v3c-17 5 -75 32 -75 105zM170 231c0 -42 30 -72 70 -72c41 0 69 30 69 72s-28 72 -69 72c-40 0 -70 -30 -70 -72zM148 -151c0 -35 34 -59 88 -59c56 0 93 25 93 63c0 18 -14 49 -73 49
c-22 0 -44 -1 -65 -4c-12 -4 -43 -18 -43 -49z" />
    <glyph glyph-name="h" unicode="h" horiz-adv-x="520" 
d="M60 19v662c0 10 9 19 19 19h85c10 0 19 -9 19 -19v-304c20 15 59 33 106 33c127 0 179 -98 179 -199v-192c0 -10 -9 -19 -19 -19h-81c-11 0 -19 9 -19 19v193c0 55 -31 90 -79 90c-46 0 -77 -30 -87 -71v-212c0 -11 -6 -19 -21 -19h-83c-10 0 -19 9 -19 19z" />
    <glyph glyph-name="i" unicode="i" horiz-adv-x="241" 
d="M119 542c-38 0 -68 31 -68 69s30 69 68 69c39 0 70 -31 70 -69s-31 -69 -70 -69zM60 19v362c0 11 9 19 19 19h83c10 0 19 -8 19 -19v-362c0 -10 -9 -19 -19 -19h-83c-10 0 -19 9 -19 19z" />
    <glyph glyph-name="j" unicode="j" horiz-adv-x="242" 
d="M120 542c-38 0 -68 31 -68 69s30 69 68 69c39 0 70 -31 70 -69s-31 -69 -70 -69zM60 -108v489c0 11 9 19 19 19h84c10 0 19 -8 19 -19v-489c0 -132 -80 -202 -186 -202c-53 0 -101 23 -118 39c-7 5 -8 16 -4 23l33 64c4 8 15 10 24 5c13 -8 37 -20 59 -20
c45 0 70 33 70 91z" />
    <glyph glyph-name="k" unicode="k" horiz-adv-x="489" 
d="M60 19v662c0 10 9 19 19 19h85c10 0 19 -9 19 -19v-433l138 140c7 6 14 12 25 12h91c17 0 23 -18 13 -29l-149 -152l178 -191c10 -11 4 -28 -13 -28h-108c-6 0 -14 4 -17 8l-158 180v-169c0 -10 -9 -19 -19 -19h-85c-10 0 -19 9 -19 19z" />
    <glyph glyph-name="l" unicode="l" horiz-adv-x="242" 
d="M60 19v662c0 10 9 19 19 19h84c10 0 19 -9 19 -19v-662c0 -10 -9 -19 -19 -19h-84c-10 0 -19 9 -19 19z" />
    <glyph glyph-name="m" unicode="m" horiz-adv-x="779" 
d="M60 19v362c0 11 9 19 19 19h37c9 0 15 -5 17 -11l14 -38c17 19 63 59 134 59c57 0 97 -22 130 -62c17 18 69 62 141 62c128 0 175 -95 175 -200v-191c0 -10 -8 -19 -19 -19h-81c-11 0 -19 9 -19 19v198c0 52 -25 85 -75 85c-58 0 -84 -42 -84 -42s1 -20 1 -38v-203
c0 -10 -9 -19 -19 -19h-75c-11 0 -19 9 -19 19v198c0 52 -23 85 -74 85c-50 0 -74 -36 -84 -63v-220c0 -10 -9 -19 -19 -19h-81c-10 0 -19 9 -19 19z" />
    <glyph glyph-name="n" unicode="n" horiz-adv-x="519" 
d="M60 19v362c0 11 9 19 19 19h38c9 0 14 -5 17 -12l14 -37c15 16 64 59 141 59c127 0 178 -95 178 -199v-192c0 -10 -9 -19 -19 -19h-82c-11 0 -19 9 -19 19v198c0 52 -27 85 -75 85c-52 0 -84 -36 -94 -63v-220c0 -14 -6 -19 -25 -19h-74c-10 0 -19 9 -19 19z" />
    <glyph glyph-name="o" unicode="o" horiz-adv-x="468" 
d="M29 201c0 113 92 209 205 209s205 -96 205 -209c0 -115 -92 -211 -205 -211s-205 96 -205 211zM138 201c0 -57 42 -103 96 -103c53 0 96 46 96 103c0 56 -43 101 -96 101c-54 0 -96 -45 -96 -101z" />
    <glyph glyph-name="p" unicode="p" 
d="M183 12v-293c0 -12 -6 -19 -24 -19h-80c-10 0 -19 9 -19 19v662c0 11 9 19 19 19h39c7 0 14 -4 17 -12l13 -33c15 20 64 55 129 55c110 0 193 -95 193 -210c0 -118 -90 -210 -198 -210c-39 0 -75 14 -89 22zM178 121c0 0 28 -23 78 -23c56 0 97 46 97 102
s-38 102 -93 102c-51 0 -76 -40 -82 -61v-120z" />
    <glyph glyph-name="q" unicode="q" 
d="M30 200c0 115 83 210 193 210c65 0 114 -35 129 -55l13 33c3 8 10 12 17 12h39c10 0 19 -8 19 -19v-662c0 -10 -9 -19 -19 -19h-80c-18 0 -24 7 -24 19v293c-14 -8 -50 -22 -89 -22c-108 0 -198 92 -198 210zM147 198c0 -56 41 -100 97 -100c50 0 78 23 78 23v120
c-6 21 -31 61 -82 61c-55 0 -93 -48 -93 -104z" />
    <glyph glyph-name="r" unicode="r" horiz-adv-x="341" 
d="M60 19v362c0 11 9 19 19 19h38c9 0 15 -5 18 -13l14 -39c14 20 51 62 113 62c47 0 89 -15 77 -40l-37 -65c-5 -9 -15 -13 -23 -9c-3 1 -18 6 -29 6c-40 0 -64 -27 -71 -41v-242c0 -14 -9 -19 -23 -19h-77c-10 0 -19 9 -19 19z" />
    <glyph glyph-name="s" unicode="s" horiz-adv-x="364" 
d="M44 27c-6 5 -10 13 -6 21l27 54c4 10 14 12 23 7c0 0 45 -24 91 -24c20 0 34 8 34 25c0 18 -14 29 -67 50c-77 30 -113 71 -113 132s45 118 147 118c59 0 102 -17 123 -31c9 -6 14 -17 9 -27l-25 -51c-5 -9 -16 -10 -24 -7c0 0 -45 21 -83 21c-24 0 -34 -10 -34 -23
c0 -18 18 -24 55 -39c77 -30 135 -63 135 -141c0 -66 -58 -122 -159 -122c-66 0 -112 21 -133 37z" />
    <glyph glyph-name="t" unicode="t" horiz-adv-x="345" 
d="M81 119v176h-34c-10 0 -18 9 -18 19v67c0 11 8 19 18 19h34v111c0 10 9 19 19 19l82 1c10 0 18 -9 18 -19v-112h88c11 0 19 -8 19 -19v-67c0 -10 -8 -19 -19 -19h-88v-160c0 -28 15 -32 31 -32c17 0 38 7 49 11s19 -1 22 -11l20 -63c4 -10 -1 -20 -11 -24
c-5 -3 -70 -26 -119 -26c-77 0 -111 48 -111 129z" />
    <glyph glyph-name="u" unicode="u" horiz-adv-x="503" 
d="M53 187v194c0 11 9 19 19 19h82c10 0 19 -8 19 -19v-197c0 -53 27 -86 73 -86c42 0 74 39 80 75v208c0 15 6 19 22 19h76c10 0 19 -8 19 -19v-362c0 -10 -9 -19 -19 -19h-37c-10 0 -16 7 -19 15l-12 33c-18 -16 -55 -58 -134 -58c-124 0 -169 95 -169 197z" />
    <glyph glyph-name="v" unicode="v" horiz-adv-x="418" 
d="M189 0l-182 376c-6 13 -1 24 14 24h87c10 0 15 -5 18 -11l81 -186h2l86 186c5 10 13 11 24 11h78c15 0 21 -11 14 -24l-183 -376c-3 -5 -8 -10 -17 -10h-5c-9 0 -14 5 -17 10z" />
    <glyph glyph-name="w" unicode="w" horiz-adv-x="616" 
d="M143 1l-125 376c-6 13 3 23 17 23h72c6 0 16 -5 18 -12l60 -179h1l102 192c2 4 7 9 16 9h8c9 0 13 -4 16 -9l101 -192h1l60 179c4 11 12 12 23 12h65c14 0 23 -10 18 -23l-125 -376c-2 -6 -8 -11 -18 -11h-4c-8 0 -13 4 -16 9l-126 233h-1l-125 -233c-3 -5 -8 -9 -16 -9
h-5c-9 0 -15 5 -17 11z" />
    <glyph glyph-name="x" unicode="x" horiz-adv-x="451" 
d="M36 0c-17 0 -21 16 -12 29l130 175l-126 167c-10 13 -2 29 15 29h83c13 0 24 -1 33 -14l65 -94h1l66 94c8 11 16 14 30 14h90c17 0 22 -16 12 -29l-126 -166l127 -176c9 -13 4 -29 -12 -29h-88c-13 0 -21 6 -28 16l-71 100h-1l-76 -108c-3 -4 -11 -8 -16 -8h-96z" />
    <glyph glyph-name="y" unicode="y" horiz-adv-x="463" 
d="M171 28l-163 346c-6 13 2 26 17 26h90c9 0 14 -5 17 -11l101 -226h1l100 226c5 10 12 11 24 11h80c16 0 24 -13 17 -26l-306 -662c-3 -6 -9 -12 -17 -12h-86c-15 0 -24 13 -17 27z" />
    <glyph glyph-name="z" unicode="z" horiz-adv-x="366" 
d="M30 19v10l142 262v2h-114c-10 0 -18 9 -18 19v69c0 11 8 19 18 19h264c15 0 25 -14 17 -27l-145 -264v-3h108c11 0 19 -8 19 -19v-68c0 -10 -8 -19 -19 -19h-253c-10 0 -19 9 -19 19z" />
    <glyph glyph-name="braceleft" unicode="{" horiz-adv-x="394" 
d="M103 -36v123c0 45 -45 64 -69 68c-8 1 -15 8 -15 18v49c0 10 7 15 14 17c9 2 70 26 70 69v127c0 220 145 271 248 275c11 1 19 -5 20 -17l4 -63c1 -11 -7 -17 -14 -18c-78 -17 -134 -75 -134 -177v-105c0 -86 -74 -126 -83 -130v-4c27 -11 83 -44 83 -125v-107
c0 -102 56 -159 134 -175c7 -2 15 -8 14 -19l-4 -63c-1 -10 -10 -18 -20 -17c-103 4 -248 54 -248 274z" />
    <glyph glyph-name="bar" unicode="|" horiz-adv-x="180" 
d="M65 -282v1023c0 11 9 19 19 19h13c10 0 18 -8 18 -19v-1023c0 -10 -9 -18 -19 -18h-12c-10 0 -19 8 -19 18z" />
    <glyph glyph-name="braceright" unicode="}" horiz-adv-x="394" 
d="M167 -36v107c0 81 56 114 83 125v4c-9 4 -83 44 -83 130v105c0 102 -56 160 -134 177c-7 1 -15 7 -14 18l4 63c1 12 9 18 20 17c103 -4 248 -55 248 -275v-127c0 -43 61 -67 70 -69c7 -2 14 -7 14 -17v-49c0 -10 -7 -17 -15 -18c-24 -4 -69 -23 -69 -68v-123
c0 -220 -145 -270 -248 -274c-10 -1 -19 7 -20 17l-4 63c-1 11 7 17 14 19c78 16 134 73 134 175z" />
    <glyph glyph-name="asciitilde" unicode="~" horiz-adv-x="533" 
d="M78 194c-16 16 -28 28 -45 44c-6 7 -8 17 -2 24c0 0 72 99 150 99c43 0 73 -22 101 -41c20 -13 45 -32 73 -32c34 0 61 32 74 52c8 10 20 10 29 2l42 -44c7 -6 8 -17 2 -24c0 0 -70 -98 -147 -98c-48 0 -79 23 -110 43c-19 13 -39 28 -65 28c-34 0 -61 -31 -74 -51
c-7 -10 -20 -11 -28 -2z" />
    <glyph glyph-name="uni00A0" unicode="&#xa0;" horiz-adv-x="221" 
 />
    <glyph glyph-name="Agrave" unicode="&#xc0;" horiz-adv-x="663" 
d="M17 0c-15 0 -23 13 -17 26l311 673c3 6 8 11 17 11h10c10 0 14 -5 17 -11l308 -673c6 -13 -2 -26 -17 -26h-87c-15 0 -22 6 -29 20l-49 108h-299l-49 -108c-4 -10 -13 -20 -29 -20h-87zM231 239h201l-100 220h-3zM402 768l-175 77c-9 4 -13 15 -6 27l28 52c5 9 18 8 26 3
l164 -98c5 -3 10 -11 6 -19l-18 -35c-4 -9 -11 -13 -25 -7z" />
    <glyph glyph-name="Aacute" unicode="&#xc1;" horiz-adv-x="663" 
d="M17 0c-15 0 -23 13 -17 26l311 673c3 6 8 11 17 11h10c10 0 14 -5 17 -11l308 -673c6 -13 -2 -26 -17 -26h-87c-15 0 -22 6 -29 20l-49 108h-299l-49 -108c-4 -10 -13 -20 -29 -20h-87zM231 239h201l-100 220h-3zM261 768c-14 -6 -21 -2 -25 7l-18 35c-4 8 1 16 6 19
l164 98c11 7 21 6 26 -3l28 -52c7 -12 3 -23 -6 -27z" />
    <glyph glyph-name="Acircumflex" unicode="&#xc2;" horiz-adv-x="663" 
d="M17 0c-15 0 -23 13 -17 26l311 673c3 6 8 11 17 11h10c10 0 14 -5 17 -11l308 -673c6 -13 -2 -26 -17 -26h-87c-15 0 -22 6 -29 20l-49 108h-299l-49 -108c-4 -10 -13 -20 -29 -20h-87zM231 239h201l-100 220h-3zM234 766c-12 -7 -17 -5 -23 3l-26 37c-5 7 0 15 6 19
l130 101c6 5 14 5 21 0l130 -101c6 -4 11 -12 6 -19l-26 -37c-6 -8 -11 -10 -23 -3l-97 61z" />
    <glyph glyph-name="Atilde" unicode="&#xc3;" horiz-adv-x="663" 
d="M17 0c-15 0 -23 13 -17 26l311 673c3 6 8 11 17 11h10c10 0 14 -5 17 -11l308 -673c6 -13 -2 -26 -17 -26h-87c-15 0 -22 6 -29 20l-49 108h-299l-49 -108c-4 -10 -13 -20 -29 -20h-87zM231 239h201l-100 220h-3zM211 789l-29 21c-7 5 -9 16 -6 23c10 18 43 84 104 84
c52 0 69 -55 107 -55c35 0 36 62 65 41l28 -20c9 -7 8 -19 1 -31c-11 -19 -40 -76 -97 -76c-52 0 -76 56 -109 56c-36 0 -34 -62 -64 -43z" />
    <glyph glyph-name="Adieresis" unicode="&#xc4;" horiz-adv-x="663" 
d="M17 0c-15 0 -23 13 -17 26l311 673c3 6 8 11 17 11h10c10 0 14 -5 17 -11l308 -673c6 -13 -2 -26 -17 -26h-87c-15 0 -22 6 -29 20l-49 108h-299l-49 -108c-4 -10 -13 -20 -29 -20h-87zM231 239h201l-100 220h-3zM454 775c-35 0 -63 29 -63 64s28 63 63 63s64 -28 64 -63
s-29 -64 -64 -64zM207 775c-35 0 -63 29 -63 64s28 63 63 63s64 -28 64 -63s-29 -64 -64 -64z" />
    <glyph glyph-name="Amacron" unicode="&#x100;" horiz-adv-x="663" 
d="M17 0c-15 0 -23 13 -17 26l311 673c3 6 8 11 17 11h10c10 0 14 -5 17 -11l308 -673c6 -13 -2 -26 -17 -26h-87c-15 0 -22 6 -29 20l-49 108h-299l-49 -108c-4 -10 -13 -20 -29 -20h-87zM231 239h201l-100 220h-3zM203 808c-11 0 -19 8 -19 18v34c0 11 8 19 19 19h256
c11 0 19 -8 19 -19v-34c0 -10 -8 -18 -19 -18h-256z" />
    <glyph glyph-name="Abreve" unicode="&#x102;" horiz-adv-x="663" 
d="M17 0c-15 0 -23 13 -17 26l311 673c3 6 8 11 17 11h10c10 0 14 -5 17 -11l308 -673c6 -13 -2 -26 -17 -26h-87c-15 0 -22 6 -29 20l-49 108h-299l-49 -108c-4 -10 -13 -20 -29 -20h-87zM231 239h201l-100 220h-3zM332 766c-73 0 -130 51 -140 118c-2 11 5 21 18 21h37
c9 0 15 -7 17 -14c10 -30 35 -53 68 -53c30 0 56 26 66 53c2 9 10 14 17 14h39c12 0 19 -10 18 -21c-11 -67 -68 -118 -140 -118z" />
    <glyph glyph-name="Aring" unicode="&#xc5;" horiz-adv-x="663" 
d="M17 0c-15 0 -23 13 -17 26l311 673c3 6 8 11 17 11h10c10 0 14 -5 17 -11l308 -673c6 -13 -2 -26 -17 -26h-87c-15 0 -22 6 -29 20l-49 108h-299l-49 -108c-4 -10 -13 -20 -29 -20h-87zM231 239h201l-100 220h-3zM331 754c-63 0 -113 50 -113 113s50 113 113 113
c62 0 113 -50 113 -113s-51 -113 -113 -113zM331 817c26 0 48 24 48 50s-22 48 -48 48s-50 -22 -50 -48s24 -50 50 -50z" />
    <glyph glyph-name="Aringacute" unicode="&#x1fa;" horiz-adv-x="663" 
d="M240 886l-18 35c-4 8 1 16 6 19l164 98c11 7 21 6 26 -3l28 -52c7 -12 3 -23 -6 -27l-175 -77c-14 -6 -21 -2 -25 7zM17 0c-15 0 -23 13 -17 26l293 634c-42 16 -71 57 -71 105c0 63 50 113 113 113c62 0 113 -50 113 -113c0 -49 -32 -91 -75 -107l290 -632
c6 -13 -2 -26 -17 -26h-87c-15 0 -22 6 -29 20l-49 108h-299l-49 -108c-4 -10 -13 -20 -29 -20h-87zM335 715c26 0 48 24 48 50s-22 48 -48 48s-50 -22 -50 -48s24 -50 50 -50zM231 239h201l-100 220h-3z" />
    <glyph glyph-name="Aogonek" unicode="&#x104;" horiz-adv-x="663" 
d="M17 0c-15 0 -23 13 -17 26l311 673c3 6 8 11 17 11h10c10 0 14 -5 17 -11l308 -673c6 -13 -2 -26 -17 -26h-61c-18 -18 -45 -53 -45 -96c0 -35 23 -64 66 -64c20 0 34 6 46 9c11 3 20 -5 20 -17v-30c0 -9 -7 -16 -14 -19c-4 -1 -36 -10 -66 -10c-69 0 -127 35 -127 110
s59 122 68 129l-52 116h-299l-49 -108c-4 -10 -13 -20 -29 -20h-87zM231 239h201l-100 220h-3z" />
    <glyph glyph-name="AE" unicode="&#xc6;" horiz-adv-x="900" 
d="M1 0c-15 0 -20 13 -12 26l401 643c13 20 18 31 44 31h395c11 0 19 -9 19 -19v-82c0 -10 -8 -19 -19 -19h-299v-164h250c10 0 19 -9 19 -19v-83c0 -11 -9 -19 -19 -19h-250v-175h299c11 0 19 -9 19 -19v-82c0 -10 -8 -19 -19 -19h-408c-11 0 -19 9 -19 19v109h-210
l-71 -113c-6 -9 -13 -15 -25 -15h-95zM262 239h140v226z" />
    <glyph glyph-name="AEacute" unicode="&#x1fc;" horiz-adv-x="900" 
d="M1 0c-15 0 -20 13 -12 26l401 643c13 20 18 31 44 31h395c11 0 19 -9 19 -19v-82c0 -10 -8 -19 -19 -19h-299v-164h250c10 0 19 -9 19 -19v-83c0 -11 -9 -19 -19 -19h-250v-175h299c11 0 19 -9 19 -19v-82c0 -10 -8 -19 -19 -19h-408c-11 0 -19 9 -19 19v109h-210
l-71 -113c-6 -9 -13 -15 -25 -15h-95zM262 239h140v226zM551 769c-14 -6 -21 -2 -25 7l-18 35c-4 8 1 16 6 19l164 98c11 7 21 6 26 -3l28 -52c7 -12 3 -23 -6 -27z" />
    <glyph glyph-name="Cacute" unicode="&#x106;" horiz-adv-x="684" 
d="M40 349c0 200 161 361 361 361c101 0 174 -32 242 -93c9 -8 9 -20 1 -28l-61 -63c-7 -8 -17 -8 -25 0c-42 37 -98 59 -154 59c-128 0 -223 -107 -223 -233c0 -125 96 -231 224 -231c60 0 111 23 153 57c8 7 19 6 25 0l62 -64c8 -7 6 -20 -1 -27
c-68 -66 -154 -97 -243 -97c-200 0 -361 159 -361 359zM335 768c-14 -6 -21 -2 -25 7l-18 35c-4 8 1 16 6 19l164 98c11 7 21 6 26 -3l28 -52c7 -12 3 -23 -6 -27z" />
    <glyph glyph-name="Ccircumflex" unicode="&#x108;" horiz-adv-x="684" 
d="M40 349c0 200 161 361 361 361c101 0 174 -32 242 -93c9 -8 9 -20 1 -28l-61 -63c-7 -8 -17 -8 -25 0c-42 37 -98 59 -154 59c-128 0 -223 -107 -223 -233c0 -125 96 -231 224 -231c60 0 111 23 153 57c8 7 19 6 25 0l62 -64c8 -7 6 -20 -1 -27
c-68 -66 -154 -97 -243 -97c-200 0 -361 159 -361 359zM303 766c-12 -7 -17 -5 -23 3l-26 37c-5 7 0 15 6 19l130 101c6 5 14 5 21 0l130 -101c6 -4 11 -12 6 -19l-26 -37c-6 -8 -11 -10 -23 -3l-97 61z" />
    <glyph glyph-name="Ccaron" unicode="&#x10c;" horiz-adv-x="684" 
d="M40 349c0 200 161 361 361 361c101 0 174 -32 242 -93c9 -8 9 -20 1 -28l-61 -63c-7 -8 -17 -8 -25 0c-42 37 -98 59 -154 59c-128 0 -223 -107 -223 -233c0 -125 96 -231 224 -231c60 0 111 23 153 57c8 7 19 6 25 0l62 -64c8 -7 6 -20 -1 -27
c-68 -66 -154 -97 -243 -97c-200 0 -361 159 -361 359zM390 764l-130 101c-6 4 -11 12 -6 19l26 37c6 8 11 10 23 3l97 -61l98 61c12 7 17 5 23 -3l26 -37c5 -7 0 -15 -6 -19l-130 -101c-6 -5 -14 -5 -21 0z" />
    <glyph glyph-name="Cdotaccent" unicode="&#x10a;" horiz-adv-x="684" 
d="M40 349c0 200 161 361 361 361c101 0 174 -32 242 -93c9 -8 9 -20 1 -28l-61 -63c-7 -8 -17 -8 -25 0c-42 37 -98 59 -154 59c-128 0 -223 -107 -223 -233c0 -125 96 -231 224 -231c60 0 111 23 153 57c8 7 19 6 25 0l62 -64c8 -7 6 -20 -1 -27
c-68 -66 -154 -97 -243 -97c-200 0 -361 159 -361 359zM402 781c-40 0 -72 32 -72 72s32 72 72 72s72 -32 72 -72s-32 -72 -72 -72z" />
    <glyph glyph-name="Ccedilla" unicode="&#xc7;" horiz-adv-x="686" 
d="M338 -4c-169 29 -297 175 -297 353c0 200 161 361 361 361c101 0 174 -32 242 -93c9 -8 9 -20 1 -28l-61 -63c-7 -8 -17 -8 -25 0c-42 37 -98 59 -154 59c-128 0 -223 -107 -223 -233c0 -125 96 -231 224 -231c60 0 111 23 153 57c8 7 19 6 25 0l62 -64
c8 -7 6 -20 -1 -27c-68 -66 -153 -96 -241 -97v-42c61 -8 97 -47 97 -103c0 -58 -47 -105 -106 -105c-30 0 -59 15 -76 35c-8 9 -6 20 3 28l20 17c6 6 16 5 21 -1c8 -9 21 -12 30 -12c20 0 35 17 35 37c0 24 -21 45 -73 49c-15 2 -17 13 -17 18v85z" />
    <glyph glyph-name="Dcaron" unicode="&#x10e;" horiz-adv-x="738" 
d="M91 19v662c0 10 8 19 18 19h237c193 0 351 -157 351 -349c0 -194 -158 -351 -351 -351h-237c-10 0 -18 9 -18 19zM220 122h114c130 0 225 98 225 229c0 130 -95 228 -225 228h-114v-457zM339 764l-130 101c-6 4 -11 12 -6 19l26 37c6 8 11 10 23 3l97 -61l98 61
c12 7 17 5 23 -3l26 -37c5 -7 0 -15 -6 -19l-130 -101c-6 -5 -14 -5 -21 0z" />
    <glyph glyph-name="Dcroat" unicode="&#x110;" horiz-adv-x="743" 
d="M96 19v302h-29c-10 0 -18 9 -18 19v13c0 10 8 19 18 19h29v309c0 10 8 19 18 19h237c193 0 351 -157 351 -349c0 -194 -158 -351 -351 -351h-237c-10 0 -18 9 -18 19zM225 122h114c130 0 225 98 225 229c0 130 -95 228 -225 228h-114v-207h165c11 0 19 -9 19 -19v-14
c0 -10 -8 -18 -19 -18h-165v-199z" />
    <glyph glyph-name="Eth" unicode="&#xd0;" horiz-adv-x="743" 
d="M96 19v302h-29c-10 0 -18 9 -18 19v13c0 10 8 19 18 19h29v309c0 10 8 19 18 19h237c193 0 351 -157 351 -349c0 -194 -158 -351 -351 -351h-237c-10 0 -18 9 -18 19zM225 122h114c130 0 225 98 225 229c0 130 -95 228 -225 228h-114v-207h165c11 0 19 -9 19 -19v-14
c0 -10 -8 -18 -19 -18h-165v-199z" />
    <glyph glyph-name="Egrave" unicode="&#xc8;" horiz-adv-x="588" 
d="M91 19v662c0 10 8 19 19 19h407c11 0 19 -9 19 -19v-82c0 -10 -8 -19 -19 -19h-296v-164h247c10 0 19 -9 19 -19v-83c0 -11 -9 -19 -19 -19h-247v-175h296c11 0 19 -9 19 -19v-82c0 -10 -8 -19 -19 -19h-407c-11 0 -19 9 -19 19zM390 768l-175 77c-9 4 -13 15 -6 27
l28 52c5 9 18 8 26 3l164 -98c5 -3 10 -11 6 -19l-18 -35c-4 -9 -11 -13 -25 -7z" />
    <glyph glyph-name="Eacute" unicode="&#xc9;" horiz-adv-x="588" 
d="M91 19v662c0 10 8 19 19 19h407c11 0 19 -9 19 -19v-82c0 -10 -8 -19 -19 -19h-296v-164h247c10 0 19 -9 19 -19v-83c0 -11 -9 -19 -19 -19h-247v-175h296c11 0 19 -9 19 -19v-82c0 -10 -8 -19 -19 -19h-407c-11 0 -19 9 -19 19zM250 768c-14 -6 -21 -2 -25 7l-18 35
c-4 8 1 16 6 19l164 98c11 7 21 6 26 -3l28 -52c7 -12 3 -23 -6 -27z" />
    <glyph glyph-name="Ecircumflex" unicode="&#xca;" horiz-adv-x="588" 
d="M91 19v662c0 10 8 19 19 19h407c11 0 19 -9 19 -19v-82c0 -10 -8 -19 -19 -19h-296v-164h247c10 0 19 -9 19 -19v-83c0 -11 -9 -19 -19 -19h-247v-175h296c11 0 19 -9 19 -19v-82c0 -10 -8 -19 -19 -19h-407c-11 0 -19 9 -19 19zM217 766c-12 -7 -17 -5 -23 3l-26 37
c-5 7 0 15 6 19l130 101c6 5 14 5 21 0l130 -101c6 -4 11 -12 6 -19l-26 -37c-6 -8 -11 -10 -23 -3l-97 61z" />
    <glyph glyph-name="Ecaron" unicode="&#x11a;" horiz-adv-x="588" 
d="M91 19v662c0 10 8 19 19 19h407c11 0 19 -9 19 -19v-82c0 -10 -8 -19 -19 -19h-296v-164h247c10 0 19 -9 19 -19v-83c0 -11 -9 -19 -19 -19h-247v-175h296c11 0 19 -9 19 -19v-82c0 -10 -8 -19 -19 -19h-407c-11 0 -19 9 -19 19zM305 764l-130 101c-6 4 -11 12 -6 19
l26 37c6 8 11 10 23 3l97 -61l98 61c12 7 17 5 23 -3l26 -37c5 -7 0 -15 -6 -19l-130 -101c-6 -5 -14 -5 -21 0z" />
    <glyph glyph-name="Edieresis" unicode="&#xcb;" horiz-adv-x="588" 
d="M91 19v662c0 10 8 19 19 19h407c11 0 19 -9 19 -19v-82c0 -10 -8 -19 -19 -19h-296v-164h247c10 0 19 -9 19 -19v-83c0 -11 -9 -19 -19 -19h-247v-175h296c11 0 19 -9 19 -19v-82c0 -10 -8 -19 -19 -19h-407c-11 0 -19 9 -19 19zM442 775c-35 0 -63 29 -63 64
s28 63 63 63s64 -28 64 -63s-29 -64 -64 -64zM195 775c-35 0 -63 29 -63 64s28 63 63 63s64 -28 64 -63s-29 -64 -64 -64z" />
    <glyph glyph-name="Emacron" unicode="&#x112;" horiz-adv-x="588" 
d="M91 19v662c0 10 8 19 19 19h407c11 0 19 -9 19 -19v-82c0 -10 -8 -19 -19 -19h-296v-164h247c10 0 19 -9 19 -19v-83c0 -11 -9 -19 -19 -19h-247v-175h296c11 0 19 -9 19 -19v-82c0 -10 -8 -19 -19 -19h-407c-11 0 -19 9 -19 19zM189 808c-11 0 -19 8 -19 18v34
c0 11 8 19 19 19h256c11 0 19 -8 19 -19v-34c0 -10 -8 -18 -19 -18h-256z" />
    <glyph glyph-name="Ebreve" unicode="&#x114;" horiz-adv-x="588" 
d="M91 19v662c0 10 8 19 19 19h407c11 0 19 -9 19 -19v-82c0 -10 -8 -19 -19 -19h-296v-164h247c10 0 19 -9 19 -19v-83c0 -11 -9 -19 -19 -19h-247v-175h296c11 0 19 -9 19 -19v-82c0 -10 -8 -19 -19 -19h-407c-11 0 -19 9 -19 19zM322 766c-73 0 -130 51 -140 118
c-2 11 5 21 18 21h37c9 0 15 -7 17 -14c10 -30 35 -53 68 -53c30 0 56 26 66 53c2 9 10 14 17 14h39c12 0 19 -10 18 -21c-11 -67 -68 -118 -140 -118z" />
    <glyph glyph-name="Edotaccent" unicode="&#x116;" horiz-adv-x="588" 
d="M91 19v662c0 10 8 19 19 19h407c11 0 19 -9 19 -19v-82c0 -10 -8 -19 -19 -19h-296v-164h247c10 0 19 -9 19 -19v-83c0 -11 -9 -19 -19 -19h-247v-175h296c11 0 19 -9 19 -19v-82c0 -10 -8 -19 -19 -19h-407c-11 0 -19 9 -19 19zM322 781c-40 0 -72 32 -72 72
s32 72 72 72s72 -32 72 -72s-32 -72 -72 -72z" />
    <glyph glyph-name="Eogonek" unicode="&#x118;" horiz-adv-x="588" 
d="M91 19v662c0 10 8 19 19 19h407c11 0 19 -9 19 -19v-82c0 -10 -8 -19 -19 -19h-296v-164h247c10 0 19 -9 19 -19v-83c0 -11 -9 -19 -19 -19h-247v-175h296c11 0 19 -9 19 -19v-69c0 -22 -8 -26 -16 -32c-18 -18 -46 -53 -46 -96c0 -35 23 -64 66 -64c20 0 34 6 46 9
c11 3 20 -5 20 -17v-30c0 -9 -7 -16 -14 -19c-4 -1 -36 -10 -66 -10c-69 0 -127 35 -127 110c0 56 33 97 55 117h-344c-11 0 -19 9 -19 19z" />
    <glyph glyph-name="Gcircumflex" unicode="&#x11c;" horiz-adv-x="712" 
d="M41 349c0 200 160 361 359 361c90 0 176 -35 244 -93c8 -8 9 -20 1 -28l-62 -65c-8 -8 -17 -8 -26 0c-43 38 -96 58 -151 58c-125 0 -224 -107 -224 -232c0 -124 99 -229 225 -229c56 0 99 17 119 25v85h-80c-11 0 -19 8 -19 18v79c0 11 8 19 19 19h192
c10 0 18 -9 18 -19v-256c0 -8 -4 -13 -8 -16c0 0 -103 -65 -248 -65c-199 0 -359 158 -359 358zM301 766c-12 -7 -17 -5 -23 3l-26 37c-5 7 0 15 6 19l130 101c6 5 14 5 21 0l130 -101c6 -4 11 -12 6 -19l-26 -37c-6 -8 -11 -10 -23 -3l-97 61z" />
    <glyph glyph-name="Gbreve" unicode="&#x11e;" horiz-adv-x="712" 
d="M41 349c0 200 160 361 359 361c90 0 176 -35 244 -93c8 -8 9 -20 1 -28l-62 -65c-8 -8 -17 -8 -26 0c-43 38 -96 58 -151 58c-125 0 -224 -107 -224 -232c0 -124 99 -229 225 -229c56 0 99 17 119 25v85h-80c-11 0 -19 8 -19 18v79c0 11 8 19 19 19h192
c10 0 18 -9 18 -19v-256c0 -8 -4 -13 -8 -16c0 0 -103 -65 -248 -65c-199 0 -359 158 -359 358zM401 766c-73 0 -130 51 -140 118c-2 11 5 21 18 21h37c9 0 15 -7 17 -14c10 -30 35 -53 68 -53c30 0 56 26 66 53c2 9 10 14 17 14h39c12 0 19 -10 18 -21
c-11 -67 -68 -118 -140 -118z" />
    <glyph glyph-name="Gdotaccent" unicode="&#x120;" horiz-adv-x="712" 
d="M41 349c0 200 160 361 359 361c90 0 176 -35 244 -93c8 -8 9 -20 1 -28l-62 -65c-8 -8 -17 -8 -26 0c-43 38 -96 58 -151 58c-125 0 -224 -107 -224 -232c0 -124 99 -229 225 -229c56 0 99 17 119 25v85h-80c-11 0 -19 8 -19 18v79c0 11 8 19 19 19h192
c10 0 18 -9 18 -19v-256c0 -8 -4 -13 -8 -16c0 0 -103 -65 -248 -65c-199 0 -359 158 -359 358zM401 781c-40 0 -72 32 -72 72s32 72 72 72s72 -32 72 -72s-32 -72 -72 -72z" />
    <glyph glyph-name="Gcommaaccent" unicode="&#x122;" horiz-adv-x="712" 
d="M41 349c0 200 160 361 359 361c90 0 176 -35 244 -93c8 -8 9 -20 1 -28l-62 -65c-8 -8 -17 -8 -26 0c-43 38 -96 58 -151 58c-125 0 -224 -107 -224 -232c0 -124 99 -229 225 -229c56 0 99 17 119 25v85h-80c-11 0 -19 8 -19 18v79c0 11 8 19 19 19h192
c10 0 18 -9 18 -19v-256c0 -8 -4 -13 -8 -16c0 0 -103 -65 -248 -65c-199 0 -359 158 -359 358zM396 -91c36 0 83 -25 83 -107c0 -98 -64 -158 -90 -181c-8 -6 -16 -7 -23 1l-15 14c-6 7 -4 17 3 23c10 7 67 52 68 122c-1 0 -14 -5 -31 -5c-36 0 -67 29 -67 66s31 67 72 67z
" />
    <glyph glyph-name="Hcircumflex" unicode="&#x124;" horiz-adv-x="769" 
d="M91 19v662c0 10 9 19 19 19h93c11 0 19 -9 19 -19v-265h326v265c0 10 8 19 19 19h92c10 0 19 -9 19 -19v-662c0 -10 -9 -19 -19 -19h-92c-11 0 -19 9 -19 19v276h-326v-276c0 -10 -8 -19 -19 -19h-93c-10 0 -19 9 -19 19zM291 766c-12 -7 -17 -5 -23 3l-26 37
c-5 7 0 15 6 19l130 101c6 5 14 5 21 0l130 -101c6 -4 11 -12 6 -19l-26 -37c-6 -8 -11 -10 -23 -3l-97 61z" />
    <glyph glyph-name="Hbar" unicode="&#x126;" horiz-adv-x="769" 
d="M91 19v514h-26c-10 0 -18 9 -18 19v13c0 10 8 19 18 19h26v97c0 10 9 19 19 19h93c11 0 19 -9 19 -19v-97h326v97c0 10 8 19 19 19h92c10 0 19 -9 19 -19v-97h26c11 0 19 -9 19 -19v-14c0 -10 -8 -18 -19 -18h-26v-514c0 -10 -9 -19 -19 -19h-92c-11 0 -19 9 -19 19v276
h-326v-276c0 -10 -8 -19 -19 -19h-93c-10 0 -19 9 -19 19zM222 416h326v117h-326v-117z" />
    <glyph glyph-name="Igrave" unicode="&#xcc;" horiz-adv-x="313" 
d="M91 19v662c0 10 9 19 19 19h93c10 0 19 -9 19 -19v-662c0 -10 -9 -19 -19 -19h-93c-10 0 -19 9 -19 19zM226 768l-175 77c-9 4 -13 15 -6 27l28 52c5 9 18 8 26 3l164 -98c5 -3 10 -11 6 -19l-18 -35c-4 -9 -11 -13 -25 -7z" />
    <glyph glyph-name="Iacute" unicode="&#xcd;" horiz-adv-x="313" 
d="M91 19v662c0 10 9 19 19 19h93c10 0 19 -9 19 -19v-662c0 -10 -9 -19 -19 -19h-93c-10 0 -19 9 -19 19zM86 768c-14 -6 -21 -2 -25 7l-18 35c-4 8 1 16 6 19l164 98c11 7 21 6 26 -3l28 -52c7 -12 3 -23 -6 -27z" />
    <glyph glyph-name="Ibreve" unicode="&#x12c;" horiz-adv-x="313" 
d="M91 19v662c0 10 9 19 19 19h93c10 0 19 -9 19 -19v-662c0 -10 -9 -19 -19 -19h-93c-10 0 -19 9 -19 19zM157 766c-73 0 -130 51 -140 118c-2 11 5 21 18 21h37c9 0 15 -7 17 -14c10 -30 35 -53 68 -53c30 0 56 26 66 53c2 9 10 14 17 14h39c12 0 19 -10 18 -21
c-11 -67 -68 -118 -140 -118z" />
    <glyph glyph-name="Icircumflex" unicode="&#xce;" horiz-adv-x="313" 
d="M91 19v662c0 10 9 19 19 19h93c10 0 19 -9 19 -19v-662c0 -10 -9 -19 -19 -19h-93c-10 0 -19 9 -19 19zM57 766c-12 -7 -17 -5 -23 3l-26 37c-5 7 0 15 6 19l130 101c6 5 14 5 21 0l130 -101c6 -4 11 -12 6 -19l-26 -37c-6 -8 -11 -10 -23 -3l-97 61z" />
    <glyph glyph-name="Itilde" unicode="&#x128;" horiz-adv-x="313" 
d="M91 19v662c0 10 9 19 19 19h93c10 0 19 -9 19 -19v-662c0 -10 -9 -19 -19 -19h-93c-10 0 -19 9 -19 19zM37 789l-29 21c-7 5 -9 16 -6 23c10 18 43 84 104 84c52 0 69 -55 107 -55c35 0 36 62 65 41l28 -20c9 -7 8 -19 1 -31c-11 -19 -40 -76 -97 -76
c-52 0 -76 56 -109 56c-36 0 -34 -62 -64 -43z" />
    <glyph glyph-name="Idieresis" unicode="&#xcf;" horiz-adv-x="313" 
d="M91 19v662c0 10 9 19 19 19h93c10 0 19 -9 19 -19v-662c0 -10 -9 -19 -19 -19h-93c-10 0 -19 9 -19 19zM279 775c-35 0 -63 29 -63 64s28 63 63 63s64 -28 64 -63s-29 -64 -64 -64zM32 775c-35 0 -63 29 -63 64s28 63 63 63s64 -28 64 -63s-29 -64 -64 -64z" />
    <glyph glyph-name="Imacron" unicode="&#x12a;" horiz-adv-x="313" 
d="M91 19v662c0 10 9 19 19 19h93c10 0 19 -9 19 -19v-662c0 -10 -9 -19 -19 -19h-93c-10 0 -19 9 -19 19zM29 808c-11 0 -19 8 -19 18v34c0 11 8 19 19 19h256c11 0 19 -8 19 -19v-34c0 -10 -8 -18 -19 -18h-256z" />
    <glyph glyph-name="Idotaccent" unicode="&#x130;" horiz-adv-x="313" 
d="M91 19v662c0 10 9 19 19 19h93c10 0 19 -9 19 -19v-662c0 -10 -9 -19 -19 -19h-93c-10 0 -19 9 -19 19zM157 781c-40 0 -72 32 -72 72s32 72 72 72s72 -32 72 -72s-32 -72 -72 -72z" />
    <glyph glyph-name="Iogonek" unicode="&#x12e;" horiz-adv-x="313" 
d="M91 19v662c0 10 9 19 19 19h93c10 0 19 -9 19 -19v-662c0 -10 -9 -19 -19 -19h-18c-18 -18 -45 -53 -45 -96c0 -35 23 -64 66 -64c20 0 34 6 46 9c11 3 20 -5 20 -17v-30c0 -9 -7 -16 -14 -19c-4 -1 -36 -10 -66 -10c-69 0 -127 35 -127 110c0 56 33 97 55 117h-10
c-10 0 -19 9 -19 19z" />
    <glyph glyph-name="Jcircumflex" unicode="&#x134;" horiz-adv-x="418" 
d="M-16 63c-5 8 -4 18 2 25l52 53c11 10 21 8 30 -1c13 -14 33 -32 66 -32c39 0 80 32 80 101v472c0 10 8 19 19 19h94c11 0 19 -9 19 -19v-472c0 -139 -93 -219 -210 -219c-87 0 -135 52 -152 73zM184 766c-12 -7 -17 -5 -23 3l-26 37c-5 7 0 15 6 19l130 101
c6 5 14 5 21 0l130 -101c6 -4 11 -12 6 -19l-26 -37c-6 -8 -11 -10 -23 -3l-97 61z" />
    <glyph glyph-name="Kcommaaccent" unicode="&#x136;" horiz-adv-x="655" 
d="M91 24v652c0 13 10 24 24 24h88c13 0 24 -11 24 -24v-270l252 284c4 5 10 10 19 10h100c19 0 29 -21 16 -36l-261 -294l280 -335c10 -13 2 -35 -18 -35h-109c-10 0 -16 4 -18 7l-261 322v-305c0 -13 -11 -24 -24 -24h-88c-14 0 -24 11 -24 24zM349 -91
c36 0 83 -25 83 -107c0 -98 -64 -158 -90 -181c-8 -6 -16 -7 -23 1l-15 14c-6 7 -4 17 3 23c10 7 67 52 68 122c-1 0 -14 -5 -31 -5c-36 0 -67 29 -67 66s31 67 72 67z" />
    <glyph glyph-name="Lacute" unicode="&#x139;" horiz-adv-x="505" 
d="M91 19v662c0 10 8 19 19 19h92c10 0 19 -9 19 -19v-561h255c11 0 19 -9 19 -19v-82c0 -10 -8 -19 -19 -19h-366c-11 0 -19 9 -19 19zM85 768c-14 -6 -21 -2 -25 7l-18 35c-4 8 1 16 6 19l164 98c11 7 21 6 26 -3l28 -52c7 -12 3 -23 -6 -27z" />
    <glyph glyph-name="Lcaron" unicode="&#x13d;" horiz-adv-x="505" 
d="M91 19v662c0 10 8 19 19 19h92c10 0 19 -9 19 -19v-561h255c11 0 19 -9 19 -19v-82c0 -10 -8 -19 -19 -19h-366c-11 0 -19 9 -19 19zM397 710c36 0 83 -25 83 -107c0 -98 -64 -158 -90 -181c-8 -6 -16 -7 -23 1l-15 14c-6 7 -4 17 3 23c10 7 67 52 68 122
c-1 0 -14 -5 -31 -5c-36 0 -67 29 -67 66s31 67 72 67z" />
    <glyph glyph-name="Lcommaaccent" unicode="&#x13b;" horiz-adv-x="506" 
d="M91 19v662c0 10 8 19 19 19h92c10 0 19 -9 19 -19v-561h255c11 0 19 -9 19 -19v-82c0 -10 -8 -19 -19 -19h-366c-11 0 -19 9 -19 19zM292 -91c36 0 83 -25 83 -107c0 -98 -64 -158 -90 -181c-8 -6 -16 -7 -23 1l-15 14c-6 7 -4 17 3 23c10 7 67 52 68 122
c-1 0 -14 -5 -31 -5c-36 0 -67 29 -67 66s31 67 72 67z" />
    <glyph glyph-name="Lslash" unicode="&#x141;" horiz-adv-x="518" 
d="M104 19v287l-23 -12c-8 -5 -20 -2 -25 7l-7 12c-5 8 -3 20 6 25l49 27v316c0 10 8 19 19 19h92c10 0 19 -9 19 -19v-240l87 51c10 5 21 1 26 -7l7 -13c5 -8 2 -19 -7 -25l-113 -66v-261h255c11 0 19 -9 19 -19v-82c0 -10 -8 -19 -19 -19h-366c-11 0 -19 9 -19 19z" />
    <glyph glyph-name="Ldot" unicode="&#x13f;" horiz-adv-x="577" 
d="M91 19v662c0 10 8 19 19 19h92c10 0 19 -9 19 -19v-561h255c11 0 19 -9 19 -19v-82c0 -10 -8 -19 -19 -19h-366c-11 0 -19 9 -19 19zM481 284c-40 0 -72 32 -72 72s32 72 72 72s72 -32 72 -72s-32 -72 -72 -72z" />
    <glyph glyph-name="Nacute" unicode="&#x143;" horiz-adv-x="773" 
d="M91 19v673c0 10 9 18 19 18h25l416 -442h1v413c0 10 8 19 19 19h92c10 0 19 -9 19 -19v-673c0 -10 -9 -18 -19 -18h-24l-418 459h-1v-430c0 -10 -8 -19 -19 -19h-91c-10 0 -19 9 -19 19zM319 768c-14 -6 -21 -2 -25 7l-18 35c-4 8 1 16 6 19l164 98c11 7 21 6 26 -3
l28 -52c7 -12 3 -23 -6 -27z" />
    <glyph glyph-name="Ncaron" unicode="&#x147;" horiz-adv-x="773" 
d="M91 19v673c0 10 9 18 19 18h25l416 -442h1v413c0 10 8 19 19 19h92c10 0 19 -9 19 -19v-673c0 -10 -9 -18 -19 -18h-24l-418 459h-1v-430c0 -10 -8 -19 -19 -19h-91c-10 0 -19 9 -19 19zM374 764l-130 101c-6 4 -11 12 -6 19l26 37c6 8 11 10 23 3l97 -61l98 61
c12 7 17 5 23 -3l26 -37c5 -7 0 -15 -6 -19l-130 -101c-6 -5 -14 -5 -21 0z" />
    <glyph glyph-name="Ntilde" unicode="&#xd1;" horiz-adv-x="773" 
d="M91 19v673c0 10 9 18 19 18h25l416 -442h1v413c0 10 8 19 19 19h92c10 0 19 -9 19 -19v-673c0 -10 -9 -18 -19 -18h-24l-418 459h-1v-430c0 -10 -8 -19 -19 -19h-91c-10 0 -19 9 -19 19zM266 789l-29 21c-7 5 -9 16 -6 23c10 18 43 84 104 84c52 0 69 -55 107 -55
c35 0 36 62 65 41l28 -20c9 -7 8 -19 1 -31c-11 -19 -40 -76 -97 -76c-52 0 -76 56 -109 56c-36 0 -34 -62 -64 -43z" />
    <glyph glyph-name="Ncommaaccent" unicode="&#x145;" horiz-adv-x="773" 
d="M91 19v673c0 10 9 18 19 18h25l416 -442h1v413c0 10 8 19 19 19h92c10 0 19 -9 19 -19v-673c0 -10 -9 -18 -19 -18h-24l-418 459h-1v-430c0 -10 -8 -19 -19 -19h-91c-10 0 -19 9 -19 19zM399 -91c36 0 83 -25 83 -107c0 -98 -64 -158 -90 -181c-8 -6 -16 -7 -23 1l-15 14
c-6 7 -4 17 3 23c10 7 67 52 68 122c-1 0 -14 -5 -31 -5c-36 0 -67 29 -67 66s31 67 72 67z" />
    <glyph glyph-name="Ograve" unicode="&#xd2;" horiz-adv-x="800" 
d="M41 349c0 200 159 361 359 361s360 -161 360 -361s-160 -359 -360 -359s-359 159 -359 359zM171 349c0 -126 103 -229 229 -229s230 103 230 229s-104 231 -230 231s-229 -105 -229 -231zM473 768l-175 77c-9 4 -13 15 -6 27l28 52c5 9 18 8 26 3l164 -98
c5 -3 10 -11 6 -19l-18 -35c-4 -9 -11 -13 -25 -7z" />
    <glyph glyph-name="Oacute" unicode="&#xd3;" horiz-adv-x="800" 
d="M41 349c0 200 159 361 359 361s360 -161 360 -361s-160 -359 -360 -359s-359 159 -359 359zM171 349c0 -126 103 -229 229 -229s230 103 230 229s-104 231 -230 231s-229 -105 -229 -231zM331 768c-14 -6 -21 -2 -25 7l-18 35c-4 8 1 16 6 19l164 98c11 7 21 6 26 -3
l28 -52c7 -12 3 -23 -6 -27z" />
    <glyph glyph-name="Ocircumflex" unicode="&#xd4;" horiz-adv-x="800" 
d="M41 349c0 200 159 361 359 361s360 -161 360 -361s-160 -359 -360 -359s-359 159 -359 359zM171 349c0 -126 103 -229 229 -229s230 103 230 229s-104 231 -230 231s-229 -105 -229 -231zM302 766c-12 -7 -17 -5 -23 3l-26 37c-5 7 0 15 6 19l130 101c6 5 14 5 21 0
l130 -101c6 -4 11 -12 6 -19l-26 -37c-6 -8 -11 -10 -23 -3l-97 61z" />
    <glyph glyph-name="Otilde" unicode="&#xd5;" horiz-adv-x="800" 
d="M41 349c0 200 159 361 359 361s360 -161 360 -361s-160 -359 -360 -359s-359 159 -359 359zM171 349c0 -126 103 -229 229 -229s230 103 230 229s-104 231 -230 231s-229 -105 -229 -231zM281 789l-29 21c-7 5 -9 16 -6 23c10 18 43 84 104 84c52 0 69 -55 107 -55
c35 0 36 62 65 41l28 -20c9 -7 8 -19 1 -31c-11 -19 -40 -76 -97 -76c-52 0 -76 56 -109 56c-36 0 -34 -62 -64 -43z" />
    <glyph glyph-name="Odieresis" unicode="&#xd6;" horiz-adv-x="800" 
d="M41 349c0 200 159 361 359 361s360 -161 360 -361s-160 -359 -360 -359s-359 159 -359 359zM171 349c0 -126 103 -229 229 -229s230 103 230 229s-104 231 -230 231s-229 -105 -229 -231zM523 775c-35 0 -63 29 -63 64s28 63 63 63s64 -28 64 -63s-29 -64 -64 -64z
M276 775c-35 0 -63 29 -63 64s28 63 63 63s64 -28 64 -63s-29 -64 -64 -64z" />
    <glyph glyph-name="Omacron" unicode="&#x14c;" horiz-adv-x="800" 
d="M41 349c0 200 159 361 359 361s360 -161 360 -361s-160 -359 -360 -359s-359 159 -359 359zM171 349c0 -126 103 -229 229 -229s230 103 230 229s-104 231 -230 231s-229 -105 -229 -231zM272 808c-11 0 -19 8 -19 18v34c0 11 8 19 19 19h256c11 0 19 -8 19 -19v-34
c0 -10 -8 -18 -19 -18h-256z" />
    <glyph glyph-name="Obreve" unicode="&#x14e;" horiz-adv-x="800" 
d="M41 349c0 200 159 361 359 361s360 -161 360 -361s-160 -359 -360 -359s-359 159 -359 359zM171 349c0 -126 103 -229 229 -229s230 103 230 229s-104 231 -230 231s-229 -105 -229 -231zM400 766c-73 0 -130 51 -140 118c-2 11 5 21 18 21h37c9 0 15 -7 17 -14
c10 -30 35 -53 68 -53c30 0 56 26 66 53c2 9 10 14 17 14h39c12 0 19 -10 18 -21c-11 -67 -68 -118 -140 -118z" />
    <glyph glyph-name="Ohungarumlaut" unicode="&#x150;" horiz-adv-x="800" 
d="M41 349c0 200 159 361 359 361s360 -161 360 -361s-160 -359 -360 -359s-359 159 -359 359zM171 349c0 -126 103 -229 229 -229s230 103 230 229s-104 231 -230 231s-229 -105 -229 -231zM479 768c-16 0 -22 9 -19 19l37 141c3 10 9 19 19 19h76c19 0 25 -13 18 -25
l-78 -139c-4 -8 -11 -15 -18 -15h-35zM313 768c-16 0 -22 9 -19 19l37 141c3 10 9 19 19 19h76c19 0 25 -12 18 -25l-78 -139c-4 -8 -11 -15 -18 -15h-35z" />
    <glyph glyph-name="Oslash" unicode="&#xd8;" horiz-adv-x="799" 
d="M63 23c-7 7 -8 19 -1 26l65 64c-54 63 -86 145 -86 236c0 200 159 361 359 361c90 0 173 -34 236 -88l68 67c7 7 19 7 26 0l10 -10c7 -7 7 -18 0 -26l-68 -68c54 -63 88 -145 88 -235c0 -200 -160 -360 -360 -360c-92 0 -174 32 -236 87l-65 -65c-7 -7 -19 -6 -26 1z
M221 207l323 322c-40 31 -90 51 -144 51c-126 0 -229 -105 -229 -231c0 -54 19 -103 50 -142zM257 170c39 -31 89 -50 143 -50c126 0 230 104 230 230c0 54 -19 104 -51 142z" />
    <glyph glyph-name="Oslashacute" unicode="&#x1fe;" horiz-adv-x="799" 
d="M63 23c-7 7 -8 19 -1 26l65 64c-54 63 -86 145 -86 236c0 200 159 361 359 361c90 0 173 -34 236 -88l68 67c7 7 19 7 26 0l10 -10c7 -7 7 -18 0 -26l-68 -68c54 -63 88 -145 88 -235c0 -200 -160 -360 -360 -360c-92 0 -174 32 -236 87l-65 -65c-7 -7 -19 -6 -26 1z
M221 207l323 322c-40 31 -90 51 -144 51c-126 0 -229 -105 -229 -231c0 -54 19 -103 50 -142zM257 170c39 -31 89 -50 143 -50c126 0 230 104 230 230c0 54 -19 104 -51 142zM330 768c-14 -6 -21 -2 -25 7l-18 35c-4 8 1 16 6 19l164 98c11 7 21 6 26 -3l28 -52
c7 -12 3 -23 -6 -27z" />
    <glyph glyph-name="OE" unicode="&#x152;" horiz-adv-x="975" 
d="M41 349c0 200 159 361 359 361c54 0 97 -10 97 -10h407c11 0 19 -9 19 -19v-82c0 -10 -8 -19 -19 -19h-296v-164h247c10 0 19 -9 19 -19v-83c0 -11 -9 -19 -19 -19h-247v-175h296c11 0 19 -9 19 -19v-82c0 -10 -8 -19 -19 -19h-407s-56 -10 -97 -10
c-200 0 -359 159 -359 359zM171 349c0 -126 103 -231 229 -231c27 0 53 3 78 13v437c-25 9 -51 14 -78 14c-126 0 -229 -107 -229 -233z" />
    <glyph glyph-name="Racute" unicode="&#x154;" horiz-adv-x="666" 
d="M91 19v662c0 10 8 19 19 19h286c120 0 218 -96 218 -215c0 -92 -61 -167 -148 -202l137 -254c7 -13 0 -29 -17 -29h-105c-9 0 -14 5 -16 9l-133 265h-111v-255c0 -10 -9 -19 -19 -19h-92c-11 0 -19 9 -19 19zM222 381h163c53 0 99 46 99 102c0 53 -46 97 -99 97h-163
v-199zM258 768c-14 -6 -21 -2 -25 7l-18 35c-4 8 1 16 6 19l164 98c11 7 21 6 26 -3l28 -52c7 -12 3 -23 -6 -27z" />
    <glyph glyph-name="Rcaron" unicode="&#x158;" horiz-adv-x="666" 
d="M91 19v662c0 10 8 19 19 19h286c120 0 218 -96 218 -215c0 -92 -61 -167 -148 -202l137 -254c7 -13 0 -29 -17 -29h-105c-9 0 -14 5 -16 9l-133 265h-111v-255c0 -10 -9 -19 -19 -19h-92c-11 0 -19 9 -19 19zM222 381h163c53 0 99 46 99 102c0 53 -46 97 -99 97h-163
v-199zM313 764l-130 101c-6 4 -11 12 -6 19l26 37c6 8 11 10 23 3l97 -61l98 61c12 7 17 5 23 -3l26 -37c5 -7 0 -15 -6 -19l-130 -101c-6 -5 -14 -5 -21 0z" />
    <glyph glyph-name="Rcommaaccent" unicode="&#x156;" horiz-adv-x="666" 
d="M91 19v662c0 10 8 19 19 19h286c120 0 218 -96 218 -215c0 -92 -61 -167 -148 -202l137 -254c7 -13 0 -29 -17 -29h-105c-9 0 -14 5 -16 9l-133 265h-111v-255c0 -10 -9 -19 -19 -19h-92c-11 0 -19 9 -19 19zM222 381h163c53 0 99 46 99 102c0 53 -46 97 -99 97h-163
v-199zM338 -91c36 0 83 -25 83 -107c0 -98 -64 -158 -90 -181c-8 -6 -16 -7 -23 1l-15 14c-6 7 -4 17 3 23c10 7 67 52 68 122c-1 0 -14 -5 -31 -5c-36 0 -67 29 -67 66s31 67 72 67z" />
    <glyph glyph-name="Sacute" unicode="&#x15a;" horiz-adv-x="542" 
d="M55 68c-9 9 -14 14 -5 30l36 62c8 14 25 14 34 7c5 -3 86 -62 151 -62c52 0 91 34 91 77c0 51 -43 86 -127 120c-94 38 -188 98 -188 216c0 89 66 192 225 192c102 0 180 -52 200 -67c10 -6 13 -23 6 -33l-38 -57c-8 -12 -23 -20 -35 -12c-8 5 -84 55 -139 55
c-57 0 -88 -38 -88 -70c0 -47 37 -79 118 -112c97 -39 209 -97 209 -226c0 -103 -89 -198 -230 -198c-126 0 -200 59 -220 78zM203 768c-14 -6 -21 -2 -25 7l-18 35c-4 8 1 16 6 19l164 98c11 7 21 6 26 -3l28 -52c7 -12 3 -23 -6 -27z" />
    <glyph glyph-name="Scircumflex" unicode="&#x15c;" horiz-adv-x="542" 
d="M55 68c-9 9 -14 14 -5 30l36 62c8 14 25 14 34 7c5 -3 86 -62 151 -62c52 0 91 34 91 77c0 51 -43 86 -127 120c-94 38 -188 98 -188 216c0 89 66 192 225 192c102 0 180 -52 200 -67c10 -6 13 -23 6 -33l-38 -57c-8 -12 -23 -20 -35 -12c-8 5 -84 55 -139 55
c-57 0 -88 -38 -88 -70c0 -47 37 -79 118 -112c97 -39 209 -97 209 -226c0 -103 -89 -198 -230 -198c-126 0 -200 59 -220 78zM173 766c-12 -7 -17 -5 -23 3l-26 37c-5 7 0 15 6 19l130 101c6 5 14 5 21 0l130 -101c6 -4 11 -12 6 -19l-26 -37c-6 -8 -11 -10 -23 -3l-97 61z
" />
    <glyph glyph-name="Scaron" unicode="&#x160;" horiz-adv-x="542" 
d="M55 68c-9 9 -14 14 -5 30l36 62c8 14 25 14 34 7c5 -3 86 -62 151 -62c52 0 91 34 91 77c0 51 -43 86 -127 120c-94 38 -188 98 -188 216c0 89 66 192 225 192c102 0 180 -52 200 -67c10 -6 13 -23 6 -33l-38 -57c-8 -12 -23 -20 -35 -12c-8 5 -84 55 -139 55
c-57 0 -88 -38 -88 -70c0 -47 37 -79 118 -112c97 -39 209 -97 209 -226c0 -103 -89 -198 -230 -198c-126 0 -200 59 -220 78zM261 764l-130 101c-6 4 -11 12 -6 19l26 37c6 8 11 10 23 3l97 -61l98 61c12 7 17 5 23 -3l26 -37c5 -7 0 -15 -6 -19l-130 -101
c-6 -5 -14 -5 -21 0z" />
    <glyph glyph-name="Scedilla" unicode="&#x15e;" horiz-adv-x="543" 
d="M55 68c-9 9 -14 14 -5 30l36 62c8 14 25 14 34 7c5 -3 86 -62 151 -62c52 0 91 34 91 77c0 51 -43 86 -127 120c-94 38 -188 98 -188 216c0 89 66 192 225 192c102 0 180 -52 200 -67c10 -6 13 -23 6 -33l-38 -57c-8 -12 -23 -20 -35 -12c-8 5 -84 55 -139 55
c-57 0 -88 -38 -88 -70c0 -47 37 -79 118 -112c97 -39 209 -97 209 -226c0 -102 -87 -196 -225 -198v-42c61 -8 97 -47 97 -103c0 -58 -47 -105 -106 -105c-30 0 -59 15 -76 35c-8 9 -6 20 3 28l20 17c6 6 16 5 21 -1c8 -9 21 -12 30 -12c20 0 35 17 35 37
c0 24 -21 45 -73 49c-15 2 -17 13 -17 18v84c-89 14 -143 57 -159 73z" />
    <glyph glyph-name="Scommaaccent" unicode="&#x218;" horiz-adv-x="542" 
d="M55 68c-9 9 -14 14 -5 30l36 62c8 14 25 14 34 7c5 -3 86 -62 151 -62c52 0 91 34 91 77c0 51 -43 86 -127 120c-94 38 -188 98 -188 216c0 89 66 192 225 192c102 0 180 -52 200 -67c10 -6 13 -23 6 -33l-38 -57c-8 -12 -23 -20 -35 -12c-8 5 -84 55 -139 55
c-57 0 -88 -38 -88 -70c0 -47 37 -79 118 -112c97 -39 209 -97 209 -226c0 -103 -89 -198 -230 -198c-126 0 -200 59 -220 78zM275 -91c36 0 83 -25 83 -107c0 -98 -64 -158 -90 -181c-8 -6 -16 -7 -23 1l-15 14c-6 7 -4 17 3 23c10 7 67 52 68 122c-1 0 -14 -5 -31 -5
c-36 0 -67 29 -67 66s31 67 72 67z" />
    <glyph glyph-name="Tcaron" unicode="&#x164;" horiz-adv-x="501" 
d="M185 19v561h-153c-11 0 -19 9 -19 19v82c0 10 8 19 19 19h437c11 0 19 -9 19 -19v-82c0 -10 -8 -19 -19 -19h-153v-561c0 -10 -9 -19 -19 -19h-93c-10 0 -19 9 -19 19zM239 764l-130 101c-6 4 -11 12 -6 19l26 37c6 8 11 10 23 3l97 -61l98 61c12 7 17 5 23 -3l26 -37
c5 -7 0 -15 -6 -19l-130 -101c-6 -5 -14 -5 -21 0z" />
    <glyph glyph-name="Tcommaaccent" unicode="&#x162;" horiz-adv-x="501" 
d="M185 19v561h-153c-11 0 -19 9 -19 19v82c0 10 8 19 19 19h437c11 0 19 -9 19 -19v-82c0 -10 -8 -19 -19 -19h-153v-561c0 -10 -9 -19 -19 -19h-93c-10 0 -19 9 -19 19zM245 -91c36 0 83 -25 83 -107c0 -98 -64 -158 -90 -181c-8 -6 -16 -7 -23 1l-15 14c-6 7 -4 17 3 23
c10 7 67 52 68 122c-1 0 -14 -5 -31 -5c-36 0 -67 29 -67 66s31 67 72 67z" />
    <glyph glyph-name="uni021A" unicode="&#x21a;" horiz-adv-x="501" 
d="M185 19v561h-153c-11 0 -19 9 -19 19v82c0 10 8 19 19 19h437c11 0 19 -9 19 -19v-82c0 -10 -8 -19 -19 -19h-153v-561c0 -10 -9 -19 -19 -19h-93c-10 0 -19 9 -19 19zM246 -91c36 0 83 -25 83 -107c0 -98 -64 -158 -90 -181c-8 -6 -16 -7 -23 1l-15 14c-6 7 -4 17 3 23
c10 7 67 52 68 122c-1 0 -14 -5 -31 -5c-36 0 -67 29 -67 66s31 67 72 67z" />
    <glyph glyph-name="Tbar" unicode="&#x166;" horiz-adv-x="501" 
d="M185 19v272h-94c-10 0 -18 9 -18 19v13c0 10 8 19 18 19h94v238h-153c-11 0 -19 9 -19 19v82c0 10 8 19 19 19h437c11 0 19 -9 19 -19v-82c0 -10 -8 -19 -19 -19h-153v-238h98c11 0 19 -9 19 -19v-14c0 -10 -8 -18 -19 -18h-98v-272c0 -10 -9 -19 -19 -19h-93
c-10 0 -19 9 -19 19z" />
    <glyph glyph-name="Thorn" unicode="&#xde;" horiz-adv-x="591" 
d="M91 19v662c0 10 8 19 19 19h92c10 0 19 -9 19 -19v-108h124c123 1 224 -100 224 -221c0 -124 -101 -225 -223 -225h-125v-108c0 -10 -9 -19 -19 -19h-92c-11 0 -19 9 -19 19zM221 249h116c56 0 103 45 103 104c0 55 -47 97 -103 97h-116v-201z" />
    <glyph glyph-name="Ugrave" unicode="&#xd9;" horiz-adv-x="721" 
d="M82 265v416c0 10 9 19 19 19h95c11 0 19 -9 19 -19v-409c0 -85 58 -152 145 -152s146 67 146 151v410c0 10 8 19 19 19h95c10 0 19 -9 19 -19v-416c0 -152 -121 -275 -279 -275c-157 0 -278 123 -278 275zM430 768l-175 77c-9 4 -13 15 -6 27l28 52c5 9 18 8 26 3
l164 -98c5 -3 10 -11 6 -19l-18 -35c-4 -9 -11 -13 -25 -7z" />
    <glyph glyph-name="Uacute" unicode="&#xda;" horiz-adv-x="721" 
d="M82 265v416c0 10 9 19 19 19h95c11 0 19 -9 19 -19v-409c0 -85 58 -152 145 -152s146 67 146 151v410c0 10 8 19 19 19h95c10 0 19 -9 19 -19v-416c0 -152 -121 -275 -279 -275c-157 0 -278 123 -278 275zM292 768c-14 -6 -21 -2 -25 7l-18 35c-4 8 1 16 6 19l164 98
c11 7 21 6 26 -3l28 -52c7 -12 3 -23 -6 -27z" />
    <glyph glyph-name="Ucircumflex" unicode="&#xdb;" horiz-adv-x="721" 
d="M82 265v416c0 10 9 19 19 19h95c11 0 19 -9 19 -19v-409c0 -85 58 -152 145 -152s146 67 146 151v410c0 10 8 19 19 19h95c10 0 19 -9 19 -19v-416c0 -152 -121 -275 -279 -275c-157 0 -278 123 -278 275zM263 766c-12 -7 -17 -5 -23 3l-26 37c-5 7 0 15 6 19l130 101
c6 5 14 5 21 0l130 -101c6 -4 11 -12 6 -19l-26 -37c-6 -8 -11 -10 -23 -3l-97 61z" />
    <glyph glyph-name="Utilde" unicode="&#x168;" horiz-adv-x="721" 
d="M82 265v416c0 10 9 19 19 19h95c11 0 19 -9 19 -19v-409c0 -85 58 -152 145 -152s146 67 146 151v410c0 10 8 19 19 19h95c10 0 19 -9 19 -19v-416c0 -152 -121 -275 -279 -275c-157 0 -278 123 -278 275zM241 789l-29 21c-7 5 -9 16 -6 23c10 18 43 84 104 84
c52 0 69 -55 107 -55c35 0 36 62 65 41l28 -20c9 -7 8 -19 1 -31c-11 -19 -40 -76 -97 -76c-52 0 -76 56 -109 56c-36 0 -34 -62 -64 -43z" />
    <glyph glyph-name="Udieresis" unicode="&#xdc;" horiz-adv-x="721" 
d="M82 265v416c0 10 9 19 19 19h95c11 0 19 -9 19 -19v-409c0 -85 58 -152 145 -152s146 67 146 151v410c0 10 8 19 19 19h95c10 0 19 -9 19 -19v-416c0 -152 -121 -275 -279 -275c-157 0 -278 123 -278 275zM483 775c-35 0 -63 29 -63 64s28 63 63 63s64 -28 64 -63
s-29 -64 -64 -64zM236 775c-35 0 -63 29 -63 64s28 63 63 63s64 -28 64 -63s-29 -64 -64 -64z" />
    <glyph glyph-name="Umacron" unicode="&#x16a;" horiz-adv-x="721" 
d="M82 265v416c0 10 9 19 19 19h95c11 0 19 -9 19 -19v-409c0 -85 58 -152 145 -152s146 67 146 151v410c0 10 8 19 19 19h95c10 0 19 -9 19 -19v-416c0 -152 -121 -275 -279 -275c-157 0 -278 123 -278 275zM233 808c-11 0 -19 8 -19 18v34c0 11 8 19 19 19h256
c11 0 19 -8 19 -19v-34c0 -10 -8 -18 -19 -18h-256z" />
    <glyph glyph-name="Ubreve" unicode="&#x16c;" horiz-adv-x="721" 
d="M82 265v416c0 10 9 19 19 19h95c11 0 19 -9 19 -19v-409c0 -85 58 -152 145 -152s146 67 146 151v410c0 10 8 19 19 19h95c10 0 19 -9 19 -19v-416c0 -152 -121 -275 -279 -275c-157 0 -278 123 -278 275zM362 766c-73 0 -130 51 -140 118c-2 11 5 21 18 21h37
c9 0 15 -7 17 -14c10 -30 35 -53 68 -53c30 0 56 26 66 53c2 9 10 14 17 14h39c12 0 19 -10 18 -21c-11 -67 -68 -118 -140 -118z" />
    <glyph glyph-name="Uring" unicode="&#x16e;" horiz-adv-x="721" 
d="M82 265v416c0 10 9 19 19 19h95c11 0 19 -9 19 -19v-409c0 -85 58 -152 145 -152s146 67 146 151v410c0 10 8 19 19 19h95c10 0 19 -9 19 -19v-416c0 -152 -121 -275 -279 -275c-157 0 -278 123 -278 275zM362 754c-63 0 -113 50 -113 113s50 113 113 113
c62 0 113 -50 113 -113s-51 -113 -113 -113zM362 817c26 0 48 24 48 50s-22 48 -48 48s-50 -22 -50 -48s24 -50 50 -50z" />
    <glyph glyph-name="Uhungarumlaut" unicode="&#x170;" horiz-adv-x="721" 
d="M82 265v416c0 10 9 19 19 19h95c11 0 19 -9 19 -19v-409c0 -85 58 -152 145 -152s146 67 146 151v410c0 10 8 19 19 19h95c10 0 19 -9 19 -19v-416c0 -152 -121 -275 -279 -275c-157 0 -278 123 -278 275zM432 768c-16 0 -22 9 -19 19l37 141c3 10 9 19 19 19h76
c19 0 25 -13 18 -25l-78 -139c-4 -8 -11 -15 -18 -15h-35zM266 768c-16 0 -22 9 -19 19l37 141c3 10 9 19 19 19h76c19 0 25 -12 18 -25l-78 -139c-4 -8 -11 -15 -18 -15h-35z" />
    <glyph glyph-name="Uogonek" unicode="&#x172;" horiz-adv-x="725" 
d="M84 265v416c0 10 9 19 19 19h95c11 0 19 -9 19 -19v-409c0 -85 58 -152 145 -152s146 67 146 151v410c0 10 8 19 19 19h95c10 0 19 -9 19 -19v-416c0 -145 -109 -263 -256 -274c-17 -20 -37 -50 -37 -87c0 -35 23 -64 66 -64c20 0 34 6 46 9c11 3 20 -5 20 -17v-30
c0 -9 -7 -16 -14 -19c-4 -1 -36 -10 -66 -10c-69 0 -127 35 -127 110c0 50 27 88 48 110c-137 19 -237 133 -237 272z" />
    <glyph glyph-name="Wacute" unicode="&#x1e82;" horiz-adv-x="899" 
d="M218 4l-189 672c-4 14 4 24 18 24h92c8 0 16 -7 18 -14l104 -399h4l159 412c2 6 7 11 17 11h18c10 0 15 -5 17 -11l160 -412h4l102 399c2 7 10 14 18 14h92c14 0 22 -10 18 -24l-189 -672c-2 -8 -10 -14 -18 -14h-16c-9 0 -15 5 -17 11l-179 453h-5l-177 -453
c-3 -6 -7 -11 -17 -11h-16c-8 0 -16 6 -18 14zM379 768c-14 -6 -21 -2 -25 7l-18 35c-4 8 1 16 6 19l164 98c11 7 21 6 26 -3l28 -52c7 -12 3 -23 -6 -27z" />
    <glyph glyph-name="Wcircumflex" unicode="&#x174;" horiz-adv-x="899" 
d="M218 4l-189 672c-4 14 4 24 18 24h92c8 0 16 -7 18 -14l104 -399h4l159 412c2 6 7 11 17 11h18c10 0 15 -5 17 -11l160 -412h4l102 399c2 7 10 14 18 14h92c14 0 22 -10 18 -24l-189 -672c-2 -8 -10 -14 -18 -14h-16c-9 0 -15 5 -17 11l-179 453h-5l-177 -453
c-3 -6 -7 -11 -17 -11h-16c-8 0 -16 6 -18 14zM352 766c-12 -7 -17 -5 -23 3l-26 37c-5 7 0 15 6 19l130 101c6 5 14 5 21 0l130 -101c6 -4 11 -12 6 -19l-26 -37c-6 -8 -11 -10 -23 -3l-97 61z" />
    <glyph glyph-name="Wdieresis" unicode="&#x1e84;" horiz-adv-x="899" 
d="M218 4l-189 672c-4 14 4 24 18 24h92c8 0 16 -7 18 -14l104 -399h4l159 412c2 6 7 11 17 11h18c10 0 15 -5 17 -11l160 -412h4l102 399c2 7 10 14 18 14h92c14 0 22 -10 18 -24l-189 -672c-2 -8 -10 -14 -18 -14h-16c-9 0 -15 5 -17 11l-179 453h-5l-177 -453
c-3 -6 -7 -11 -17 -11h-16c-8 0 -16 6 -18 14zM572 775c-35 0 -63 29 -63 64s28 63 63 63s64 -28 64 -63s-29 -64 -64 -64zM325 775c-35 0 -63 29 -63 64s28 63 63 63s64 -28 64 -63s-29 -64 -64 -64z" />
    <glyph glyph-name="Wgrave" unicode="&#x1e80;" horiz-adv-x="899" 
d="M218 4l-189 672c-4 14 4 24 18 24h92c8 0 16 -7 18 -14l104 -399h4l159 412c2 6 7 11 17 11h18c10 0 15 -5 17 -11l160 -412h4l102 399c2 7 10 14 18 14h92c14 0 22 -10 18 -24l-189 -672c-2 -8 -10 -14 -18 -14h-16c-9 0 -15 5 -17 11l-179 453h-5l-177 -453
c-3 -6 -7 -11 -17 -11h-16c-8 0 -16 6 -18 14zM520 768l-175 77c-9 4 -13 15 -6 27l28 52c5 9 18 8 26 3l164 -98c5 -3 10 -11 6 -19l-18 -35c-4 -9 -11 -13 -25 -7z" />
    <glyph glyph-name="Yacute" unicode="&#xdd;" horiz-adv-x="583" 
d="M225 19v318l-228 334c-8 13 0 29 16 29h102c8 0 13 -5 16 -9l160 -230l160 230c3 4 8 9 16 9h103c16 0 24 -16 16 -29l-231 -333v-319c0 -10 -9 -19 -19 -19h-92c-11 0 -19 9 -19 19zM221 768c-14 -6 -21 -2 -25 7l-18 35c-4 8 1 16 6 19l164 98c11 7 21 6 26 -3l28 -52
c7 -12 3 -23 -6 -27z" />
    <glyph glyph-name="Ycircumflex" unicode="&#x176;" horiz-adv-x="583" 
d="M225 19v318l-228 334c-8 13 0 29 16 29h102c8 0 13 -5 16 -9l160 -230l160 230c3 4 8 9 16 9h103c16 0 24 -16 16 -29l-231 -333v-319c0 -10 -9 -19 -19 -19h-92c-11 0 -19 9 -19 19zM194 766c-12 -7 -17 -5 -23 3l-26 37c-5 7 0 15 6 19l130 101c6 5 14 5 21 0l130 -101
c6 -4 11 -12 6 -19l-26 -37c-6 -8 -11 -10 -23 -3l-97 61z" />
    <glyph glyph-name="Ydieresis" unicode="&#x178;" horiz-adv-x="583" 
d="M225 19v318l-228 334c-8 13 0 29 16 29h102c8 0 13 -5 16 -9l160 -230l160 230c3 4 8 9 16 9h103c16 0 24 -16 16 -29l-231 -333v-319c0 -10 -9 -19 -19 -19h-92c-11 0 -19 9 -19 19zM414 775c-35 0 -63 29 -63 64s28 63 63 63s64 -28 64 -63s-29 -64 -64 -64zM167 775
c-35 0 -63 29 -63 64s28 63 63 63s64 -28 64 -63s-29 -64 -64 -64z" />
    <glyph glyph-name="Ygrave" unicode="&#x1ef2;" horiz-adv-x="583" 
d="M225 19v318l-228 334c-8 13 0 29 16 29h102c8 0 13 -5 16 -9l160 -230l160 230c3 4 8 9 16 9h103c16 0 24 -16 16 -29l-231 -333v-319c0 -10 -9 -19 -19 -19h-92c-11 0 -19 9 -19 19zM362 768l-175 77c-9 4 -13 15 -6 27l28 52c5 9 18 8 26 3l164 -98c5 -3 10 -11 6 -19
l-18 -35c-4 -9 -11 -13 -25 -7z" />
    <glyph glyph-name="Zacute" unicode="&#x179;" horiz-adv-x="538" 
d="M25 19v18l298 538v4h-250c-10 0 -19 9 -19 19v83c0 10 9 19 19 19h418c10 0 19 -9 19 -19v-13l-294 -545v-2h255c11 0 19 -9 19 -19v-83c0 -10 -8 -19 -19 -19h-427c-10 0 -19 9 -19 19zM214 768c-14 -6 -21 -2 -25 7l-18 35c-4 8 1 16 6 19l164 98c11 7 21 6 26 -3
l28 -52c7 -12 3 -23 -6 -27z" />
    <glyph glyph-name="Zcaron" unicode="&#x17d;" horiz-adv-x="538" 
d="M25 19v18l298 538v4h-250c-10 0 -19 9 -19 19v83c0 10 9 19 19 19h418c10 0 19 -9 19 -19v-13l-294 -545v-2h255c11 0 19 -9 19 -19v-83c0 -10 -8 -19 -19 -19h-427c-10 0 -19 9 -19 19zM269 764l-130 101c-6 4 -11 12 -6 19l26 37c6 8 11 10 23 3l97 -61l98 61
c12 7 17 5 23 -3l26 -37c5 -7 0 -15 -6 -19l-130 -101c-6 -5 -14 -5 -21 0z" />
    <glyph glyph-name="Zdotaccent" unicode="&#x17b;" horiz-adv-x="538" 
d="M25 19v18l298 538v4h-250c-10 0 -19 9 -19 19v83c0 10 9 19 19 19h418c10 0 19 -9 19 -19v-13l-294 -545v-2h255c11 0 19 -9 19 -19v-83c0 -10 -8 -19 -19 -19h-427c-10 0 -19 9 -19 19zM281 781c-40 0 -72 32 -72 72s32 72 72 72s72 -32 72 -72s-32 -72 -72 -72z" />
    <glyph glyph-name="agrave" unicode="&#xe0;" horiz-adv-x="426" 
d="M31 127c0 71 58 126 160 126c40 0 73 -11 73 -11c1 51 -15 69 -52 69s-89 -8 -112 -15c-14 -4 -21 5 -23 18l-9 52c-3 15 5 22 14 25c8 3 72 19 136 19c125 0 154 -65 154 -174v-217c0 -10 -9 -19 -19 -19h-36c-7 0 -12 3 -17 14l-12 27c-23 -21 -60 -51 -122 -51
c-80 0 -135 52 -135 137zM141 127c0 -30 21 -52 52 -52c32 0 63 27 69 39v55s-27 12 -56 12c-39 0 -65 -22 -65 -54zM297 528l-175 77c-8 4 -13 14 -6 27l28 51c5 9 17 9 26 3l164 -97c6 -3 10 -11 6 -19l-18 -36c-4 -9 -11 -12 -25 -6z" />
    <glyph glyph-name="aacute" unicode="&#xe1;" horiz-adv-x="426" 
d="M31 127c0 71 58 126 160 126c40 0 73 -11 73 -11c1 51 -15 69 -52 69s-89 -8 -112 -15c-14 -4 -21 5 -23 18l-9 52c-3 15 5 22 14 25c8 3 72 19 136 19c125 0 154 -65 154 -174v-217c0 -10 -9 -19 -19 -19h-36c-7 0 -12 3 -17 14l-12 27c-23 -21 -60 -51 -122 -51
c-80 0 -135 52 -135 137zM141 127c0 -30 21 -52 52 -52c32 0 63 27 69 39v55s-27 12 -56 12c-39 0 -65 -22 -65 -54zM156 528c-15 -6 -21 -3 -26 6l-17 36c-4 8 0 15 6 19l163 97c9 6 21 6 26 -3l29 -51c6 -13 2 -23 -6 -27z" />
    <glyph glyph-name="acircumflex" unicode="&#xe2;" horiz-adv-x="426" 
d="M31 127c0 71 58 126 160 126c40 0 73 -11 73 -11c1 51 -15 69 -52 69s-89 -8 -112 -15c-14 -4 -21 5 -23 18l-9 52c-3 15 5 22 14 25c8 3 72 19 136 19c125 0 154 -65 154 -174v-217c0 -10 -9 -19 -19 -19h-36c-7 0 -12 3 -17 14l-12 27c-23 -21 -60 -51 -122 -51
c-80 0 -135 52 -135 137zM141 127c0 -30 21 -52 52 -52c32 0 63 27 69 39v55s-27 12 -56 12c-39 0 -65 -22 -65 -54zM94 529l-26 37c-5 7 0 15 6 19l130 101c6 5 14 5 21 0l130 -101c6 -4 11 -12 6 -19l-26 -37c-6 -8 -11 -10 -23 -3l-97 61l-98 -61c-12 -7 -17 -5 -23 3z
" />
    <glyph glyph-name="atilde" unicode="&#xe3;" horiz-adv-x="426" 
d="M31 127c0 71 58 126 160 126c40 0 73 -11 73 -11c1 51 -15 69 -52 69s-89 -8 -112 -15c-14 -4 -21 5 -23 18l-9 52c-3 15 5 22 14 25c8 3 72 19 136 19c125 0 154 -65 154 -174v-217c0 -10 -9 -19 -19 -19h-36c-7 0 -12 3 -17 14l-12 27c-23 -21 -60 -51 -122 -51
c-80 0 -135 52 -135 137zM141 127c0 -30 21 -52 52 -52c32 0 63 27 69 39v55s-27 12 -56 12c-39 0 -65 -22 -65 -54zM97 562l-29 21c-7 5 -9 16 -6 23c10 18 43 84 104 84c52 0 69 -55 107 -55c35 0 36 62 65 41l28 -20c9 -7 8 -19 1 -31c-11 -19 -40 -76 -97 -76
c-52 0 -76 56 -109 56c-36 0 -34 -62 -64 -43z" />
    <glyph glyph-name="adieresis" unicode="&#xe4;" horiz-adv-x="426" 
d="M31 127c0 71 58 126 160 126c40 0 73 -11 73 -11c1 51 -15 69 -52 69s-89 -8 -112 -15c-14 -4 -21 5 -23 18l-9 52c-3 15 5 22 14 25c8 3 72 19 136 19c125 0 154 -65 154 -174v-217c0 -10 -9 -19 -19 -19h-36c-7 0 -12 3 -17 14l-12 27c-23 -21 -60 -51 -122 -51
c-80 0 -135 52 -135 137zM141 127c0 -30 21 -52 52 -52c32 0 63 27 69 39v55s-27 12 -56 12c-39 0 -65 -22 -65 -54zM319 551c-35 0 -63 29 -63 64s28 63 63 63s64 -28 64 -63s-29 -64 -64 -64zM118 551c-35 0 -63 29 -63 64s28 63 63 63s64 -28 64 -63s-29 -64 -64 -64z
" />
    <glyph glyph-name="amacron" unicode="&#x101;" horiz-adv-x="426" 
d="M31 127c0 71 58 126 160 126c40 0 73 -11 73 -11c1 51 -15 69 -52 69s-89 -8 -112 -15c-14 -4 -21 5 -23 18l-9 52c-3 15 5 22 14 25c8 3 72 19 136 19c125 0 154 -65 154 -174v-217c0 -10 -9 -19 -19 -19h-36c-7 0 -12 3 -17 14l-12 27c-23 -21 -60 -51 -122 -51
c-80 0 -135 52 -135 137zM141 127c0 -30 21 -52 52 -52c32 0 63 27 69 39v55s-27 12 -56 12c-39 0 -65 -22 -65 -54zM89 570c-11 0 -19 8 -19 18v34c0 11 8 19 19 19h256c11 0 19 -8 19 -19v-34c0 -10 -8 -18 -19 -18h-256z" />
    <glyph glyph-name="abreve" unicode="&#x103;" horiz-adv-x="426" 
d="M31 127c0 71 58 126 160 126c40 0 73 -11 73 -11c1 51 -15 69 -52 69s-89 -8 -112 -15c-14 -4 -21 5 -23 18l-9 52c-3 15 5 22 14 25c8 3 72 19 136 19c125 0 154 -65 154 -174v-217c0 -10 -9 -19 -19 -19h-36c-7 0 -12 3 -17 14l-12 27c-23 -21 -60 -51 -122 -51
c-80 0 -135 52 -135 137zM141 127c0 -30 21 -52 52 -52c32 0 63 27 69 39v55s-27 12 -56 12c-39 0 -65 -22 -65 -54zM224 528c-73 0 -130 51 -140 118c-2 12 5 22 18 22h37c9 0 15 -7 17 -14c10 -31 35 -53 68 -53c30 0 56 25 66 53c2 8 10 14 17 14h39c12 0 19 -10 18 -22
c-11 -67 -68 -118 -140 -118z" />
    <glyph glyph-name="aring" unicode="&#xe5;" horiz-adv-x="426" 
d="M31 127c0 71 58 126 160 126c40 0 73 -11 73 -11c1 51 -15 69 -52 69s-89 -8 -112 -15c-14 -4 -21 5 -23 18l-9 52c-3 15 5 22 14 25c8 3 72 19 136 19c125 0 154 -65 154 -174v-217c0 -10 -9 -19 -19 -19h-36c-7 0 -12 3 -17 14l-12 27c-23 -21 -60 -51 -122 -51
c-80 0 -135 52 -135 137zM141 127c0 -30 21 -52 52 -52c32 0 63 27 69 39v55s-27 12 -56 12c-39 0 -65 -22 -65 -54zM220 484c-63 0 -113 50 -113 113s50 113 113 113c62 0 113 -50 113 -113s-51 -113 -113 -113zM220 547c26 0 48 24 48 50s-22 48 -48 48s-50 -22 -50 -48
s24 -50 50 -50z" />
    <glyph glyph-name="aringacute" unicode="&#x1fb;" horiz-adv-x="426" 
d="M31 127c0 71 58 126 160 126c40 0 73 -11 73 -11c1 51 -15 69 -52 69s-89 -8 -112 -15c-14 -4 -21 5 -23 18l-9 52c-3 15 5 22 14 25c8 3 72 19 136 19c125 0 154 -65 154 -174v-217c0 -10 -9 -19 -19 -19h-36c-7 0 -12 3 -17 14l-12 27c-23 -21 -60 -51 -122 -51
c-80 0 -135 52 -135 137zM141 127c0 -30 21 -52 52 -52c32 0 63 27 69 39v55s-27 12 -56 12c-39 0 -65 -22 -65 -54zM219 427c-63 0 -113 50 -113 113s50 113 113 113c62 0 113 -50 113 -113s-51 -113 -113 -113zM219 490c26 0 48 24 48 50s-22 48 -48 48s-50 -22 -50 -48
s24 -50 50 -50zM148 662c-15 -6 -21 -3 -26 6l-17 36c-4 8 0 15 6 19l163 97c9 6 21 6 26 -3l29 -51c6 -13 2 -23 -6 -27z" />
    <glyph glyph-name="aogonek" unicode="&#x105;" horiz-adv-x="426" 
d="M30 127c0 71 58 126 160 126c40 0 73 -11 73 -11c1 51 -12 77 -58 77c-37 0 -83 -11 -106 -16c-14 -3 -21 5 -23 18l-9 45c-3 15 5 22 14 25c8 3 72 19 136 19c125 0 154 -65 154 -174v-217c0 -10 -9 -19 -19 -19h-4c-18 -18 -45 -53 -45 -96c0 -35 23 -64 66 -64
c20 0 34 6 46 9c11 3 20 -5 20 -17v-30c0 -9 -7 -16 -14 -19c-4 -1 -36 -10 -66 -10c-69 0 -127 35 -127 110c0 79 67 128 71 130l-12 28c-23 -21 -60 -51 -122 -51c-80 0 -135 52 -135 137zM140 127c0 -30 21 -54 52 -54c32 0 63 28 69 44v52s-27 12 -56 12
c-39 0 -65 -22 -65 -54z" />
    <glyph glyph-name="ae" unicode="&#xe6;" horiz-adv-x="670" 
d="M30 127c0 72 58 126 156 126c41 0 76 -8 76 -8c-2 51 -11 73 -55 73c-39 0 -86 -10 -109 -16c-10 -1 -21 6 -23 16l-9 54c-1 10 7 18 16 20c0 0 74 18 136 18c63 0 100 -14 121 -41c33 26 74 41 120 41c102 0 187 -76 187 -186c0 -19 0 -44 -21 -44h-255
c5 -41 39 -88 95 -88c31 0 60 13 79 26c9 6 19 9 26 0l40 -47c6 -8 9 -18 -1 -26c-33 -31 -84 -55 -149 -55c-61 0 -114 22 -150 65c-17 -22 -68 -65 -142 -65c-82 0 -138 53 -138 137zM379 251h150c-2 38 -35 67 -73 67c-40 0 -72 -29 -77 -67zM140 130
c0 -33 26 -54 56 -54c44 0 66 42 66 42v52s-27 13 -62 13c-32 0 -60 -21 -60 -53z" />
    <glyph glyph-name="aeacute" unicode="&#x1fd;" horiz-adv-x="670" 
d="M30 127c0 72 58 126 156 126c41 0 76 -8 76 -8c-2 51 -11 73 -55 73c-39 0 -86 -10 -109 -16c-10 -1 -21 6 -23 16l-9 54c-1 10 7 18 16 20c0 0 74 18 136 18c63 0 100 -14 121 -41c33 26 74 41 120 41c102 0 187 -76 187 -186c0 -19 0 -44 -21 -44h-255
c5 -41 39 -88 95 -88c31 0 60 13 79 26c9 6 19 9 26 0l40 -47c6 -8 9 -18 -1 -26c-33 -31 -84 -55 -149 -55c-61 0 -114 22 -150 65c-17 -22 -68 -65 -142 -65c-82 0 -138 53 -138 137zM379 251h150c-2 38 -35 67 -73 67c-40 0 -72 -29 -77 -67zM140 130
c0 -33 26 -54 56 -54c44 0 66 42 66 42v52s-27 13 -62 13c-32 0 -60 -21 -60 -53zM311 528c-15 -6 -21 -3 -26 6l-17 36c-4 8 0 15 6 19l163 97c9 6 21 6 26 -3l29 -51c6 -13 2 -23 -6 -27z" />
    <glyph glyph-name="cacute" unicode="&#x107;" horiz-adv-x="426" 
d="M29 200c0 118 101 210 213 210c62 0 110 -25 148 -71c7 -9 5 -21 -5 -28l-46 -44c-9 -8 -18 -3 -25 3c-16 18 -41 32 -69 32c-54 0 -98 -46 -98 -102c0 -57 43 -102 97 -102c43 0 62 21 80 38c7 7 17 9 25 3l43 -37c10 -8 14 -18 7 -28c-34 -53 -87 -84 -158 -84
c-113 0 -212 90 -212 210zM171 528c-15 -6 -21 -3 -26 6l-17 36c-4 8 0 15 6 19l163 97c9 6 21 6 26 -3l29 -51c6 -13 2 -23 -6 -27z" />
    <glyph glyph-name="ccircumflex" unicode="&#x109;" horiz-adv-x="426" 
d="M29 200c0 118 101 210 213 210c62 0 110 -25 148 -71c7 -9 5 -21 -5 -28l-46 -44c-9 -8 -18 -3 -25 3c-16 18 -41 32 -69 32c-54 0 -98 -46 -98 -102c0 -57 43 -102 97 -102c43 0 62 21 80 38c7 7 17 9 25 3l43 -37c10 -8 14 -18 7 -28c-34 -53 -87 -84 -158 -84
c-113 0 -212 90 -212 210zM121 529l-26 37c-5 7 0 15 6 19l130 101c6 5 14 5 21 0l130 -101c6 -4 11 -12 6 -19l-26 -37c-6 -8 -11 -10 -23 -3l-97 61l-98 -61c-12 -7 -17 -5 -23 3z" />
    <glyph glyph-name="ccaron" unicode="&#x10d;" horiz-adv-x="426" 
d="M29 200c0 118 101 210 213 210c62 0 110 -25 148 -71c7 -9 5 -21 -5 -28l-46 -44c-9 -8 -18 -3 -25 3c-16 18 -41 32 -69 32c-54 0 -98 -46 -98 -102c0 -57 43 -102 97 -102c43 0 62 21 80 38c7 7 17 9 25 3l43 -37c10 -8 14 -18 7 -28c-34 -53 -87 -84 -158 -84
c-113 0 -212 90 -212 210zM231 524l-130 101c-6 4 -11 12 -6 19l26 37c6 8 11 10 23 3l97 -61l98 61c12 7 17 5 23 -3l26 -37c5 -7 0 -15 -6 -19l-130 -101c-6 -5 -14 -5 -21 0z" />
    <glyph glyph-name="cdotaccent" unicode="&#x10b;" horiz-adv-x="426" 
d="M29 200c0 118 101 210 213 210c62 0 110 -25 148 -71c7 -9 5 -21 -5 -28l-46 -44c-9 -8 -18 -3 -25 3c-16 18 -41 32 -69 32c-54 0 -98 -46 -98 -102c0 -57 43 -102 97 -102c43 0 62 21 80 38c7 7 17 9 25 3l43 -37c10 -8 14 -18 7 -28c-34 -53 -87 -84 -158 -84
c-113 0 -212 90 -212 210zM242 536c-40 0 -72 32 -72 72s32 72 72 72s72 -32 72 -72s-32 -72 -72 -72z" />
    <glyph glyph-name="ccedilla" unicode="&#xe7;" horiz-adv-x="428" 
d="M180 0c-85 25 -150 102 -150 200c0 118 101 210 213 210c62 0 110 -25 148 -71c7 -9 5 -21 -5 -28l-46 -44c-9 -8 -18 -3 -25 3c-16 18 -41 32 -69 32c-54 0 -98 -46 -98 -102c0 -57 43 -102 97 -102c43 0 62 21 80 38c7 7 17 9 25 3l43 -37c10 -8 14 -18 7 -28
c-34 -52 -85 -83 -154 -84v-41c61 -8 97 -47 97 -103c0 -58 -47 -105 -106 -105c-30 0 -59 15 -76 35c-8 9 -6 20 3 28l20 17c6 6 16 5 21 -1c8 -9 21 -12 30 -12c20 0 35 17 35 37c0 24 -21 45 -73 49c-15 2 -17 13 -17 18v88z" />
    <glyph glyph-name="dcaron" unicode="&#x10f;" horiz-adv-x="530" 
d="M30 200c0 117 79 210 198 210c40 0 71 -11 89 -18v289c0 10 9 19 19 19h85c10 0 19 -9 19 -19v-662c0 -10 -9 -19 -19 -19h-39c-9 0 -16 8 -19 19l-10 31s-47 -60 -131 -60c-109 0 -192 95 -192 210zM146 200c0 -56 38 -102 91 -102s77 41 84 65v116s-28 23 -78 23
c-56 0 -97 -46 -97 -102zM576 423l-14 14c-7 7 -5 17 2 23c10 7 68 52 68 122c-1 0 -14 -5 -30 -5c-37 0 -67 29 -67 66s30 67 71 67c36 0 83 -25 83 -107c0 -98 -64 -158 -90 -181c-8 -6 -15 -7 -23 1z" />
    <glyph glyph-name="dcroat" unicode="&#x111;" 
d="M30 200c0 117 79 210 198 210c40 0 71 -11 89 -18v141h-115c-11 0 -19 8 -19 18v14c0 10 8 19 19 19h115v97c0 10 9 19 19 19h85c10 0 19 -9 19 -19v-97h33c10 0 18 -9 18 -19v-13c0 -10 -8 -19 -18 -19h-33v-514c0 -10 -9 -19 -19 -19h-39c-9 0 -16 8 -19 19l-10 31
s-47 -60 -131 -60c-109 0 -192 95 -192 210zM146 200c0 -56 38 -102 91 -102s77 41 84 65v114s-28 23 -78 23c-56 0 -97 -44 -97 -100z" />
    <glyph glyph-name="eth" unicode="&#xf0;" horiz-adv-x="528" 
d="M29 219c0 143 104 217 204 217c47 0 97 -18 114 -28c-16 55 -59 99 -105 132l-81 -47c-9 -5 -20 -2 -25 6l-7 13c-5 8 -3 20 6 25l58 33c-27 15 -52 25 -66 30c-19 6 -23 17 -18 29l23 59c4 13 14 18 28 14c30 -12 82 -34 137 -71l69 40c10 5 21 1 26 -8l7 -11
c5 -9 3 -21 -6 -26l-52 -30c80 -68 152 -174 152 -330c0 -150 -81 -276 -238 -276c-123 0 -226 103 -226 229zM142 221c0 -63 51 -117 114 -117c81 0 117 79 117 147c-11 36 -50 87 -116 87c-64 0 -115 -53 -115 -117z" />
    <glyph glyph-name="egrave" unicode="&#xe8;" horiz-adv-x="445" 
d="M30 200c0 113 85 210 204 210c103 0 187 -78 187 -186c0 -7 -1 -20 -2 -27c-1 -10 -10 -17 -19 -17h-256c3 -41 38 -87 96 -87c31 0 60 12 78 25c10 6 19 8 26 0l41 -47c7 -7 9 -18 -1 -26c-33 -31 -84 -55 -149 -55c-120 0 -205 95 -205 210zM153 250h151
c-3 37 -35 68 -73 68c-40 0 -73 -30 -78 -68zM302 528l-175 77c-8 4 -13 14 -6 27l28 51c5 9 17 9 26 3l164 -97c6 -3 10 -11 6 -19l-18 -36c-4 -9 -11 -12 -25 -6z" />
    <glyph glyph-name="eacute" unicode="&#xe9;" horiz-adv-x="445" 
d="M30 200c0 113 85 210 204 210c103 0 187 -78 187 -186c0 -7 -1 -20 -2 -27c-1 -10 -10 -17 -19 -17h-256c3 -41 38 -87 96 -87c31 0 60 12 78 25c10 6 19 8 26 0l41 -47c7 -7 9 -18 -1 -26c-33 -31 -84 -55 -149 -55c-120 0 -205 95 -205 210zM153 250h151
c-3 37 -35 68 -73 68c-40 0 -73 -30 -78 -68zM160 528c-15 -6 -21 -3 -26 6l-17 36c-4 8 0 15 6 19l163 97c9 6 21 6 26 -3l29 -51c6 -13 2 -23 -6 -27z" />
    <glyph glyph-name="ecircumflex" unicode="&#xea;" horiz-adv-x="445" 
d="M30 200c0 113 85 210 204 210c103 0 187 -78 187 -186c0 -7 -1 -20 -2 -27c-1 -10 -10 -17 -19 -17h-256c3 -41 38 -87 96 -87c31 0 60 12 78 25c10 6 19 8 26 0l41 -47c7 -7 9 -18 -1 -26c-33 -31 -84 -55 -149 -55c-120 0 -205 95 -205 210zM153 250h151
c-3 37 -35 68 -73 68c-40 0 -73 -30 -78 -68zM111 529l-26 37c-5 7 0 15 6 19l130 101c6 5 14 5 21 0l130 -101c6 -4 11 -12 6 -19l-26 -37c-6 -8 -11 -10 -23 -3l-97 61l-98 -61c-12 -7 -17 -5 -23 3z" />
    <glyph glyph-name="ecaron" unicode="&#x11b;" horiz-adv-x="445" 
d="M30 200c0 113 85 210 204 210c103 0 187 -78 187 -186c0 -7 -1 -20 -2 -27c-1 -10 -10 -17 -19 -17h-256c3 -41 38 -87 96 -87c31 0 60 12 78 25c10 6 19 8 26 0l41 -47c7 -7 9 -18 -1 -26c-33 -31 -84 -55 -149 -55c-120 0 -205 95 -205 210zM153 250h151
c-3 37 -35 68 -73 68c-40 0 -73 -30 -78 -68zM221 524l-130 101c-6 4 -11 12 -6 19l26 37c6 8 11 10 23 3l97 -61l98 61c12 7 17 5 23 -3l26 -37c5 -7 0 -15 -6 -19l-130 -101c-6 -5 -14 -5 -21 0z" />
    <glyph glyph-name="edieresis" unicode="&#xeb;" horiz-adv-x="445" 
d="M30 200c0 113 85 210 204 210c103 0 187 -78 187 -186c0 -7 -1 -20 -2 -27c-1 -10 -10 -17 -19 -17h-256c3 -41 38 -87 96 -87c31 0 60 12 78 25c10 6 19 8 26 0l41 -47c7 -7 9 -18 -1 -26c-33 -31 -84 -55 -149 -55c-120 0 -205 95 -205 210zM153 250h151
c-3 37 -35 68 -73 68c-40 0 -73 -30 -78 -68zM332 551c-35 0 -63 29 -63 64s28 63 63 63s64 -28 64 -63s-29 -64 -64 -64zM131 551c-35 0 -63 29 -63 64s28 63 63 63s64 -28 64 -63s-29 -64 -64 -64z" />
    <glyph glyph-name="emacron" unicode="&#x113;" horiz-adv-x="445" 
d="M30 200c0 113 85 210 204 210c103 0 187 -78 187 -186c0 -7 -1 -20 -2 -27c-1 -10 -10 -17 -19 -17h-256c3 -41 38 -87 96 -87c31 0 60 12 78 25c10 6 19 8 26 0l41 -47c7 -7 9 -18 -1 -26c-33 -31 -84 -55 -149 -55c-120 0 -205 95 -205 210zM153 250h151
c-3 37 -35 68 -73 68c-40 0 -73 -30 -78 -68zM103 570c-11 0 -19 8 -19 18v34c0 11 8 19 19 19h256c11 0 19 -8 19 -19v-34c0 -10 -8 -18 -19 -18h-256z" />
    <glyph glyph-name="ebreve" unicode="&#x115;" horiz-adv-x="445" 
d="M30 200c0 113 85 210 204 210c103 0 187 -78 187 -186c0 -7 -1 -20 -2 -27c-1 -10 -10 -17 -19 -17h-256c3 -41 38 -87 96 -87c31 0 60 12 78 25c10 6 19 8 26 0l41 -47c7 -7 9 -18 -1 -26c-33 -31 -84 -55 -149 -55c-120 0 -205 95 -205 210zM153 250h151
c-3 37 -35 68 -73 68c-40 0 -73 -30 -78 -68zM232 528c-73 0 -130 51 -140 118c-2 12 5 22 18 22h37c9 0 15 -7 17 -14c10 -31 35 -53 68 -53c30 0 56 25 66 53c2 8 10 14 17 14h39c12 0 19 -10 18 -22c-11 -67 -68 -118 -140 -118z" />
    <glyph glyph-name="edotaccent" unicode="&#x117;" horiz-adv-x="445" 
d="M30 200c0 113 85 210 204 210c103 0 187 -78 187 -186c0 -7 -1 -20 -2 -27c-1 -10 -10 -17 -19 -17h-256c3 -41 38 -87 96 -87c31 0 60 12 78 25c10 6 19 8 26 0l41 -47c7 -7 9 -18 -1 -26c-33 -31 -84 -55 -149 -55c-120 0 -205 95 -205 210zM153 250h151
c-3 37 -35 68 -73 68c-40 0 -73 -30 -78 -68zM232 536c-40 0 -72 32 -72 72s32 72 72 72s72 -32 72 -72s-32 -72 -72 -72z" />
    <glyph glyph-name="eogonek" unicode="&#x119;" horiz-adv-x="446" 
d="M153 -117c0 50 27 88 48 110c-102 16 -171 103 -171 207c0 113 85 210 204 210c103 0 187 -78 187 -186c0 -7 -1 -20 -2 -27c-1 -10 -10 -17 -19 -17h-256c3 -41 38 -88 96 -88c31 0 60 13 78 26c10 6 20 9 26 0c16 -17 25 -30 41 -47c7 -7 9 -18 -1 -26
c-28 -26 -68 -46 -118 -53c-17 -19 -38 -50 -38 -88c0 -35 23 -64 66 -64c20 0 34 6 46 9c11 3 20 -5 20 -17v-30c0 -9 -7 -16 -14 -19c-4 -1 -36 -10 -66 -10c-69 0 -127 35 -127 110zM153 250h151c-3 37 -35 68 -73 68c-40 0 -73 -30 -78 -68z" />
    <glyph glyph-name="gcircumflex" unicode="&#x11d;" horiz-adv-x="462" 
d="M18 30c0 78 75 112 75 112s-30 34 -30 94c0 93 75 174 174 174h182c11 0 19 -8 19 -19v-33c0 -7 -4 -15 -11 -17l-56 -18s40 -31 40 -102c0 -79 -66 -157 -171 -157c-38 0 -64 8 -80 8c-14 0 -37 -14 -37 -38c0 -21 18 -34 40 -34h128c91 0 165 -52 165 -140
c0 -92 -74 -170 -219 -170c-148 0 -204 73 -204 137c0 60 50 89 60 95v3c-17 5 -75 32 -75 105zM170 231c0 -42 30 -72 70 -72c41 0 69 30 69 72s-28 72 -69 72c-40 0 -70 -30 -70 -72zM148 -151c0 -35 34 -59 88 -59c56 0 93 25 93 63c0 18 -14 49 -73 49
c-22 0 -44 -1 -65 -4c-12 -4 -43 -18 -43 -49zM129 529l-26 37c-5 7 0 15 6 19l130 101c6 5 14 5 21 0l130 -101c6 -4 11 -12 6 -19l-26 -37c-6 -8 -11 -10 -23 -3l-97 61l-98 -61c-12 -7 -17 -5 -23 3z" />
    <glyph glyph-name="gbreve" unicode="&#x11f;" horiz-adv-x="462" 
d="M18 30c0 78 75 112 75 112s-30 34 -30 94c0 93 75 174 174 174h182c11 0 19 -8 19 -19v-33c0 -7 -4 -15 -11 -17l-56 -18s40 -31 40 -102c0 -79 -66 -157 -171 -157c-38 0 -64 8 -80 8c-14 0 -37 -14 -37 -38c0 -21 18 -34 40 -34h128c91 0 165 -52 165 -140
c0 -92 -74 -170 -219 -170c-148 0 -204 73 -204 137c0 60 50 89 60 95v3c-17 5 -75 32 -75 105zM170 231c0 -42 30 -72 70 -72c41 0 69 30 69 72s-28 72 -69 72c-40 0 -70 -30 -70 -72zM148 -151c0 -35 34 -59 88 -59c56 0 93 25 93 63c0 18 -14 49 -73 49
c-22 0 -44 -1 -65 -4c-12 -4 -43 -18 -43 -49zM249 528c-73 0 -130 51 -140 118c-2 12 5 22 18 22h37c9 0 15 -7 17 -14c10 -31 35 -53 68 -53c30 0 56 25 66 53c2 8 10 14 17 14h39c12 0 19 -10 18 -22c-11 -67 -68 -118 -140 -118z" />
    <glyph glyph-name="gdotaccent" unicode="&#x121;" horiz-adv-x="462" 
d="M18 30c0 78 75 112 75 112s-30 34 -30 94c0 93 75 174 174 174h182c11 0 19 -8 19 -19v-33c0 -7 -4 -15 -11 -17l-56 -18s40 -31 40 -102c0 -79 -66 -157 -171 -157c-38 0 -64 8 -80 8c-14 0 -37 -14 -37 -38c0 -21 18 -34 40 -34h128c91 0 165 -52 165 -140
c0 -92 -74 -170 -219 -170c-148 0 -204 73 -204 137c0 60 50 89 60 95v3c-17 5 -75 32 -75 105zM170 231c0 -42 30 -72 70 -72c41 0 69 30 69 72s-28 72 -69 72c-40 0 -70 -30 -70 -72zM148 -151c0 -35 34 -59 88 -59c56 0 93 25 93 63c0 18 -14 49 -73 49
c-22 0 -44 -1 -65 -4c-12 -4 -43 -18 -43 -49zM247 536c-40 0 -72 32 -72 72s32 72 72 72s72 -32 72 -72s-32 -72 -72 -72z" />
    <glyph glyph-name="gcommaaccent" unicode="&#x123;" horiz-adv-x="462" 
d="M252 529c-36 0 -83 25 -83 107c0 98 64 158 90 181c8 6 16 7 23 -1l15 -14c6 -7 4 -17 -3 -23c-10 -7 -67 -52 -68 -122c1 0 14 5 31 5c36 0 67 -29 67 -66s-31 -67 -72 -67zM18 30c0 78 75 112 75 112s-30 34 -30 94c0 93 75 174 174 174h182c11 0 19 -8 19 -19v-33
c0 -7 -4 -15 -11 -17l-56 -18s40 -31 40 -102c0 -79 -66 -157 -171 -157c-38 0 -64 8 -80 8c-14 0 -37 -14 -37 -38c0 -21 18 -34 40 -34h128c91 0 165 -52 165 -140c0 -92 -74 -170 -219 -170c-148 0 -204 73 -204 137c0 60 50 89 60 95v3c-17 5 -75 32 -75 105zM170 231
c0 -42 30 -72 70 -72c41 0 69 30 69 72s-28 72 -69 72c-40 0 -70 -30 -70 -72zM148 -151c0 -35 34 -59 88 -59c56 0 93 25 93 63c0 18 -14 49 -73 49c-22 0 -44 -1 -65 -4c-12 -4 -43 -18 -43 -49z" />
    <glyph glyph-name="hcircumflex" unicode="&#x125;" horiz-adv-x="520" 
d="M60 19v662c0 10 9 19 19 19h85c10 0 19 -9 19 -19v-304c20 15 59 33 106 33c127 0 179 -98 179 -199v-192c0 -10 -9 -19 -19 -19h-81c-11 0 -19 9 -19 19v193c0 55 -31 90 -79 90c-46 0 -77 -30 -87 -71v-212c0 -11 -6 -19 -21 -19h-83c-10 0 -19 9 -19 19zM-2 746
l-26 37c-5 7 0 15 6 19l130 101c6 5 14 5 21 0l130 -101c6 -4 11 -12 6 -19l-26 -37c-6 -8 -11 -10 -23 -3l-97 61l-98 -61c-12 -7 -17 -5 -23 3z" />
    <glyph glyph-name="hbar" unicode="&#x127;" horiz-adv-x="520" 
d="M60 19v514h-31c-10 0 -18 9 -18 19v13c0 10 8 19 18 19h31v97c0 10 9 19 19 19h85c10 0 19 -9 19 -19v-97h116c11 0 19 -9 19 -19v-14c0 -10 -8 -18 -19 -18h-116v-156c20 15 59 33 106 33c127 0 179 -98 179 -199v-192c0 -10 -9 -19 -19 -19h-81c-11 0 -19 9 -19 19v191
c0 55 -31 90 -79 90c-46 0 -77 -30 -87 -71v-210c0 -11 -6 -19 -21 -19h-83c-10 0 -19 9 -19 19z" />
    <glyph glyph-name="dotlessi" unicode="&#x131;" horiz-adv-x="241" 
d="M60 19v362c0 11 9 19 19 19h83c10 0 19 -8 19 -19v-362c0 -10 -9 -19 -19 -19h-83c-10 0 -19 9 -19 19z" />
    <glyph glyph-name="igrave" unicode="&#xec;" horiz-adv-x="241" 
d="M189 528l-175 77c-8 4 -13 14 -6 27l28 51c5 9 17 9 26 3l164 -97c6 -3 10 -11 6 -19l-18 -36c-4 -9 -11 -12 -25 -6zM60 19v362c0 11 9 19 19 19h83c10 0 19 -8 19 -19v-362c0 -10 -9 -19 -19 -19h-83c-10 0 -19 9 -19 19z" />
    <glyph glyph-name="iacute" unicode="&#xed;" horiz-adv-x="241" 
d="M48 528c-15 -6 -21 -3 -26 6l-17 36c-4 8 0 15 6 19l163 97c9 6 21 6 26 -3l29 -51c6 -13 2 -23 -6 -27zM60 19v362c0 11 9 19 19 19h83c10 0 19 -8 19 -19v-362c0 -10 -9 -19 -19 -19h-83c-10 0 -19 9 -19 19z" />
    <glyph glyph-name="ibreve" unicode="&#x12d;" horiz-adv-x="241" 
d="M121 528c-73 0 -130 51 -140 118c-2 12 5 22 18 22h37c9 0 15 -7 17 -14c10 -31 35 -53 68 -53c30 0 56 25 66 53c2 8 10 14 17 14h39c12 0 19 -10 18 -22c-11 -67 -68 -118 -140 -118zM60 19v362c0 11 9 19 19 19h83c10 0 19 -8 19 -19v-362c0 -10 -9 -19 -19 -19h-83
c-10 0 -19 9 -19 19z" />
    <glyph glyph-name="icircumflex" unicode="&#xee;" horiz-adv-x="241" 
d="M60 19v362c0 11 9 19 19 19h83c10 0 19 -8 19 -19v-362c0 -10 -9 -19 -19 -19h-83c-10 0 -19 9 -19 19zM-2 529l-26 37c-5 7 0 15 6 19l130 101c6 5 14 5 21 0l130 -101c6 -4 11 -12 6 -19l-26 -37c-6 -8 -11 -10 -23 -3l-97 61l-98 -61c-12 -7 -17 -5 -23 3z" />
    <glyph glyph-name="itilde" unicode="&#x129;" horiz-adv-x="241" 
d="M1 562l-29 21c-7 5 -9 16 -6 23c10 18 43 84 104 84c52 0 69 -55 107 -55c35 0 36 62 65 41l28 -20c9 -7 8 -19 1 -31c-11 -19 -40 -76 -97 -76c-52 0 -76 56 -109 56c-36 0 -34 -62 -64 -43zM60 19v362c0 11 9 19 19 19h83c10 0 19 -8 19 -19v-362c0 -10 -9 -19 -19 -19
h-83c-10 0 -19 9 -19 19z" />
    <glyph glyph-name="idieresis" unicode="&#xef;" horiz-adv-x="241" 
d="M220 551c-35 0 -63 29 -63 64s28 63 63 63s64 -28 64 -63s-29 -64 -64 -64zM19 551c-35 0 -63 29 -63 64s28 63 63 63s64 -28 64 -63s-29 -64 -64 -64zM60 19v362c0 11 9 19 19 19h83c10 0 19 -8 19 -19v-362c0 -10 -9 -19 -19 -19h-83c-10 0 -19 9 -19 19z" />
    <glyph glyph-name="imacron" unicode="&#x12b;" horiz-adv-x="241" 
d="M-7 570c-11 0 -19 8 -19 18v34c0 11 8 19 19 19h256c11 0 19 -8 19 -19v-34c0 -10 -8 -18 -19 -18h-256zM60 19v362c0 11 9 19 19 19h83c10 0 19 -8 19 -19v-362c0 -10 -9 -19 -19 -19h-83c-10 0 -19 9 -19 19z" />
    <glyph glyph-name="iogonek" unicode="&#x12f;" horiz-adv-x="241" 
d="M119 542c-38 0 -68 31 -68 69s30 69 68 69c39 0 70 -31 70 -69s-31 -69 -70 -69zM60 19v362c0 11 9 19 19 19h83c10 0 19 -8 19 -19v-362c0 -10 -9 -19 -19 -19h-18c-18 -18 -45 -53 -45 -96c0 -35 23 -64 66 -64c20 0 34 6 46 9c11 3 20 -5 20 -17v-30
c0 -9 -7 -16 -14 -19c-4 -1 -36 -10 -66 -10c-69 0 -127 35 -127 110c0 56 33 97 55 117c-10 0 -19 9 -19 19z" />
    <glyph glyph-name="dotlessj" unicode="&#x237;" horiz-adv-x="242" 
d="M60 -108v489c0 11 9 19 19 19h84c10 0 19 -8 19 -19v-489c0 -132 -80 -202 -186 -202c-53 0 -101 23 -118 39c-7 5 -8 16 -4 23l33 64c4 8 15 10 24 5c13 -8 37 -20 59 -20c45 0 70 33 70 91z" />
    <glyph glyph-name="jcircumflex" unicode="&#x135;" horiz-adv-x="242" 
d="M60 -108v489c0 11 9 19 19 19h84c10 0 19 -8 19 -19v-489c0 -132 -80 -202 -186 -202c-53 0 -101 23 -118 39c-7 5 -8 16 -4 23l33 64c4 8 15 10 24 5c13 -8 37 -20 59 -20c45 0 70 33 70 91zM-1 529l-26 37c-5 7 0 15 6 19l130 101c6 5 14 5 21 0l130 -101
c6 -4 11 -12 6 -19l-26 -37c-6 -8 -11 -10 -23 -3l-97 61l-98 -61c-12 -7 -17 -5 -23 3z" />
    <glyph glyph-name="kcommaaccent" unicode="&#x137;" horiz-adv-x="489" 
d="M60 19v662c0 10 9 19 19 19h85c10 0 19 -9 19 -19v-433l138 140c7 6 14 12 25 12h91c17 0 23 -18 13 -29l-149 -152l178 -191c10 -11 4 -28 -13 -28h-108c-6 0 -14 4 -17 8l-158 180v-169c0 -10 -9 -19 -19 -19h-85c-10 0 -19 9 -19 19zM260 -91c36 0 83 -25 83 -107
c0 -98 -64 -158 -90 -181c-8 -6 -16 -7 -23 1l-15 14c-6 7 -4 17 3 23c10 7 67 52 68 122c-1 0 -14 -5 -31 -5c-36 0 -67 29 -67 66s31 67 72 67z" />
    <glyph glyph-name="kgreenlandic" unicode="&#x138;" horiz-adv-x="493" 
d="M60 19v362c0 10 9 19 19 19h85c10 0 19 -9 19 -19v-159l151 166c6 7 14 12 25 12h91c17 0 23 -18 13 -29l-166 -176l182 -167c10 -11 4 -28 -13 -28h-108c-6 0 -13 5 -17 8l-158 154v-143c0 -10 -9 -19 -19 -19h-85c-10 0 -19 9 -19 19z" />
    <glyph glyph-name="lacute" unicode="&#x13a;" horiz-adv-x="242" 
d="M60 19v662c0 10 9 19 19 19h84c10 0 19 -9 19 -19v-662c0 -10 -9 -19 -19 -19h-84c-10 0 -19 9 -19 19zM49 745c-15 -6 -21 -3 -26 6l-17 36c-4 8 0 15 6 19l163 97c9 6 21 6 26 -3l29 -51c6 -13 2 -23 -6 -27z" />
    <glyph glyph-name="lcaron" unicode="&#x13e;" horiz-adv-x="272" 
d="M60 19v662c0 10 9 19 19 19h84c10 0 19 -9 19 -19v-662c0 -10 -9 -19 -19 -19h-84c-10 0 -19 9 -19 19zM318 423l-14 14c-7 7 -5 17 2 23c10 7 68 52 68 122c-1 0 -14 -5 -30 -5c-37 0 -67 29 -67 66s30 67 71 67c36 0 83 -25 83 -107c0 -98 -64 -158 -90 -181
c-8 -6 -15 -7 -23 1z" />
    <glyph glyph-name="lcommaaccent" unicode="&#x13c;" horiz-adv-x="242" 
d="M60 19v662c0 10 9 19 19 19h84c10 0 19 -9 19 -19v-662c0 -10 -9 -19 -19 -19h-84c-10 0 -19 9 -19 19zM117 -91c36 0 83 -25 83 -107c0 -98 -64 -158 -90 -181c-8 -6 -16 -7 -23 1l-15 14c-6 7 -4 17 3 23c10 7 67 52 68 122c-1 0 -14 -5 -31 -5c-36 0 -67 29 -67 66
s31 67 72 67z" />
    <glyph glyph-name="lslash" unicode="&#x142;" horiz-adv-x="257" 
d="M74 19v292l-34 -19c-12 -7 -21 -2 -26 7l-6 12c-5 8 -3 20 6 25l60 34v311c0 10 9 19 19 19h84c10 0 19 -9 19 -19v-239l63 37c10 6 21 2 26 -7l7 -13c5 -8 2 -20 -7 -25l-89 -52v-363c0 -10 -9 -19 -19 -19h-84c-10 0 -19 9 -19 19z" />
    <glyph glyph-name="ldot" unicode="&#x140;" horiz-adv-x="395" 
d="M60 19v662c0 10 9 19 19 19h84c10 0 19 -9 19 -19v-662c0 -10 -9 -19 -19 -19h-84c-10 0 -19 9 -19 19zM318 288c-40 0 -72 32 -72 72s32 72 72 72s72 -32 72 -72s-32 -72 -72 -72z" />
    <glyph glyph-name="nacute" unicode="&#x144;" horiz-adv-x="519" 
d="M60 19v362c0 11 9 19 19 19h38c9 0 14 -5 17 -12l14 -37c15 16 64 59 141 59c127 0 178 -95 178 -199v-192c0 -10 -9 -19 -19 -19h-82c-11 0 -19 9 -19 19v198c0 52 -27 85 -75 85c-52 0 -84 -36 -94 -63v-220c0 -14 -6 -19 -25 -19h-74c-10 0 -19 9 -19 19zM198 528
c-15 -6 -21 -3 -26 6l-17 36c-4 8 0 15 6 19l163 97c9 6 21 6 26 -3l29 -51c6 -13 2 -23 -6 -27z" />
    <glyph glyph-name="ncaron" unicode="&#x148;" horiz-adv-x="519" 
d="M60 19v362c0 11 9 19 19 19h38c9 0 14 -5 17 -12l14 -37c15 16 64 59 141 59c127 0 178 -95 178 -199v-192c0 -10 -9 -19 -19 -19h-82c-11 0 -19 9 -19 19v198c0 52 -27 85 -75 85c-52 0 -84 -36 -94 -63v-220c0 -14 -6 -19 -25 -19h-74c-10 0 -19 9 -19 19zM259 524
l-130 101c-6 4 -11 12 -6 19l26 37c6 8 11 10 23 3l97 -61l98 61c12 7 17 5 23 -3l26 -37c5 -7 0 -15 -6 -19l-130 -101c-6 -5 -14 -5 -21 0z" />
    <glyph glyph-name="ntilde" unicode="&#xf1;" horiz-adv-x="519" 
d="M60 19v362c0 11 9 19 19 19h38c9 0 14 -5 17 -12l14 -37c15 16 64 59 141 59c127 0 178 -95 178 -199v-192c0 -10 -9 -19 -19 -19h-82c-11 0 -19 9 -19 19v198c0 52 -27 85 -75 85c-52 0 -84 -36 -94 -63v-220c0 -14 -6 -19 -25 -19h-74c-10 0 -19 9 -19 19zM148 562
l-29 21c-7 5 -9 16 -6 23c10 18 43 84 104 84c52 0 69 -55 107 -55c35 0 36 62 65 41l28 -20c9 -7 8 -19 1 -31c-11 -19 -40 -76 -97 -76c-52 0 -76 56 -109 56c-36 0 -34 -62 -64 -43z" />
    <glyph glyph-name="ncommaaccent" unicode="&#x146;" horiz-adv-x="520" 
d="M60 19v362c0 11 9 19 19 19h38c9 0 14 -5 17 -12l14 -37c15 16 64 59 141 59c127 0 178 -95 178 -199v-192c0 -10 -9 -19 -19 -19h-82c-11 0 -19 9 -19 19v198c0 52 -27 85 -75 85c-52 0 -84 -36 -94 -63v-220c0 -14 -6 -19 -25 -19h-74c-10 0 -19 9 -19 19zM259 -91
c36 0 83 -25 83 -107c0 -98 -64 -158 -90 -181c-8 -6 -16 -7 -23 1l-15 14c-6 7 -4 17 3 23c10 7 67 52 68 122c-1 0 -14 -5 -31 -5c-36 0 -67 29 -67 66s31 67 72 67z" />
    <glyph glyph-name="napostrophe" unicode="&#x149;" horiz-adv-x="519" 
d="M60 19v362c0 11 9 19 19 19h38c9 0 14 -5 17 -12l14 -37c15 16 64 59 141 59c127 0 178 -95 178 -199v-192c0 -10 -9 -19 -19 -19h-82c-11 0 -19 9 -19 19v198c0 52 -27 85 -75 85c-52 0 -84 -36 -94 -63v-220c0 -14 -6 -19 -25 -19h-74c-10 0 -19 9 -19 19zM-85 710
c36 0 83 -25 83 -107c0 -98 -64 -158 -90 -181c-8 -6 -16 -7 -23 1l-15 14c-6 7 -4 17 3 23c10 7 67 52 68 122c-1 0 -14 -5 -31 -5c-36 0 -67 29 -67 66s31 67 72 67z" />
    <glyph glyph-name="ograve" unicode="&#xf2;" horiz-adv-x="468" 
d="M29 201c0 113 92 209 205 209s205 -96 205 -209c0 -115 -92 -211 -205 -211s-205 96 -205 211zM138 201c0 -57 42 -103 96 -103c53 0 96 46 96 103c0 56 -43 101 -96 101c-54 0 -96 -45 -96 -101zM306 528l-175 77c-8 4 -13 14 -6 27l28 51c5 9 17 9 26 3l164 -97
c6 -3 10 -11 6 -19l-18 -36c-4 -9 -11 -12 -25 -6z" />
    <glyph glyph-name="oacute" unicode="&#xf3;" horiz-adv-x="468" 
d="M29 201c0 113 92 209 205 209s205 -96 205 -209c0 -115 -92 -211 -205 -211s-205 96 -205 211zM138 201c0 -57 42 -103 96 -103c53 0 96 46 96 103c0 56 -43 101 -96 101c-54 0 -96 -45 -96 -101zM163 528c-15 -6 -21 -3 -26 6l-17 36c-4 8 0 15 6 19l163 97
c9 6 21 6 26 -3l29 -51c6 -13 2 -23 -6 -27z" />
    <glyph glyph-name="ocircumflex" unicode="&#xf4;" horiz-adv-x="468" 
d="M29 201c0 113 92 209 205 209s205 -96 205 -209c0 -115 -92 -211 -205 -211s-205 96 -205 211zM138 201c0 -57 42 -103 96 -103c53 0 96 46 96 103c0 56 -43 101 -96 101c-54 0 -96 -45 -96 -101zM112 529l-26 37c-5 7 0 15 6 19l130 101c6 5 14 5 21 0l130 -101
c6 -4 11 -12 6 -19l-26 -37c-6 -8 -11 -10 -23 -3l-97 61l-98 -61c-12 -7 -17 -5 -23 3z" />
    <glyph glyph-name="otilde" unicode="&#xf5;" horiz-adv-x="468" 
d="M29 201c0 113 92 209 205 209s205 -96 205 -209c0 -115 -92 -211 -205 -211s-205 96 -205 211zM138 201c0 -57 42 -103 96 -103c53 0 96 46 96 103c0 56 -43 101 -96 101c-54 0 -96 -45 -96 -101zM113 562l-29 21c-7 5 -9 16 -6 23c10 18 43 84 104 84
c52 0 69 -55 107 -55c35 0 36 62 65 41l28 -20c9 -7 8 -19 1 -31c-11 -19 -40 -76 -97 -76c-52 0 -76 56 -109 56c-36 0 -34 -62 -64 -43z" />
    <glyph glyph-name="odieresis" unicode="&#xf6;" horiz-adv-x="468" 
d="M29 201c0 113 92 209 205 209s205 -96 205 -209c0 -115 -92 -211 -205 -211s-205 96 -205 211zM138 201c0 -57 42 -103 96 -103c53 0 96 46 96 103c0 56 -43 101 -96 101c-54 0 -96 -45 -96 -101zM333 551c-35 0 -63 29 -63 64s28 63 63 63s64 -28 64 -63
s-29 -64 -64 -64zM132 551c-35 0 -63 29 -63 64s28 63 63 63s64 -28 64 -63s-29 -64 -64 -64z" />
    <glyph glyph-name="omacron" unicode="&#x14d;" horiz-adv-x="468" 
d="M29 201c0 113 92 209 205 209s205 -96 205 -209c0 -115 -92 -211 -205 -211s-205 96 -205 211zM138 201c0 -57 42 -103 96 -103c53 0 96 46 96 103c0 56 -43 101 -96 101c-54 0 -96 -45 -96 -101zM106 570c-11 0 -19 8 -19 18v34c0 11 8 19 19 19h256c11 0 19 -8 19 -19
v-34c0 -10 -8 -18 -19 -18h-256z" />
    <glyph glyph-name="obreve" unicode="&#x14f;" horiz-adv-x="468" 
d="M29 201c0 113 92 209 205 209s205 -96 205 -209c0 -115 -92 -211 -205 -211s-205 96 -205 211zM138 201c0 -57 42 -103 96 -103c53 0 96 46 96 103c0 56 -43 101 -96 101c-54 0 -96 -45 -96 -101zM235 528c-73 0 -130 51 -140 118c-2 12 5 22 18 22h37c9 0 15 -7 17 -14
c10 -31 35 -53 68 -53c30 0 56 25 66 53c2 8 10 14 17 14h39c12 0 19 -10 18 -22c-11 -67 -68 -118 -140 -118z" />
    <glyph glyph-name="ohungarumlaut" unicode="&#x151;" horiz-adv-x="468" 
d="M29 201c0 113 92 209 205 209s205 -96 205 -209c0 -115 -92 -211 -205 -211s-205 96 -205 211zM138 201c0 -57 42 -103 96 -103c53 0 96 46 96 103c0 56 -43 101 -96 101c-54 0 -96 -45 -96 -101zM304 521c-16 0 -22 9 -19 19l37 141c3 10 9 19 19 19h76
c19 0 25 -13 18 -25l-78 -139c-4 -8 -11 -15 -18 -15h-35zM138 521c-16 0 -22 9 -19 19l37 141c3 10 9 19 19 19h76c19 0 25 -12 18 -25l-78 -139c-4 -8 -11 -15 -18 -15h-35z" />
    <glyph glyph-name="oslash" unicode="&#xf8;" horiz-adv-x="468" 
d="M51 24c-7 7 -8 19 -1 26l22 22c-26 35 -42 82 -42 130c0 113 92 208 205 208c47 0 92 -18 126 -46l26 26c7 8 19 7 26 0l10 -10c8 -7 8 -18 0 -26l-26 -26c26 -35 42 -79 42 -126c0 -115 -91 -212 -204 -212c-48 0 -92 17 -127 45l-21 -22c-7 -7 -20 -7 -27 1zM150 152
l134 135c-14 10 -31 15 -49 15c-54 0 -96 -44 -96 -100c0 -19 4 -36 11 -50zM185 112c14 -9 31 -14 50 -14c53 0 95 47 95 104c0 17 -4 33 -11 47z" />
    <glyph glyph-name="oslashacute" unicode="&#x1ff;" horiz-adv-x="468" 
d="M163 528c-15 -6 -21 -3 -26 6l-17 36c-4 8 0 15 6 19l163 97c9 6 21 6 26 -3l29 -51c6 -13 2 -23 -6 -27zM51 24c-7 7 -8 19 -1 26l22 22c-26 35 -42 82 -42 130c0 113 92 208 205 208c47 0 92 -18 126 -46l26 26c7 8 19 7 26 0l10 -10c8 -7 8 -18 0 -26l-26 -26
c26 -35 42 -79 42 -126c0 -115 -91 -212 -204 -212c-48 0 -92 17 -127 45l-21 -22c-7 -7 -20 -7 -27 1zM150 152l134 135c-14 10 -31 15 -49 15c-54 0 -96 -44 -96 -100c0 -19 4 -36 11 -50zM185 112c14 -9 31 -14 50 -14c53 0 95 47 95 104c0 17 -4 33 -11 47z" />
    <glyph glyph-name="oe" unicode="&#x153;" horiz-adv-x="732" 
d="M29 202c0 113 92 208 205 208c56 0 107 -25 143 -63c35 39 85 63 144 63c101 0 187 -76 187 -186c0 -7 -1 -20 -2 -27c-1 -10 -10 -17 -19 -17h-255c5 -41 39 -88 95 -88c31 0 60 13 79 26c9 6 19 9 26 0l40 -47c6 -8 9 -18 -1 -26c-32 -31 -84 -55 -149 -55
c-59 0 -109 24 -145 63c-36 -39 -87 -63 -143 -63c-113 0 -205 97 -205 212zM441 250h150c-2 38 -35 67 -73 67c-40 0 -72 -29 -77 -67zM138 202c0 -57 42 -104 96 -104s96 47 96 104c0 56 -42 100 -96 100s-96 -44 -96 -100z" />
    <glyph glyph-name="racute" unicode="&#x155;" horiz-adv-x="341" 
d="M60 19v362c0 11 9 19 19 19h38c9 0 15 -5 18 -13l14 -39c14 20 51 62 113 62c47 0 89 -15 77 -40l-37 -65c-5 -9 -15 -13 -23 -9c-3 1 -18 6 -29 6c-40 0 -64 -27 -71 -41v-242c0 -14 -9 -19 -23 -19h-77c-10 0 -19 9 -19 19zM108 528c-15 -6 -21 -3 -26 6l-17 36
c-4 8 0 15 6 19l163 97c9 6 21 6 26 -3l29 -51c6 -13 2 -23 -6 -27z" />
    <glyph glyph-name="rcaron" unicode="&#x159;" horiz-adv-x="341" 
d="M60 19v362c0 11 9 19 19 19h38c9 0 15 -5 18 -13l14 -39c14 20 51 62 113 62c47 0 89 -15 77 -40l-37 -65c-5 -9 -15 -13 -23 -9c-3 1 -18 6 -29 6c-40 0 -64 -27 -71 -41v-242c0 -14 -9 -19 -23 -19h-77c-10 0 -19 9 -19 19zM164 524l-130 101c-6 4 -11 12 -6 19l26 37
c6 8 11 10 23 3l97 -61l98 61c12 7 17 5 23 -3l26 -37c5 -7 0 -15 -6 -19l-130 -101c-6 -5 -14 -5 -21 0z" />
    <glyph glyph-name="rcommaaccent" unicode="&#x157;" horiz-adv-x="341" 
d="M60 19v362c0 11 9 19 19 19h38c9 0 15 -5 18 -13l14 -39c14 20 51 62 113 62c47 0 89 -15 77 -40l-37 -65c-5 -9 -15 -13 -23 -9c-3 1 -18 6 -29 6c-40 0 -64 -27 -71 -41v-242c0 -14 -9 -19 -23 -19h-77c-10 0 -19 9 -19 19zM113 -91c36 0 83 -25 83 -107
c0 -98 -64 -158 -90 -181c-8 -6 -16 -7 -23 1l-15 14c-6 7 -4 17 3 23c10 7 67 52 68 122c-1 0 -14 -5 -31 -5c-36 0 -67 29 -67 66s31 67 72 67z" />
    <glyph glyph-name="sacute" unicode="&#x15b;" horiz-adv-x="364" 
d="M44 27c-6 5 -10 13 -6 21l27 54c4 10 14 12 23 7c0 0 45 -24 91 -24c20 0 34 8 34 25c0 18 -14 29 -67 50c-77 30 -113 71 -113 132s45 118 147 118c59 0 102 -17 123 -31c9 -6 14 -17 9 -27l-25 -51c-5 -9 -16 -10 -24 -7c0 0 -45 21 -83 21c-24 0 -34 -10 -34 -23
c0 -18 18 -24 55 -39c77 -30 135 -63 135 -141c0 -66 -58 -122 -159 -122c-66 0 -112 21 -133 37zM115 528c-15 -6 -21 -3 -26 6l-17 36c-4 8 0 15 6 19l163 97c9 6 21 6 26 -3l29 -51c6 -13 2 -23 -6 -27z" />
    <glyph glyph-name="scircumflex" unicode="&#x15d;" horiz-adv-x="364" 
d="M44 27c-6 5 -10 13 -6 21l27 54c4 10 14 12 23 7c0 0 45 -24 91 -24c20 0 34 8 34 25c0 18 -14 29 -67 50c-77 30 -113 71 -113 132s45 118 147 118c59 0 102 -17 123 -31c9 -6 14 -17 9 -27l-25 -51c-5 -9 -16 -10 -24 -7c0 0 -45 21 -83 21c-24 0 -34 -10 -34 -23
c0 -18 18 -24 55 -39c77 -30 135 -63 135 -141c0 -66 -58 -122 -159 -122c-66 0 -112 21 -133 37zM60 529l-26 37c-5 7 0 15 6 19l130 101c6 5 14 5 21 0l130 -101c6 -4 11 -12 6 -19l-26 -37c-6 -8 -11 -10 -23 -3l-97 61l-98 -61c-12 -7 -17 -5 -23 3z" />
    <glyph glyph-name="scaron" unicode="&#x161;" horiz-adv-x="364" 
d="M44 27c-6 5 -10 13 -6 21l27 54c4 10 14 12 23 7c0 0 45 -24 91 -24c20 0 34 8 34 25c0 18 -14 29 -67 50c-77 30 -113 71 -113 132s45 118 147 118c59 0 102 -17 123 -31c9 -6 14 -17 9 -27l-25 -51c-5 -9 -16 -10 -24 -7c0 0 -45 21 -83 21c-24 0 -34 -10 -34 -23
c0 -18 18 -24 55 -39c77 -30 135 -63 135 -141c0 -66 -58 -122 -159 -122c-66 0 -112 21 -133 37zM175 524l-130 101c-6 4 -11 12 -6 19l26 37c6 8 11 10 23 3l97 -61l98 61c12 7 17 5 23 -3l26 -37c5 -7 0 -15 -6 -19l-130 -101c-6 -5 -14 -5 -21 0z" />
    <glyph glyph-name="scedilla" unicode="&#x15f;" horiz-adv-x="366" 
d="M45 27c-6 5 -10 13 -6 21l27 54c4 10 14 12 23 7c0 0 45 -24 91 -24c20 0 34 8 34 25c0 18 -14 29 -67 50c-77 30 -113 71 -113 132s45 118 147 118c59 0 102 -17 123 -31c9 -6 14 -17 9 -27l-25 -51c-5 -9 -16 -10 -24 -7c0 0 -45 21 -83 21c-24 0 -34 -10 -34 -23
c0 -18 18 -24 55 -39c77 -30 135 -63 135 -141c0 -64 -54 -117 -147 -121v-43c61 -8 97 -47 97 -103c0 -58 -47 -105 -106 -105c-30 0 -59 15 -76 35c-8 9 -6 20 3 28l20 17c6 6 16 5 21 -1c8 -9 21 -12 30 -12c20 0 35 17 35 37c0 24 -21 45 -73 49c-15 2 -17 13 -17 18v84
c-38 7 -65 21 -79 32z" />
    <glyph glyph-name="scommaaccent" unicode="&#x219;" horiz-adv-x="364" 
d="M44 27c-6 5 -10 13 -6 21l27 54c4 10 14 12 23 7c0 0 45 -24 91 -24c20 0 34 8 34 25c0 18 -14 29 -67 50c-77 30 -113 71 -113 132s45 118 147 118c59 0 102 -17 123 -31c9 -6 14 -17 9 -27l-25 -51c-5 -9 -16 -10 -24 -7c0 0 -45 21 -83 21c-24 0 -34 -10 -34 -23
c0 -18 18 -24 55 -39c77 -30 135 -63 135 -141c0 -66 -58 -122 -159 -122c-66 0 -112 21 -133 37zM184 -91c36 0 83 -25 83 -107c0 -98 -64 -158 -90 -181c-8 -6 -16 -7 -23 1l-15 14c-6 7 -4 17 3 23c10 7 67 52 68 122c-1 0 -14 -5 -31 -5c-36 0 -67 29 -67 66
s31 67 72 67z" />
    <glyph glyph-name="germandbls" unicode="&#xdf;" horiz-adv-x="517" 
d="M60 19v393c0 200 94 298 237 298c82 0 168 -48 168 -157c0 -90 -79 -152 -79 -203c0 -43 102 -99 102 -206c0 -110 -85 -154 -164 -154c-15 0 -41 0 -44 20l-9 67c-1 9 6 20 17 19c36 -2 75 14 75 51c0 64 -104 108 -104 185c0 69 81 146 81 216c0 32 -24 54 -55 54
c-47 0 -102 -45 -102 -192v-391c0 -10 -9 -19 -19 -19h-85c-10 0 -19 9 -19 19z" />
    <glyph glyph-name="tcaron" unicode="&#x165;" horiz-adv-x="345" 
d="M81 119v176h-34c-10 0 -18 9 -18 19v67c0 11 8 19 18 19h34v111c0 10 9 19 19 19l82 1c10 0 18 -9 18 -19v-112h88c11 0 19 -8 19 -19v-67c0 -10 -8 -19 -19 -19h-88v-160c0 -28 15 -32 31 -32c17 0 38 7 49 11s19 -1 22 -11l20 -63c4 -10 -1 -20 -11 -24
c-5 -3 -70 -26 -119 -26c-77 0 -111 48 -111 129zM398 423l-14 14c-7 7 -5 17 2 23c10 7 68 52 68 122c-1 0 -14 -5 -30 -5c-37 0 -67 29 -67 66s30 67 71 67c36 0 83 -25 83 -107c0 -98 -64 -158 -90 -181c-8 -6 -15 -7 -23 1z" />
    <glyph glyph-name="tcommaaccent" unicode="&#x163;" horiz-adv-x="346" 
d="M81 119v176h-34c-10 0 -18 9 -18 19v67c0 11 8 19 18 19h34v111c0 10 9 19 19 19l82 1c10 0 18 -9 18 -19v-112h88c11 0 19 -8 19 -19v-67c0 -10 -8 -19 -19 -19h-88v-160c0 -28 15 -32 31 -32c17 0 38 7 49 11s19 -1 22 -11l20 -63c4 -10 -1 -20 -11 -24
c-5 -3 -70 -26 -119 -26c-77 0 -111 48 -111 129zM193 -91c36 0 83 -25 83 -107c0 -98 -64 -158 -90 -181c-8 -6 -16 -7 -23 1l-15 14c-6 7 -4 17 3 23c10 7 67 52 68 122c-1 0 -14 -5 -31 -5c-36 0 -67 29 -67 66s31 67 72 67z" />
    <glyph glyph-name="uni021B" unicode="&#x21b;" horiz-adv-x="346" 
d="M81 119v176h-34c-10 0 -18 9 -18 19v67c0 11 8 19 18 19h34v111c0 10 9 19 19 19l82 1c10 0 18 -9 18 -19v-112h88c11 0 19 -8 19 -19v-67c0 -10 -8 -19 -19 -19h-88v-160c0 -28 15 -32 31 -32c17 0 38 7 49 11s19 -1 22 -11l20 -63c4 -10 -1 -20 -11 -24
c-5 -3 -70 -26 -119 -26c-77 0 -111 48 -111 129zM193 -91c36 0 83 -25 83 -107c0 -98 -64 -158 -90 -181c-8 -6 -16 -7 -23 1l-15 14c-6 7 -4 17 3 23c10 7 67 52 68 122c-1 0 -14 -5 -31 -5c-36 0 -67 29 -67 66s31 67 72 67z" />
    <glyph glyph-name="tbar" unicode="&#x167;" horiz-adv-x="345" 
d="M81 119v51h-31c-10 0 -18 9 -18 19v13c0 10 8 19 18 19h31v74h-34c-10 0 -18 9 -18 19v67c0 11 8 19 18 19h34v111c0 10 9 19 19 19l82 1c10 0 18 -9 18 -19v-112h88c11 0 19 -8 19 -19v-67c0 -10 -8 -19 -19 -19h-88v-74h81c11 0 19 -9 19 -19v-14c0 -10 -8 -18 -19 -18
h-81v-34c0 -28 15 -32 31 -32c17 0 38 6 49 10s19 -1 22 -11l20 -63c3 -10 -1 -20 -11 -24c-5 -3 -70 -26 -119 -26c-77 0 -111 48 -111 129z" />
    <glyph glyph-name="thorn" unicode="&#xfe;" 
d="M183 12v-294c0 -10 -9 -19 -19 -19h-85c-10 0 -19 9 -19 19v963c0 10 9 19 19 19h85c10 0 19 -9 19 -19v-300c16 10 48 28 94 28c110 0 193 -95 193 -209c0 -119 -90 -210 -203 -210c-34 0 -68 14 -84 22zM183 126c10 -12 37 -27 74 -27c56 0 97 44 97 101
c0 55 -38 102 -95 102c-46 0 -72 -26 -76 -38v-138z" />
    <glyph glyph-name="ugrave" unicode="&#xf9;" horiz-adv-x="503" 
d="M53 187v194c0 11 9 19 19 19h82c10 0 19 -8 19 -19v-197c0 -53 27 -86 73 -86c42 0 74 39 80 75v208c0 15 6 19 22 19h76c10 0 19 -8 19 -19v-362c0 -10 -9 -19 -19 -19h-37c-10 0 -16 7 -19 15l-12 33c-18 -16 -55 -58 -134 -58c-124 0 -169 95 -169 197zM324 528
l-175 77c-8 4 -13 14 -6 27l28 51c5 9 17 9 26 3l164 -97c6 -3 10 -11 6 -19l-18 -36c-4 -9 -11 -12 -25 -6z" />
    <glyph glyph-name="uacute" unicode="&#xfa;" horiz-adv-x="503" 
d="M53 187v194c0 11 9 19 19 19h82c10 0 19 -8 19 -19v-197c0 -53 27 -86 73 -86c42 0 74 39 80 75v208c0 15 6 19 22 19h76c10 0 19 -8 19 -19v-362c0 -10 -9 -19 -19 -19h-37c-10 0 -16 7 -19 15l-12 33c-18 -16 -55 -58 -134 -58c-124 0 -169 95 -169 197zM182 528
c-15 -6 -21 -3 -26 6l-17 36c-4 8 0 15 6 19l163 97c9 6 21 6 26 -3l29 -51c6 -13 2 -23 -6 -27z" />
    <glyph glyph-name="ucircumflex" unicode="&#xfb;" horiz-adv-x="503" 
d="M53 187v194c0 11 9 19 19 19h82c10 0 19 -8 19 -19v-197c0 -53 27 -86 73 -86c42 0 74 39 80 75v208c0 15 6 19 22 19h76c10 0 19 -8 19 -19v-362c0 -10 -9 -19 -19 -19h-37c-10 0 -16 7 -19 15l-12 33c-18 -16 -55 -58 -134 -58c-124 0 -169 95 -169 197zM129 529
l-26 37c-5 7 0 15 6 19l130 101c6 5 14 5 21 0l130 -101c6 -4 11 -12 6 -19l-26 -37c-6 -8 -11 -10 -23 -3l-97 61l-98 -61c-12 -7 -17 -5 -23 3z" />
    <glyph glyph-name="utilde" unicode="&#x169;" horiz-adv-x="503" 
d="M53 187v194c0 11 9 19 19 19h82c10 0 19 -8 19 -19v-197c0 -53 27 -86 73 -86c42 0 74 39 80 75v208c0 15 6 19 22 19h76c10 0 19 -8 19 -19v-362c0 -10 -9 -19 -19 -19h-37c-10 0 -16 7 -19 15l-12 33c-18 -16 -55 -58 -134 -58c-124 0 -169 95 -169 197zM133 562
l-29 21c-7 5 -9 16 -6 23c10 18 43 84 104 84c52 0 69 -55 107 -55c35 0 36 62 65 41l28 -20c9 -7 8 -19 1 -31c-11 -19 -40 -76 -97 -76c-52 0 -76 56 -109 56c-36 0 -34 -62 -64 -43z" />
    <glyph glyph-name="udieresis" unicode="&#xfc;" horiz-adv-x="503" 
d="M53 187v194c0 11 9 19 19 19h82c10 0 19 -8 19 -19v-197c0 -53 27 -86 73 -86c42 0 74 39 80 75v208c0 15 6 19 22 19h76c10 0 19 -8 19 -19v-362c0 -10 -9 -19 -19 -19h-37c-10 0 -16 7 -19 15l-12 33c-18 -16 -55 -58 -134 -58c-124 0 -169 95 -169 197zM357 551
c-35 0 -63 29 -63 64s28 63 63 63s64 -28 64 -63s-29 -64 -64 -64zM156 551c-35 0 -63 29 -63 64s28 63 63 63s64 -28 64 -63s-29 -64 -64 -64z" />
    <glyph glyph-name="umacron" unicode="&#x16b;" horiz-adv-x="503" 
d="M53 187v194c0 11 9 19 19 19h82c10 0 19 -8 19 -19v-197c0 -53 27 -86 73 -86c42 0 74 39 80 75v208c0 15 6 19 22 19h76c10 0 19 -8 19 -19v-362c0 -10 -9 -19 -19 -19h-37c-10 0 -16 7 -19 15l-12 33c-18 -16 -55 -58 -134 -58c-124 0 -169 95 -169 197zM125 570
c-11 0 -19 8 -19 18v34c0 11 8 19 19 19h256c11 0 19 -8 19 -19v-34c0 -10 -8 -18 -19 -18h-256z" />
    <glyph glyph-name="ubreve" unicode="&#x16d;" horiz-adv-x="503" 
d="M53 187v194c0 11 9 19 19 19h82c10 0 19 -8 19 -19v-197c0 -53 27 -86 73 -86c42 0 74 39 80 75v208c0 15 6 19 22 19h76c10 0 19 -8 19 -19v-362c0 -10 -9 -19 -19 -19h-37c-10 0 -16 7 -19 15l-12 33c-18 -16 -55 -58 -134 -58c-124 0 -169 95 -169 197zM254 528
c-73 0 -130 51 -140 118c-2 12 5 22 18 22h37c9 0 15 -7 17 -14c10 -31 35 -53 68 -53c30 0 56 25 66 53c2 8 10 14 17 14h39c12 0 19 -10 18 -22c-11 -67 -68 -118 -140 -118z" />
    <glyph glyph-name="uring" unicode="&#x16f;" horiz-adv-x="503" 
d="M53 187v194c0 11 9 19 19 19h82c10 0 19 -8 19 -19v-197c0 -53 27 -86 73 -86c42 0 74 39 80 75v208c0 15 6 19 22 19h76c10 0 19 -8 19 -19v-362c0 -10 -9 -19 -19 -19h-37c-10 0 -16 7 -19 15l-12 33c-18 -16 -55 -58 -134 -58c-124 0 -169 95 -169 197zM252 484
c-63 0 -113 50 -113 113s50 113 113 113c62 0 113 -50 113 -113s-51 -113 -113 -113zM252 547c26 0 48 24 48 50s-22 48 -48 48s-50 -22 -50 -48s24 -50 50 -50z" />
    <glyph glyph-name="uhungarumlaut" unicode="&#x171;" horiz-adv-x="503" 
d="M53 187v194c0 11 9 19 19 19h82c10 0 19 -8 19 -19v-197c0 -53 27 -86 73 -86c42 0 74 39 80 75v208c0 15 6 19 22 19h76c10 0 19 -8 19 -19v-362c0 -10 -9 -19 -19 -19h-37c-10 0 -16 7 -19 15l-12 33c-18 -16 -55 -58 -134 -58c-124 0 -169 95 -169 197zM325 521
c-16 0 -22 9 -19 19l37 141c3 10 9 19 19 19h76c19 0 25 -13 18 -25l-78 -139c-4 -8 -11 -15 -18 -15h-35zM159 521c-16 0 -22 9 -19 19l37 141c3 10 9 19 19 19h76c19 0 25 -12 18 -25l-78 -139c-4 -8 -11 -15 -18 -15h-35z" />
    <glyph glyph-name="uogonek" unicode="&#x173;" horiz-adv-x="503" 
d="M53 187v194c0 11 9 19 19 19h82c10 0 19 -8 19 -19v-191c0 -53 27 -86 73 -86c42 0 74 39 80 75v202c0 15 6 19 22 19h76c10 0 19 -8 19 -19v-362c0 -10 -9 -19 -19 -19h-6c-18 -18 -45 -53 -45 -96c0 -35 23 -64 66 -64c20 0 34 6 46 9c11 3 20 -5 20 -17v-30
c0 -9 -7 -16 -14 -19c-4 -1 -36 -10 -66 -10c-69 0 -127 35 -127 110c0 79 66 127 71 130l-13 35c-18 -16 -55 -58 -134 -58c-124 0 -169 95 -169 197z" />
    <glyph glyph-name="wacute" unicode="&#x1e83;" horiz-adv-x="616" 
d="M143 1l-125 376c-6 13 3 23 17 23h72c6 0 16 -5 18 -12l60 -179h1l102 192c2 4 7 9 16 9h8c9 0 13 -4 16 -9l101 -192h1l60 179c4 11 12 12 23 12h65c14 0 23 -10 18 -23l-125 -376c-2 -6 -8 -11 -18 -11h-4c-8 0 -13 4 -16 9l-126 233h-1l-125 -233c-3 -5 -8 -9 -16 -9
h-5c-9 0 -15 5 -17 11zM237 528c-15 -6 -21 -3 -26 6l-17 36c-4 8 0 15 6 19l163 97c9 6 21 6 26 -3l29 -51c6 -13 2 -23 -6 -27z" />
    <glyph glyph-name="wcircumflex" unicode="&#x175;" horiz-adv-x="616" 
d="M143 1l-125 376c-6 13 3 23 17 23h72c6 0 16 -5 18 -12l60 -179h1l102 192c2 4 7 9 16 9h8c9 0 13 -4 16 -9l101 -192h1l60 179c4 11 12 12 23 12h65c14 0 23 -10 18 -23l-125 -376c-2 -6 -8 -11 -18 -11h-4c-8 0 -13 4 -16 9l-126 233h-1l-125 -233c-3 -5 -8 -9 -16 -9
h-5c-9 0 -15 5 -17 11zM186 529l-26 37c-5 7 0 15 6 19l130 101c6 5 14 5 21 0l130 -101c6 -4 11 -12 6 -19l-26 -37c-6 -8 -11 -10 -23 -3l-97 61l-98 -61c-12 -7 -17 -5 -23 3z" />
    <glyph glyph-name="wdieresis" unicode="&#x1e85;" horiz-adv-x="616" 
d="M143 1l-125 376c-6 13 3 23 17 23h72c6 0 16 -5 18 -12l60 -179h1l102 192c2 4 7 9 16 9h8c9 0 13 -4 16 -9l101 -192h1l60 179c4 11 12 12 23 12h65c14 0 23 -10 18 -23l-125 -376c-2 -6 -8 -11 -18 -11h-4c-8 0 -13 4 -16 9l-126 233h-1l-125 -233c-3 -5 -8 -9 -16 -9
h-5c-9 0 -15 5 -17 11zM407 551c-35 0 -63 29 -63 64s28 63 63 63s64 -28 64 -63s-29 -64 -64 -64zM206 551c-35 0 -63 29 -63 64s28 63 63 63s64 -28 64 -63s-29 -64 -64 -64z" />
    <glyph glyph-name="wgrave" unicode="&#x1e81;" horiz-adv-x="616" 
d="M143 1l-125 376c-6 13 3 23 17 23h72c6 0 16 -5 18 -12l60 -179h1l102 192c2 4 7 9 16 9h8c9 0 13 -4 16 -9l101 -192h1l60 179c4 11 12 12 23 12h65c14 0 23 -10 18 -23l-125 -376c-2 -6 -8 -11 -18 -11h-4c-8 0 -13 4 -16 9l-126 233h-1l-125 -233c-3 -5 -8 -9 -16 -9
h-5c-9 0 -15 5 -17 11zM377 528l-175 77c-8 4 -13 14 -6 27l28 51c5 9 17 9 26 3l164 -97c6 -3 10 -11 6 -19l-18 -36c-4 -9 -11 -12 -25 -6z" />
    <glyph glyph-name="yacute" unicode="&#xfd;" horiz-adv-x="463" 
d="M171 28l-163 346c-6 13 2 26 17 26h90c9 0 14 -5 17 -11l101 -226h1l100 226c5 10 12 11 24 11h80c16 0 24 -13 17 -26l-306 -662c-3 -6 -9 -12 -17 -12h-86c-15 0 -24 13 -17 27zM164 528c-15 -6 -21 -3 -26 6l-17 36c-4 8 0 15 6 19l163 97c9 6 21 6 26 -3l29 -51
c6 -13 2 -23 -6 -27z" />
    <glyph glyph-name="ycircumflex" unicode="&#x177;" horiz-adv-x="463" 
d="M171 28l-163 346c-6 13 2 26 17 26h90c9 0 14 -5 17 -11l101 -226h1l100 226c5 10 12 11 24 11h80c16 0 24 -13 17 -26l-306 -662c-3 -6 -9 -12 -17 -12h-86c-15 0 -24 13 -17 27zM112 529l-26 37c-5 7 0 15 6 19l130 101c6 5 14 5 21 0l130 -101c6 -4 11 -12 6 -19
l-26 -37c-6 -8 -11 -10 -23 -3l-97 61l-98 -61c-12 -7 -17 -5 -23 3z" />
    <glyph glyph-name="ydieresis" unicode="&#xff;" horiz-adv-x="463" 
d="M171 28l-163 346c-6 13 2 26 17 26h90c9 0 14 -5 17 -11l101 -226h1l100 226c5 10 12 11 24 11h80c16 0 24 -13 17 -26l-306 -662c-3 -6 -9 -12 -17 -12h-86c-15 0 -24 13 -17 27zM333 551c-35 0 -63 29 -63 64s28 63 63 63s64 -28 64 -63s-29 -64 -64 -64zM132 551
c-35 0 -63 29 -63 64s28 63 63 63s64 -28 64 -63s-29 -64 -64 -64z" />
    <glyph glyph-name="ygrave" unicode="&#x1ef3;" horiz-adv-x="463" 
d="M171 28l-163 346c-6 13 2 26 17 26h90c9 0 14 -5 17 -11l101 -226h1l100 226c5 10 12 11 24 11h80c16 0 24 -13 17 -26l-306 -662c-3 -6 -9 -12 -17 -12h-86c-15 0 -24 13 -17 27zM303 528l-175 77c-8 4 -13 14 -6 27l28 51c5 9 17 9 26 3l164 -97c6 -3 10 -11 6 -19
l-18 -36c-4 -9 -11 -12 -25 -6z" />
    <glyph glyph-name="zacute" unicode="&#x17a;" horiz-adv-x="366" 
d="M30 19v10l142 262v2h-114c-10 0 -18 9 -18 19v69c0 11 8 19 18 19h264c15 0 25 -14 17 -27l-145 -264v-3h108c11 0 19 -8 19 -19v-68c0 -10 -8 -19 -19 -19h-253c-10 0 -19 9 -19 19zM123 528c-15 -6 -21 -3 -26 6l-17 36c-4 8 0 15 6 19l163 97c9 6 21 6 26 -3l29 -51
c6 -13 2 -23 -6 -27z" />
    <glyph glyph-name="zcaron" unicode="&#x17e;" horiz-adv-x="366" 
d="M30 19v10l142 262v2h-114c-10 0 -18 9 -18 19v69c0 11 8 19 18 19h264c15 0 25 -14 17 -27l-145 -264v-3h108c11 0 19 -8 19 -19v-68c0 -10 -8 -19 -19 -19h-253c-10 0 -19 9 -19 19zM180 524l-130 101c-6 4 -11 12 -6 19l26 37c6 8 11 10 23 3l97 -61l98 61
c12 7 17 5 23 -3l26 -37c5 -7 0 -15 -6 -19l-130 -101c-6 -5 -14 -5 -21 0z" />
    <glyph glyph-name="zdotaccent" unicode="&#x17c;" horiz-adv-x="366" 
d="M30 19v10l142 262v2h-114c-10 0 -18 9 -18 19v69c0 11 8 19 18 19h264c15 0 25 -14 17 -27l-145 -264v-3h108c11 0 19 -8 19 -19v-68c0 -10 -8 -19 -19 -19h-253c-10 0 -19 9 -19 19zM195 536c-40 0 -72 32 -72 72s32 72 72 72s72 -32 72 -72s-32 -72 -72 -72z" />
    <glyph glyph-name="IJ" unicode="&#x132;" horiz-adv-x="750" 
d="M91 19v662c0 10 9 19 19 19h93c10 0 19 -9 19 -19v-662c0 -10 -9 -19 -19 -19h-93c-10 0 -19 9 -19 19zM316 63c-5 8 -4 18 2 25l52 53c11 10 21 8 30 -1c13 -14 33 -32 66 -32c39 0 80 32 80 101v472c0 10 8 19 19 19h94c11 0 19 -9 19 -19v-472
c0 -139 -93 -219 -210 -219c-87 0 -135 52 -152 73z" />
    <glyph glyph-name="ij" unicode="&#x133;" 
d="M119 542c-38 0 -68 31 -68 69s30 69 68 69c39 0 70 -31 70 -69s-31 -69 -70 -69zM60 19v362c0 11 9 19 19 19h83c10 0 19 -8 19 -19v-362c0 -10 -9 -19 -19 -19h-83c-10 0 -19 9 -19 19zM378 542c-38 0 -68 31 -68 69s30 69 68 69c39 0 70 -31 70 -69s-31 -69 -70 -69z
M318 -108v489c0 11 9 19 19 19h84c10 0 19 -8 19 -19v-489c0 -132 -80 -202 -186 -202c-53 0 -101 23 -118 39c-7 5 -8 16 -4 23l33 64c4 8 15 10 24 5c13 -8 37 -20 59 -20c45 0 70 33 70 91z" />
    <glyph glyph-name="grave.cap" horiz-adv-x="302" 
d="M224 768l-175 77c-9 4 -13 15 -6 27l28 52c5 9 18 8 26 3l164 -98c5 -3 10 -11 6 -19l-18 -35c-4 -9 -11 -13 -25 -7z" />
    <glyph glyph-name="acute" unicode="&#xb4;" horiz-adv-x="302" 
d="M89 528c-15 -6 -21 -3 -26 6l-17 36c-4 8 0 15 6 19l163 97c9 6 21 6 26 -3l29 -51c6 -13 2 -23 -6 -27z" />
    <glyph glyph-name="acute.cap" horiz-adv-x="302" 
d="M84 768c-14 -6 -21 -2 -25 7l-18 35c-4 8 1 16 6 19l164 98c11 7 21 6 26 -3l28 -52c7 -12 3 -23 -6 -27z" />
    <glyph glyph-name="circumflex" unicode="&#x2c6;" horiz-adv-x="373" 
d="M63 529l-26 37c-5 7 0 15 6 19l130 101c6 5 14 5 21 0l130 -101c6 -4 11 -12 6 -19l-26 -37c-6 -8 -11 -10 -23 -3l-97 61l-98 -61c-12 -7 -17 -5 -23 3z" />
    <glyph glyph-name="circumflex.cap" horiz-adv-x="373" 
d="M86 766c-12 -7 -17 -5 -23 3l-26 37c-5 7 0 15 6 19l130 101c6 5 14 5 21 0l130 -101c6 -4 11 -12 6 -19l-26 -37c-6 -8 -11 -10 -23 -3l-97 61z" />
    <glyph glyph-name="caron" unicode="&#x2c7;" horiz-adv-x="373" 
d="M174 524l-130 101c-6 4 -11 12 -6 19l26 37c6 8 11 10 23 3l97 -61l98 61c12 7 17 5 23 -3l26 -37c5 -7 0 -15 -6 -19l-130 -101c-6 -5 -14 -5 -21 0z" />
    <glyph glyph-name="caron.cap" horiz-adv-x="373" 
d="M174 764l-130 101c-6 4 -11 12 -6 19l26 37c6 8 11 10 23 3l97 -61l98 61c12 7 17 5 23 -3l26 -37c5 -7 0 -15 -6 -19l-130 -101c-6 -5 -14 -5 -21 0z" />
    <glyph glyph-name="caron.alt" horiz-adv-x="373" 
d="M179 710c36 0 83 -25 83 -107c0 -98 -64 -158 -90 -181c-8 -6 -16 -7 -23 1l-15 14c-6 7 -4 17 3 23c10 7 67 52 68 122c-1 0 -14 -5 -31 -5c-36 0 -67 29 -67 66s31 67 72 67z" />
    <glyph glyph-name="tilde" unicode="&#x2dc;" horiz-adv-x="380" 
d="M70 562l-29 21c-7 5 -9 16 -6 23c10 18 43 84 104 84c52 0 69 -55 107 -55c35 0 36 62 65 41l28 -20c9 -7 8 -19 1 -31c-11 -19 -40 -76 -97 -76c-52 0 -76 56 -109 56c-36 0 -34 -62 -64 -43z" />
    <glyph glyph-name="tilde.cap" horiz-adv-x="380" 
d="M70 789l-29 21c-7 5 -9 16 -6 23c10 18 43 84 104 84c52 0 69 -55 107 -55c35 0 36 62 65 41l28 -20c9 -7 8 -19 1 -31c-11 -19 -40 -76 -97 -76c-52 0 -76 56 -109 56c-36 0 -34 -62 -64 -43z" />
    <glyph glyph-name="dieresis" unicode="&#xa8;" horiz-adv-x="414" 
d="M313 551c-35 0 -63 29 -63 64s28 63 63 63s64 -28 64 -63s-29 -64 -64 -64zM112 551c-35 0 -63 29 -63 64s28 63 63 63s64 -28 64 -63s-29 -64 -64 -64z" />
    <glyph glyph-name="dieresis.cap" horiz-adv-x="474" 
d="M360 775c-35 0 -63 29 -63 64s28 63 63 63s64 -28 64 -63s-29 -64 -64 -64zM113 775c-35 0 -63 29 -63 64s28 63 63 63s64 -28 64 -63s-29 -64 -64 -64z" />
    <glyph glyph-name="macron" unicode="&#xaf;" horiz-adv-x="414" 
d="M79 570c-11 0 -19 8 -19 18v34c0 11 8 19 19 19h256c11 0 19 -8 19 -19v-34c0 -10 -8 -18 -19 -18h-256z" />
    <glyph glyph-name="macron.cap" horiz-adv-x="414" 
d="M79 808c-11 0 -19 8 -19 18v34c0 11 8 19 19 19h256c11 0 19 -8 19 -19v-34c0 -10 -8 -18 -19 -18h-256z" />
    <glyph glyph-name="uni02C9" unicode="&#x2c9;" horiz-adv-x="414" 
d="M79 570c-11 0 -19 8 -19 18v34c0 11 8 19 19 19h256c11 0 19 -8 19 -19v-34c0 -10 -8 -18 -19 -18h-256z" />
    <glyph glyph-name="breve" unicode="&#x2d8;" horiz-adv-x="346" 
d="M173 528c-73 0 -130 51 -140 118c-2 12 5 22 18 22h37c9 0 15 -7 17 -14c10 -31 35 -53 68 -53c30 0 56 25 66 53c2 8 10 14 17 14h39c12 0 19 -10 18 -22c-11 -67 -68 -118 -140 -118z" />
    <glyph glyph-name="breve.cap" horiz-adv-x="346" 
d="M173 766c-73 0 -130 51 -140 118c-2 11 5 21 18 21h37c9 0 15 -7 17 -14c10 -30 35 -53 68 -53c30 0 56 26 66 53c2 9 10 14 17 14h39c12 0 19 -10 18 -21c-11 -67 -68 -118 -140 -118z" />
    <glyph glyph-name="ring" unicode="&#x2da;" horiz-adv-x="290" 
d="M145 484c-63 0 -113 50 -113 113s50 113 113 113c62 0 113 -50 113 -113s-51 -113 -113 -113zM145 547c26 0 48 24 48 50s-22 48 -48 48s-50 -22 -50 -48s24 -50 50 -50z" />
    <glyph glyph-name="ring.cap" horiz-adv-x="290" 
d="M145 754c-63 0 -113 50 -113 113s50 113 113 113c62 0 113 -50 113 -113s-51 -113 -113 -113zM145 817c26 0 48 24 48 50s-22 48 -48 48s-50 -22 -50 -48s24 -50 50 -50z" />
    <glyph glyph-name="hungarumlaut" unicode="&#x2dd;" horiz-adv-x="392" 
d="M224 521c-16 0 -22 9 -19 19l37 141c3 10 9 19 19 19h76c19 0 25 -13 18 -25l-78 -139c-4 -8 -11 -15 -18 -15h-35zM58 521c-16 0 -22 9 -19 19l37 141c3 10 9 19 19 19h76c19 0 25 -12 18 -25l-78 -139c-4 -8 -11 -15 -18 -15h-35z" />
    <glyph glyph-name="hungarumlaut.cap" horiz-adv-x="392" 
d="M220 768c-16 0 -22 9 -19 19l37 141c3 10 9 19 19 19h76c19 0 25 -13 18 -25l-78 -139c-4 -8 -11 -15 -18 -15h-35zM54 768c-16 0 -22 9 -19 19l37 141c3 10 9 19 19 19h76c19 0 25 -12 18 -25l-78 -139c-4 -8 -11 -15 -18 -15h-35z" />
    <glyph glyph-name="dotaccent" unicode="&#x2d9;" horiz-adv-x="219" 
d="M109 536c-40 0 -72 32 -72 72s32 72 72 72s72 -32 72 -72s-32 -72 -72 -72z" />
    <glyph glyph-name="dotaccent.cap" horiz-adv-x="219" 
d="M109 781c-40 0 -72 32 -72 72s32 72 72 72s72 -32 72 -72s-32 -72 -72 -72z" />
    <glyph glyph-name="cedilla" unicode="&#xb8;" horiz-adv-x="247" 
d="M54 0h66v-52c61 -8 97 -47 97 -103c0 -58 -47 -105 -106 -105c-30 0 -59 15 -76 35c-8 9 -6 20 3 28l20 17c6 6 16 5 21 -1c8 -9 21 -12 30 -12c20 0 35 17 35 37c0 24 -21 45 -73 49c-15 2 -17 13 -17 18v89z" />
    <glyph glyph-name="cedilla.cap" horiz-adv-x="247" 
d="M54 0h66v-52c61 -8 97 -47 97 -103c0 -58 -47 -105 -106 -105c-30 0 -59 15 -76 35c-8 9 -6 20 3 28l20 17c6 6 16 5 21 -1c8 -9 21 -12 30 -12c20 0 35 17 35 37c0 24 -21 45 -73 49c-15 2 -17 13 -17 18v89z" />
    <glyph glyph-name="ogonek" unicode="&#x2db;" horiz-adv-x="276" 
d="M107 14h64s-61 -48 -61 -110c0 -35 23 -64 66 -64c20 0 34 6 46 9c11 3 20 -5 20 -17v-30c0 -9 -7 -16 -14 -19c-4 -1 -36 -10 -66 -10c-69 0 -127 35 -127 110c0 81 72 131 72 131z" />
    <glyph glyph-name="ogonek.cap" horiz-adv-x="276" 
d="M107 14h64s-61 -48 -61 -110c0 -35 23 -64 66 -64c20 0 34 6 46 9c11 3 20 -5 20 -17v-30c0 -9 -7 -16 -14 -19c-4 -1 -36 -10 -66 -10c-69 0 -127 35 -127 110c0 81 72 131 72 131z" />
    <glyph glyph-name="commaaccent" horiz-adv-x="292" 
d="M146 -91c36 0 83 -25 83 -107c0 -98 -64 -158 -90 -181c-8 -6 -16 -7 -23 1l-15 14c-6 7 -4 17 3 23c10 7 67 52 68 122c-1 0 -14 -5 -31 -5c-36 0 -67 29 -67 66s31 67 72 67z" />
    <glyph glyph-name="commaaccent.alt" horiz-adv-x="292" 
d="M146 -91c36 0 83 -25 83 -107c0 -98 -64 -158 -90 -181c-8 -6 -16 -7 -23 1l-15 14c-6 7 -4 17 3 23c10 7 67 52 68 122c-1 0 -14 -5 -31 -5c-36 0 -67 29 -67 66s31 67 72 67z" />
    <glyph glyph-name="commaaccent.cap" horiz-adv-x="292" 
d="M146 -91c36 0 83 -25 83 -107c0 -98 -64 -158 -90 -181c-8 -6 -16 -7 -23 1l-15 14c-6 7 -4 17 3 23c10 7 67 52 68 122c-1 0 -14 -5 -31 -5c-36 0 -67 29 -67 66s31 67 72 67z" />
    <glyph glyph-name="ellipsis" unicode="&#x2026;" horiz-adv-x="668" 
d="M477 62c0 40 32 72 72 72s72 -32 72 -72c0 -39 -32 -72 -72 -72s-72 33 -72 72zM264 62c0 40 32 72 71 72c40 0 73 -32 73 -72c0 -39 -33 -72 -73 -72c-39 0 -71 33 -71 72zM47 62c0 40 32 72 71 72c40 0 73 -32 73 -72c0 -39 -33 -72 -73 -72c-39 0 -71 33 -71 72z" />
    <glyph glyph-name="uni00AD" unicode="&#xad;" horiz-adv-x="347" 
d="M62 192c-11 0 -19 8 -19 18v67c0 11 8 19 19 19h223c11 0 19 -8 19 -19v-67c0 -10 -8 -18 -19 -18h-223z" />
    <glyph glyph-name="exclamdown" unicode="&#xa1;" horiz-adv-x="266" 
d="M134 245c-46 0 -83 38 -83 83s37 82 83 82c44 0 81 -37 81 -82s-37 -83 -81 -83zM98 112c1 8 10 16 19 16h32c9 0 18 -8 19 -16l39 -279v-114c0 -10 -9 -19 -19 -19h-110c-10 0 -19 9 -19 19v112z" />
    <glyph glyph-name="questiondown" unicode="&#xbf;" horiz-adv-x="434" 
d="M232 245c-45 0 -83 38 -83 83s38 82 83 82s82 -37 82 -82s-37 -83 -82 -83zM19 -142c0 121 152 156 152 216v33c0 12 7 21 20 21h81c10 0 19 -8 19 -19v-42c0 -95 -139 -131 -139 -201c0 -36 30 -67 80 -67c61 0 88 39 108 52c8 5 15 5 22 -1l47 -46c8 -7 7 -19 0 -26
c0 0 -68 -88 -196 -88c-105 0 -194 70 -194 168z" />
    <glyph glyph-name="quoteleft" unicode="&#x2018;" horiz-adv-x="198" 
d="M106 414c-36 0 -82 26 -82 108c0 97 64 158 90 181c8 6 15 7 22 -1l15 -15c6 -7 5 -16 -3 -22c-11 -10 -67 -53 -68 -122c2 0 14 5 31 5c36 0 67 -30 67 -67c0 -36 -31 -67 -72 -67z" />
    <glyph glyph-name="quoteright" unicode="&#x2019;" horiz-adv-x="196" 
d="M62 423l-14 14c-7 7 -5 17 2 23c10 7 68 52 68 122c-1 0 -14 -5 -30 -5c-37 0 -67 29 -67 66s30 67 71 67c36 0 83 -25 83 -107c0 -98 -64 -158 -90 -181c-8 -6 -15 -7 -23 1z" />
    <glyph glyph-name="quotedblleft" unicode="&#x201c;" horiz-adv-x="392" 
d="M299 416c-36 0 -83 25 -83 107c0 97 64 158 90 181c8 6 16 7 23 -1l15 -14c6 -7 4 -17 -3 -23c-11 -9 -67 -52 -68 -122c1 0 14 5 31 5c36 0 67 -29 67 -66s-31 -67 -72 -67zM106 416c-36 0 -82 25 -82 107c0 97 64 158 90 181c8 6 15 7 22 -1l15 -14c6 -7 5 -17 -3 -23
c-11 -9 -67 -52 -68 -122c2 0 14 5 31 5c36 0 67 -29 67 -66s-31 -67 -72 -67z" />
    <glyph glyph-name="quotedblright" unicode="&#x201d;" horiz-adv-x="389" 
d="M255 423l-15 14c-6 7 -4 17 3 23c10 7 67 52 68 122c-1 0 -14 -5 -31 -5c-36 0 -67 29 -67 66s31 67 72 67c36 0 83 -25 83 -107c0 -98 -64 -158 -90 -181c-8 -6 -16 -7 -23 1zM62 423l-14 14c-7 7 -5 17 2 23c10 7 68 52 68 122c-1 0 -14 -5 -30 -5c-37 0 -67 29 -67 66
s30 67 71 67c36 0 83 -25 83 -107c0 -98 -64 -158 -90 -181c-8 -6 -15 -7 -23 1z" />
    <glyph glyph-name="quotesinglbase" unicode="&#x201a;" horiz-adv-x="228" 
d="M37 57c0 36 31 67 72 67c36 0 83 -26 83 -108c0 -97 -64 -158 -90 -181c-8 -6 -16 -7 -23 1l-15 15c-6 7 -4 16 3 22c10 7 67 53 68 122c-1 0 -14 -5 -31 -5c-36 0 -67 30 -67 67z" />
    <glyph glyph-name="quotedblbase" unicode="&#x201e;" horiz-adv-x="421" 
d="M230 57c0 36 31 67 72 67c36 0 83 -26 83 -108c0 -97 -64 -158 -90 -181c-8 -6 -16 -7 -23 1l-15 15c-6 7 -4 16 3 22c10 7 67 53 68 122c-1 0 -14 -5 -31 -5c-36 0 -67 30 -67 67zM38 57c0 36 30 67 71 67c36 0 83 -26 83 -108c0 -97 -64 -158 -90 -181
c-8 -6 -15 -7 -23 1l-14 15c-7 7 -5 16 2 22c10 7 68 53 68 122c-1 0 -14 -5 -30 -5c-37 0 -67 30 -67 67z" />
    <glyph glyph-name="guilsinglleft" unicode="&#x2039;" horiz-adv-x="271" 
d="M130 39l-104 155c-6 8 -4 18 0 24l109 148c3 5 10 12 18 12h57c17 0 23 -15 15 -31l-68 -139l65 -147c7 -16 2 -30 -15 -30h-62c-7 0 -12 4 -15 8z" />
    <glyph glyph-name="guilsinglright" unicode="&#x203a;" horiz-adv-x="271" 
d="M63 31c-17 0 -22 14 -15 30l65 147l-68 139c-8 16 -2 31 15 31h57c8 0 15 -7 18 -12l109 -148c4 -6 6 -16 0 -24l-104 -155c-3 -4 -8 -8 -15 -8h-62z" />
    <glyph glyph-name="guillemotleft" unicode="&#xab;" horiz-adv-x="471" 
d="M226 194c-6 8 -4 18 0 24l109 148c3 5 10 12 18 12h57c17 0 23 -15 15 -31l-68 -139l65 -147c7 -16 2 -30 -15 -30h-62c-7 0 -12 4 -15 8zM130 39l-104 155c-6 8 -4 18 0 24l109 148c3 5 10 12 18 12h57c17 0 23 -15 15 -31l-68 -139l65 -147c7 -16 2 -30 -15 -30h-62
c-7 0 -12 4 -15 8z" />
    <glyph glyph-name="guillemotright" unicode="&#xbb;" horiz-adv-x="471" 
d="M248 61l65 147l-68 139c-8 16 -2 31 15 31h57c8 0 15 -7 18 -12l109 -148c4 -6 6 -16 0 -24l-104 -155c-3 -4 -8 -8 -15 -8h-62c-17 0 -22 14 -15 30zM63 31c-17 0 -22 14 -15 30l65 147l-68 139c-8 16 -2 31 15 31h57c8 0 15 -7 18 -12l109 -148c4 -6 6 -16 0 -24
l-104 -155c-3 -4 -8 -8 -15 -8h-62z" />
    <glyph glyph-name="endash" unicode="&#x2013;" horiz-adv-x="539" 
d="M72 210c-11 0 -19 8 -19 18v37c0 11 8 19 19 19h395c11 0 19 -8 19 -19v-37c0 -10 -8 -18 -19 -18h-395z" />
    <glyph glyph-name="emdash" unicode="&#x2014;" horiz-adv-x="759" 
d="M72 210c-11 0 -19 8 -19 18v37c0 11 8 19 19 19h615c11 0 19 -8 19 -19v-37c0 -10 -8 -18 -19 -18h-615z" />
    <glyph glyph-name="bullet" unicode="&#x2022;" horiz-adv-x="389" 
d="M192 95c-69 0 -129 59 -129 129c0 73 60 133 129 133c73 0 133 -60 133 -133c0 -70 -60 -129 -133 -129z" />
    <glyph glyph-name="periodcentered" unicode="&#xb7;" horiz-adv-x="258" 
d="M128 167c-48 0 -89 41 -89 89c0 51 41 92 89 92c51 0 92 -41 92 -92c0 -48 -41 -89 -92 -89z" />
    <glyph glyph-name="uni2219" unicode="&#x2219;" horiz-adv-x="389" 
d="M193 167c-48 0 -89 41 -89 89c0 51 41 92 89 92c51 0 92 -41 92 -92c0 -48 -41 -89 -92 -89z" />
    <glyph glyph-name="dagger" unicode="&#x2020;" horiz-adv-x="618" 
d="M69 286c-10 0 -19 9 -19 19v76c0 10 9 19 19 19h170v281c0 10 9 19 19 19h96c10 0 19 -9 19 -19v-281h177c10 0 18 -9 18 -19v-76c0 -10 -8 -19 -18 -19h-184l-32 -570c0 -8 -10 -16 -19 -16h-18c-9 0 -19 8 -19 16l-32 570h-177z" />
    <glyph glyph-name="daggerdbl" unicode="&#x2021;" horiz-adv-x="618" 
d="M80 20v75c0 10 9 19 19 19h155l-15 284v1h-170c-10 0 -19 9 -19 19v76c0 10 9 19 19 19h170v168c0 10 9 19 19 19h96c10 0 19 -9 19 -19v-168h177c10 0 18 -9 18 -19v-76c0 -10 -8 -19 -18 -19h-177l-15 -285h162c10 0 18 -9 18 -19v-75c0 -10 -8 -19 -18 -19h-170
l-16 -285c0 -8 -10 -16 -19 -16h-18c-9 0 -19 8 -19 16l-17 285h-162c-10 0 -19 9 -19 19z" />
    <glyph glyph-name="section" unicode="&#xa7;" horiz-adv-x="512" 
d="M71 -88c8 13 20 19 35 8c7 -3 80 -58 144 -58c41 0 85 21 85 68c0 58 -63 93 -120 117c-90 37 -180 98 -180 204c0 65 41 110 72 136c-26 24 -72 71 -72 142c0 86 62 181 215 181c98 0 173 -51 191 -64c9 -5 14 -20 7 -31l-41 -59c-8 -12 -18 -15 -33 -5
c-13 9 -77 50 -129 50c-57 0 -86 -33 -86 -64c0 -43 36 -74 113 -105c95 -38 202 -92 202 -210c0 -63 -45 -114 -73 -139c25 -23 73 -71 73 -146c0 -98 -85 -186 -220 -186c-122 0 -192 58 -209 74c-10 10 -16 18 -5 34zM155 260c0 -60 60 -82 147 -122c0 0 40 25 40 80
c0 54 -64 90 -151 117c-6 -6 -36 -29 -36 -75z" />
    <glyph glyph-name="paragraph" unicode="&#xb6;" horiz-adv-x="701" 
d="M227 281c-113 0 -208 92 -208 210c0 114 85 209 194 209l456 -1c10 0 19 -9 19 -19v-46c0 -11 -9 -19 -19 -19h-78v-896c0 -10 -8 -19 -19 -19h-54c-10 0 -19 9 -19 19v896h-136v-896c0 -10 -9 -19 -19 -19h-54c-10 0 -19 9 -19 19v562h-44z" />
    <glyph glyph-name="brokenbar.case" horiz-adv-x="315" 
d="M151 512c-10 0 -19 8 -19 18v331c0 11 9 19 19 19h13c10 0 18 -8 18 -19v-331c0 -10 -9 -18 -19 -18h-12zM132 169c0 11 9 19 19 19h13c10 0 18 -8 18 -19v-331c0 -10 -9 -18 -19 -18h-12c-10 0 -19 8 -19 18v331z" />
    <glyph glyph-name="copyright" unicode="&#xa9;" horiz-adv-x="804" 
d="M42 350c0 198 161 360 359 360s360 -162 360 -360s-162 -359 -360 -359s-359 161 -359 359zM120 350c0 -155 126 -281 281 -281c156 0 281 126 281 281c0 156 -125 281 -281 281c-155 0 -281 -125 -281 -281zM223 348c0 105 84 188 187 188c40 0 79 -12 112 -38
c9 -8 10 -20 2 -29l-34 -38c-6 -8 -17 -7 -25 -2c-17 12 -35 16 -54 16c-53 0 -92 -43 -92 -94c0 -53 39 -94 92 -94c19 0 36 5 53 16c8 6 19 5 25 -2l36 -40c7 -8 7 -20 -1 -28c-35 -30 -71 -42 -114 -42c-103 0 -187 84 -187 187z" />
    <glyph glyph-name="registered" unicode="&#xae;" horiz-adv-x="804" 
d="M42 350c0 198 161 360 359 360s360 -162 360 -360s-162 -359 -360 -359s-359 161 -359 359zM120 350c0 -155 126 -281 281 -281c156 0 281 126 281 281c0 156 -125 281 -281 281c-155 0 -281 -125 -281 -281zM267 187v328c0 10 8 19 19 19h155c62 0 123 -46 123 -124
c0 -66 -40 -96 -71 -111l46 -104c6 -14 -3 -27 -17 -27h-54c-8 0 -15 7 -18 14l-44 112h-52v-107c0 -10 -8 -19 -19 -19h-49c-11 0 -19 9 -19 19zM351 368h79c24 0 41 18 41 41c0 24 -17 41 -41 41h-79v-82z" />
    <glyph glyph-name="trademark" unicode="&#x2122;" horiz-adv-x="721" 
d="M338 385c-13 0 -21 11 -19 23l52 282c1 8 7 15 19 15h4c9 0 15 -6 17 -11l87 -185l89 185c3 7 9 11 17 11h4c10 0 18 -7 19 -15l53 -283c2 -12 -7 -22 -19 -22h-39c-9 0 -17 8 -19 17l-22 125l-64 -136c-2 -5 -8 -9 -16 -9h-6c-9 0 -14 4 -17 10l-61 135l-24 -126
c-1 -8 -11 -16 -19 -16h-36zM145 385c-11 0 -19 9 -19 19v222h-64c-10 0 -19 8 -19 19v36c0 10 9 19 19 19h205c11 0 19 -9 19 -19v-36c0 -11 -8 -19 -19 -19h-64v-222c0 -10 -9 -19 -19 -19h-39z" />
    <glyph glyph-name="currency" unicode="&#xa4;" horiz-adv-x="456" 
d="M96 161l-39 40c-7 7 -7 20 0 27l48 48c-16 36 -16 77 1 112l-48 48c-7 7 -7 20 0 27l40 39c7 7 20 7 27 0l47 -47c35 17 77 17 112 0l47 47c7 7 19 7 27 0l39 -40c7 -7 8 -19 1 -26l-47 -47c16 -36 17 -78 1 -114l47 -47c7 -7 7 -19 0 -27l-40 -39c-7 -7 -19 -8 -26 -1
l-48 48c-36 -17 -78 -17 -114 0l-48 -48c-7 -7 -20 -7 -27 0zM227 281c30 0 52 22 52 51c0 30 -22 52 -52 52c-29 0 -51 -22 -51 -52c0 -29 22 -51 51 -51z" />
    <glyph glyph-name="Euro" unicode="&#x20ac;" horiz-adv-x="718" 
d="M38 250c-10 0 -18 9 -18 19v13c0 10 8 19 18 19h39c-2 16 -3 31 -3 48c0 7 0 14 1 21h-37c-10 0 -18 9 -18 19v13c0 10 8 19 18 19h43c33 165 179 289 354 289c101 0 174 -32 242 -93c9 -8 9 -20 1 -28l-60 -62c-7 -8 -19 -8 -27 0c-42 38 -97 58 -153 58
c-104 0 -186 -70 -213 -164h233c11 0 19 -9 19 -19v-15c0 -10 -8 -18 -19 -18h-243v-17c0 -17 1 -34 5 -51h198c11 0 19 -9 19 -19v-14c0 -10 -8 -18 -19 -18h-180c35 -76 110 -129 201 -129c60 0 111 23 153 57c8 7 19 6 25 0l62 -64c8 -7 6 -20 -1 -27
c-68 -66 -154 -97 -243 -97c-165 0 -304 109 -347 260h-50z" />
    <glyph glyph-name="cent" unicode="&#xa2;" horiz-adv-x="412" 
d="M154 4c-78 30 -135 104 -135 196c0 118 101 210 213 210c10 0 21 -1 31 -2l11 41c3 10 13 16 23 13l12 -3c10 -2 16 -12 13 -23l-12 -42c27 -12 50 -31 70 -55c7 -9 5 -21 -5 -28l-46 -44c-9 -8 -18 -3 -25 3c-6 7 -14 13 -22 18l-51 -189c46 0 65 20 83 37
c7 7 17 9 25 3l43 -37c10 -8 14 -18 7 -28c-34 -53 -87 -84 -158 -84c-10 0 -20 1 -29 2l-26 -96c-2 -10 -13 -15 -23 -13l-11 3c-10 2 -16 12 -14 22zM183 113l51 188c-54 -1 -97 -46 -97 -101c0 -38 18 -69 46 -87z" />
    <glyph glyph-name="sterling" unicode="&#xa3;" horiz-adv-x="485" 
d="M66 19v18c50 94 51 179 37 254h-43c-10 0 -18 9 -18 19v13c0 10 8 19 18 19h31c-11 45 -30 99 -30 156c0 133 95 212 212 212c93 0 146 -49 171 -71c8 -6 9 -18 2 -26l-49 -59c-7 -10 -19 -9 -27 -3c0 0 -52 46 -96 46c-46 0 -88 -36 -88 -94c0 -50 27 -107 38 -161h116
c11 0 19 -9 19 -19v-14c0 -10 -8 -18 -19 -18h-106c6 -48 5 -119 -14 -180h196c10 0 18 -8 18 -19v-73c0 -10 -8 -19 -18 -19h-331c-10 0 -19 9 -19 19z" />
    <glyph glyph-name="florin" unicode="&#x192;" horiz-adv-x="371" 
d="M111 -108v404h-75c-11 0 -19 9 -19 19v66c0 11 8 19 19 19h75v109c0 130 81 201 193 201c57 0 94 -25 111 -39c6 -6 9 -17 4 -24l-37 -62c-6 -8 -16 -10 -24 -5c-5 4 -33 17 -53 17c-36 0 -69 -27 -69 -89v-108h100c11 0 19 -8 19 -19v-66c0 -10 -8 -19 -19 -19h-100
v-405c0 -130 -83 -201 -194 -201c-57 0 -94 25 -111 39c-6 6 -8 17 -4 24l38 62c5 8 15 10 24 5c4 -4 32 -17 52 -17c36 0 70 27 70 89z" />
    <glyph glyph-name="yen" unicode="&#xa5;" horiz-adv-x="633" 
d="M139 120c-10 0 -18 9 -18 19v13c0 10 8 19 18 19h111v69h-111c-10 0 -18 9 -18 19v13c0 10 8 19 18 19h111v46l-228 334c-8 13 0 29 16 29h103c7 0 13 -5 16 -9l160 -230l160 230c3 4 7 9 16 9h102c16 0 24 -16 16 -29l-231 -333v-47h109c11 0 19 -9 19 -19v-14
c0 -10 -8 -18 -19 -18h-109v-69h109c11 0 19 -9 19 -19v-14c0 -10 -8 -18 -19 -18h-109v-101c0 -10 -9 -19 -19 -19h-92c-11 0 -19 9 -19 19v101h-111z" />
    <glyph glyph-name="ordfeminine" unicode="&#xaa;" horiz-adv-x="311" 
d="M121 398c-58 0 -100 40 -100 102c0 53 43 94 118 94c31 0 54 -8 54 -8c0 37 -7 54 -42 54c-27 0 -61 -8 -78 -12c-9 -2 -15 3 -17 15l-6 33c-2 10 2 16 9 19c6 3 54 15 101 15c89 0 114 -44 114 -129v-161c0 -8 -7 -14 -14 -14h-27c-6 0 -10 2 -14 10c-2 7 -6 14 -8 21
c-18 -17 -43 -39 -90 -39zM141 462c23 0 45 18 51 35v33c-7 6 -29 11 -45 11c-25 0 -44 -17 -44 -40c0 -22 15 -39 38 -39z" />
    <glyph glyph-name="ordmasculine" unicode="&#xba;" horiz-adv-x="302" 
d="M152 394c-83 0 -127 60 -127 158c0 99 44 158 127 158c82 0 125 -59 125 -158c0 -98 -43 -158 -125 -158zM152 464c27 0 44 31 44 88s-17 88 -44 88c-28 0 -44 -31 -44 -88s16 -88 44 -88z" />
    <glyph glyph-name="onesuperior" unicode="&#xb9;" horiz-adv-x="196" 
d="M83 504c-6 0 -10 4 -10 9v193l-49 -4c-5 0 -9 3 -9 9l-2 31c0 5 2 7 7 11l74 47h51c5 0 9 -4 9 -9v-278c0 -5 -4 -9 -9 -9h-62z" />
    <glyph glyph-name="twosuperior" unicode="&#xb2;" horiz-adv-x="277" 
d="M37 504c-6 0 -10 3 -10 9v17l110 126c17 19 25 36 25 50c0 20 -16 35 -40 35c-18 0 -36 -11 -44 -20c-6 -4 -11 -4 -16 3l-22 31c-6 8 -8 13 3 21c6 5 42 34 94 34c63 0 106 -37 106 -92c0 -30 -14 -58 -37 -86l-54 -64h80c5 0 9 -4 9 -9v-46c0 -5 -3 -9 -9 -9h-195z" />
    <glyph glyph-name="threesuperior" unicode="&#xb3;" horiz-adv-x="265" 
d="M122 494c-57 0 -86 25 -95 33c-6 6 -6 11 -1 18l22 29c5 7 11 6 17 2c1 0 21 -16 47 -16s42 12 42 31s-16 33 -47 33h-29c-10 0 -15 3 -15 14v31c0 10 6 14 15 14h29c25 0 41 13 41 31s-16 30 -38 30c-15 0 -30 -8 -39 -16c-6 -3 -9 -5 -15 3l-24 29c-5 5 -6 14 1 18
c0 0 33 32 89 32c64 0 108 -32 108 -83c0 -36 -28 -60 -51 -70v-1c23 -9 60 -32 60 -76c0 -55 -53 -86 -117 -86z" />
    <glyph glyph-name="fraction" unicode="&#x2044;" horiz-adv-x="123" 
d="M-60 10c-2 -4 -9 -10 -17 -10h-48c-15 0 -24 14 -17 27l343 663c3 6 9 10 17 10h50c15 0 24 -14 17 -27z" />
    <glyph glyph-name="uni2215" unicode="&#x2215;" horiz-adv-x="123" 
d="M-60 10c-2 -4 -9 -10 -17 -10h-48c-15 0 -24 14 -17 27l343 663c3 6 9 10 17 10h50c15 0 24 -14 17 -27z" />
    <glyph glyph-name="onehalf" unicode="&#xbd;" horiz-adv-x="661" 
d="M89 27l343 663c3 6 9 10 17 10h50c15 0 24 -14 17 -27l-345 -663c-2 -4 -9 -10 -17 -10h-48c-15 0 -24 14 -17 27zM91 404c-6 0 -10 4 -10 9v193l-49 -4c-5 0 -9 3 -9 9l-2 31c0 5 2 7 7 11l74 47h51c5 0 9 -4 9 -9v-278c0 -5 -4 -9 -9 -9h-62zM391 9v17l110 126
c17 19 25 36 25 50c0 20 -16 35 -40 35c-18 0 -36 -11 -44 -20c-6 -4 -11 -4 -16 3l-22 31c-6 8 -8 13 3 21c6 5 42 34 94 34c63 0 106 -37 106 -92c0 -30 -14 -58 -37 -86l-54 -64h80c5 0 9 -4 9 -9v-46c0 -5 -3 -9 -9 -9h-195c-6 0 -10 3 -10 9z" />
    <glyph glyph-name="onethird" unicode="&#x2153;" horiz-adv-x="686" 
d="M118 27l343 663c3 6 9 10 17 10h50c15 0 24 -14 17 -27l-345 -663c-2 -4 -9 -10 -17 -10h-48c-15 0 -24 14 -17 27zM120 404c-6 0 -10 4 -10 9v193l-49 -4c-5 0 -9 3 -9 9l-2 31c0 5 2 7 7 11l74 47h51c5 0 9 -4 9 -9v-278c0 -5 -4 -9 -9 -9h-62zM432 23
c-6 6 -6 11 -1 18l22 29c5 7 11 6 17 2c1 0 21 -16 47 -16s42 12 42 31s-16 33 -47 33h-29c-10 0 -15 3 -15 14v31c0 10 6 14 15 14h29c25 0 41 13 41 31s-16 30 -38 30c-15 0 -30 -8 -39 -16c-6 -3 -9 -5 -15 3l-24 29c-5 5 -6 14 1 18c0 0 33 32 89 32
c64 0 108 -32 108 -83c0 -36 -28 -60 -51 -70v-1c23 -9 60 -32 60 -76c0 -55 -53 -86 -117 -86c-57 0 -86 25 -95 33z" />
    <glyph glyph-name="onequarter" unicode="&#xbc;" horiz-adv-x="664" 
d="M89 27l343 663c3 6 9 10 17 10h50c15 0 24 -14 17 -27l-345 -663c-2 -4 -9 -10 -17 -10h-48c-15 0 -24 14 -17 27zM91 404c-6 0 -10 4 -10 9v193l-49 -4c-5 0 -9 3 -9 9l-2 31c0 5 2 7 7 11l74 47h51c5 0 9 -4 9 -9v-278c0 -5 -4 -9 -9 -9h-62zM351 65v51l163 177
c2 2 6 3 8 3h41c5 0 9 -4 9 -9v-170h40c5 0 9 -4 9 -8v-43c0 -5 -4 -9 -9 -9h-40v-48c0 -5 -4 -9 -9 -9h-56c-5 0 -10 4 -10 9v48h-137c-5 0 -9 4 -9 8zM424 116h74v83z" />
    <glyph glyph-name="oneeighth" unicode="&#x215b;" horiz-adv-x="700" 
d="M118 27l343 663c3 6 9 10 17 10h50c15 0 24 -14 17 -27l-345 -663c-2 -4 -9 -10 -17 -10h-48c-15 0 -24 14 -17 27zM120 404c-6 0 -10 4 -10 9v193l-49 -4c-5 0 -9 3 -9 9l-2 31c0 5 2 7 7 11l74 47h51c5 0 9 -4 9 -9v-278c0 -5 -4 -9 -9 -9h-62zM430 76
c0 47 52 73 60 76v1c-20 8 -51 31 -51 70c0 51 50 83 111 83c63 0 113 -32 113 -83c0 -38 -32 -62 -52 -70v-1c24 -7 61 -31 61 -76c0 -49 -48 -86 -122 -86c-72 0 -120 37 -120 86zM518 213c0 -17 12 -29 33 -31c20 2 32 16 32 31c0 16 -14 31 -33 31
c-18 0 -32 -15 -32 -31zM512 84c0 -19 19 -32 39 -32s38 12 38 32c0 17 -14 34 -38 36c-23 -2 -39 -19 -39 -36z" />
    <glyph glyph-name="twothirds" unicode="&#x2154;" horiz-adv-x="686" 
d="M17 404c-6 0 -10 3 -10 9v17l110 126c17 19 25 36 25 50c0 20 -16 35 -40 35c-18 0 -36 -11 -44 -20c-6 -4 -11 -4 -16 3l-22 31c-6 8 -8 13 3 21c6 5 42 34 94 34c63 0 106 -37 106 -92c0 -30 -14 -58 -37 -86l-54 -64h80c5 0 9 -4 9 -9v-46c0 -5 -3 -9 -9 -9h-195z
M118 27l343 663c3 6 9 10 17 10h50c15 0 24 -14 17 -27l-345 -663c-2 -4 -9 -10 -17 -10h-48c-15 0 -24 14 -17 27zM432 23c-6 6 -6 11 -1 18l22 29c5 7 11 6 17 2c1 0 21 -16 47 -16s42 12 42 31s-16 33 -47 33h-29c-10 0 -15 3 -15 14v31c0 10 6 14 15 14h29
c25 0 41 13 41 31s-16 30 -38 30c-15 0 -30 -8 -39 -16c-6 -3 -9 -5 -15 3l-24 29c-5 5 -6 14 1 18c0 0 33 32 89 32c64 0 108 -32 108 -83c0 -36 -28 -60 -51 -70v-1c23 -9 60 -32 60 -76c0 -55 -53 -86 -117 -86c-57 0 -86 25 -95 33z" />
    <glyph glyph-name="threequarters" unicode="&#xbe;" horiz-adv-x="701" 
d="M128 394c-57 0 -86 25 -95 33c-6 6 -6 11 -1 18l22 29c5 7 11 6 17 2c1 0 21 -16 47 -16s42 12 42 31s-16 33 -47 33h-29c-10 0 -15 3 -15 14v31c0 10 6 14 15 14h29c25 0 41 13 41 31s-16 30 -38 30c-15 0 -30 -8 -39 -16c-6 -3 -9 -5 -15 3l-24 29c-5 5 -6 14 1 18
c0 0 33 32 89 32c64 0 108 -32 108 -83c0 -36 -28 -60 -51 -70v-1c23 -9 60 -32 60 -76c0 -55 -53 -86 -117 -86zM126 27l343 663c3 6 9 10 17 10h50c15 0 24 -14 17 -27l-345 -663c-2 -4 -9 -10 -17 -10h-48c-15 0 -24 14 -17 27zM388 65v51l163 177c2 2 6 3 8 3h41
c5 0 9 -4 9 -9v-170h40c5 0 9 -4 9 -8v-43c0 -5 -4 -9 -9 -9h-40v-48c0 -5 -4 -9 -9 -9h-56c-5 0 -10 4 -10 9v48h-137c-5 0 -9 4 -9 8zM461 116h74v83z" />
    <glyph glyph-name="threeeighths" unicode="&#x215c;" horiz-adv-x="700" 
d="M120 394c-57 0 -86 25 -95 33c-6 6 -6 11 -1 18l22 29c5 7 11 6 17 2c1 0 21 -16 47 -16s42 12 42 31s-16 33 -47 33h-29c-10 0 -15 3 -15 14v31c0 10 6 14 15 14h29c25 0 41 13 41 31s-16 30 -38 30c-15 0 -30 -8 -39 -16c-6 -3 -9 -5 -15 3l-24 29c-5 5 -6 14 1 18
c0 0 33 32 89 32c64 0 108 -32 108 -83c0 -36 -28 -60 -51 -70v-1c23 -9 60 -32 60 -76c0 -55 -53 -86 -117 -86zM118 27l343 663c3 6 9 10 17 10h50c15 0 24 -14 17 -27l-345 -663c-2 -4 -9 -10 -17 -10h-48c-15 0 -24 14 -17 27zM430 76c0 47 52 73 60 76v1
c-20 8 -51 31 -51 70c0 51 50 83 111 83c63 0 113 -32 113 -83c0 -38 -32 -62 -52 -70v-1c24 -7 61 -31 61 -76c0 -49 -48 -86 -122 -86c-72 0 -120 37 -120 86zM518 213c0 -17 12 -29 33 -31c20 2 32 16 32 31c0 16 -14 31 -33 31c-18 0 -32 -15 -32 -31zM512 84
c0 -19 19 -32 39 -32s38 12 38 32c0 17 -14 34 -38 36c-23 -2 -39 -19 -39 -36z" />
    <glyph glyph-name="fiveeighths" unicode="&#x215d;" horiz-adv-x="700" 
d="M119 27l343 663c3 6 9 10 17 10h50c15 0 24 -14 17 -27l-345 -663c-2 -4 -9 -10 -17 -10h-48c-15 0 -24 14 -17 27zM121 394c-51 0 -84 24 -96 38c-5 5 -6 9 -1 15l27 33c5 7 10 7 15 2c1 -1 23 -21 57 -21c23 0 45 16 45 38s-18 37 -48 37h-74c-10 0 -15 8 -15 16v139
c0 5 4 9 9 9h160c5 0 9 -4 9 -9v-44c0 -5 -4 -9 -9 -9h-103v-39h35c72 0 114 -37 114 -99c0 -61 -50 -106 -125 -106zM431 76c0 47 52 73 60 76v1c-20 8 -51 31 -51 70c0 51 50 83 111 83c63 0 113 -32 113 -83c0 -38 -32 -62 -52 -70v-1c24 -7 61 -31 61 -76
c0 -49 -48 -86 -122 -86c-72 0 -120 37 -120 86zM519 213c0 -17 12 -29 33 -31c20 2 32 16 32 31c0 16 -14 31 -33 31c-18 0 -32 -15 -32 -31zM513 84c0 -19 19 -32 39 -32s38 12 38 32c0 17 -14 34 -38 36c-23 -2 -39 -19 -39 -36z" />
    <glyph glyph-name="seveneighths" unicode="&#x215e;" horiz-adv-x="700" 
d="M118 27l343 663c3 6 9 10 17 10h50c15 0 24 -14 17 -27l-345 -663c-2 -4 -9 -10 -17 -10h-48c-15 0 -24 14 -17 27zM75 404c-7 0 -11 2 -11 8v6l116 218h-109c-5 0 -10 4 -10 8v47c0 5 5 9 10 9h199c5 0 9 -4 9 -9v-14l-132 -264c-4 -7 -8 -9 -15 -9h-57zM430 76
c0 47 52 73 60 76v1c-20 8 -51 31 -51 70c0 51 50 83 111 83c63 0 113 -32 113 -83c0 -38 -32 -62 -52 -70v-1c24 -7 61 -31 61 -76c0 -49 -48 -86 -122 -86c-72 0 -120 37 -120 86zM518 213c0 -17 12 -29 33 -31c20 2 32 16 32 31c0 16 -14 31 -33 31
c-18 0 -32 -15 -32 -31zM512 84c0 -19 19 -32 39 -32s38 12 38 32c0 17 -14 34 -38 36c-23 -2 -39 -19 -39 -36z" />
    <glyph glyph-name="perthousand" unicode="&#x2030;" horiz-adv-x="986" 
d="M178 440c-75 0 -135 60 -135 135s60 135 135 135c74 0 135 -60 135 -135s-61 -135 -135 -135zM125 27l343 663c3 6 9 10 17 10h50c15 0 24 -14 17 -27l-345 -663c-2 -4 -9 -10 -17 -10h-48c-15 0 -24 14 -17 27zM178 526c26 0 48 22 48 49c0 26 -22 48 -48 48
c-27 0 -49 -22 -49 -48c0 -27 22 -49 49 -49zM675 125c0 75 61 135 135 135c75 0 136 -60 136 -135s-61 -135 -136 -135c-74 0 -135 60 -135 135zM372 125c0 75 61 135 135 135c75 0 136 -60 136 -135s-61 -135 -136 -135c-74 0 -135 60 -135 135zM762 125
c0 -27 22 -49 48 -49c27 0 49 22 49 49c0 26 -22 48 -49 48c-26 0 -48 -22 -48 -48zM458 125c0 -27 22 -49 49 -49c26 0 49 22 49 49c0 26 -23 48 -49 48c-27 0 -49 -22 -49 -48z" />
    <glyph glyph-name="minus" unicode="&#x2212;" horiz-adv-x="532" 
d="M69 300c-10 0 -19 9 -19 19v56c0 10 9 19 19 19h394c10 0 18 -9 18 -19v-56c0 -10 -8 -19 -18 -19h-394z" />
    <glyph glyph-name="plusminus" unicode="&#xb1;" horiz-adv-x="560" 
d="M233 260v103h-150c-10 0 -19 9 -19 19v56c0 10 9 19 19 19h150v148c0 10 9 18 19 18h56c10 0 19 -8 19 -18v-148h150c10 0 18 -9 18 -19v-56c0 -10 -8 -19 -18 -19h-150v-103c0 -10 -9 -18 -19 -18h-56c-10 0 -19 8 -19 18zM64 66v56c0 10 9 19 19 19h394
c10 0 18 -9 18 -19v-56c0 -10 -8 -19 -18 -19h-394c-10 0 -19 9 -19 19z" />
    <glyph glyph-name="multiply" unicode="&#xd7;" horiz-adv-x="464" 
d="M100 175l-40 40c-7 7 -7 19 0 26l106 106l-106 106c-7 7 -7 20 0 27l39 40c7 7 20 7 27 0l106 -106l106 107c7 7 19 6 26 -1l40 -40c7 -7 8 -19 1 -26l-106 -107l106 -106c7 -8 6 -20 -1 -27l-40 -39c-7 -7 -19 -8 -26 -1l-106 107l-106 -106c-7 -7 -19 -7 -26 0z" />
    <glyph glyph-name="divide" unicode="&#xf7;" horiz-adv-x="505" 
d="M250 471c-38 0 -69 32 -69 69c0 38 31 69 69 69s69 -31 69 -69c0 -37 -31 -69 -69 -69zM56 299c-10 0 -19 9 -19 19v56c0 10 9 19 19 19h394c10 0 18 -9 18 -19v-56c0 -10 -8 -19 -18 -19h-394zM181 160c0 38 30 68 68 68s69 -30 69 -68s-31 -69 -69 -69s-68 31 -68 69z
" />
    <glyph glyph-name="notequal" unicode="&#x2260;" horiz-adv-x="464" 
d="M123 51c-9 4 -14 15 -10 24l24 52h-68c-11 0 -19 9 -19 19v57c0 10 8 19 19 19h113l53 116h-166c-11 0 -19 9 -19 19v56c0 10 8 19 19 19h210l35 75c4 10 16 13 25 9l12 -6c10 -4 15 -15 9 -24l-25 -54h60c11 0 19 -9 19 -19v-56c0 -10 -8 -19 -19 -19h-104l-53 -116h157
c11 0 19 -9 19 -19v-57c0 -10 -8 -19 -19 -19h-201l-34 -74c-4 -9 -16 -12 -25 -8z" />
    <glyph glyph-name="approxequal" unicode="&#x2248;" horiz-adv-x="463" 
d="M82 314l-39 33c-6 5 -7 15 -2 20c0 0 56 83 122 83c36 0 59 -22 79 -36c15 -10 34 -25 57 -25c27 0 47 30 57 47c6 8 15 8 23 2l37 -32c5 -5 6 -15 1 -21c0 0 -54 -82 -120 -82c-38 0 -62 24 -83 39c-15 10 -30 21 -51 21c-27 0 -49 -30 -59 -46c-5 -9 -16 -9 -22 -3z
M82 116l-39 33c-5 5 -7 14 -2 20c0 0 56 82 122 82c36 0 59 -21 79 -36c15 -10 34 -25 57 -25c27 0 47 31 57 47c6 8 15 8 23 2l37 -32c5 -5 6 -15 1 -21c0 0 -54 -82 -120 -82c-38 0 -62 24 -83 39c-15 10 -30 21 -51 21c-27 0 -49 -29 -59 -46c-5 -9 -16 -9 -22 -2z" />
    <glyph glyph-name="lessequal" unicode="&#x2264;" horiz-adv-x="456" 
d="M23 381c-6 3 -10 7 -10 17v12c0 8 4 13 10 16l395 188c13 6 25 0 25 -15v-72c0 -7 -3 -12 -8 -14l-250 -106l250 -102c5 -3 8 -8 8 -14v-73c0 -15 -13 -22 -25 -15zM30 47c-10 0 -19 9 -19 19v56c0 10 9 19 19 19h394c10 0 18 -9 18 -19v-56c0 -10 -8 -19 -18 -19h-394z
" />
    <glyph glyph-name="greaterequal" unicode="&#x2265;" horiz-adv-x="456" 
d="M36 203c-12 -7 -25 0 -25 15v73c0 6 3 11 8 14l250 102l-250 106c-5 2 -8 7 -8 14v72c0 15 12 21 25 15l395 -188c6 -3 10 -8 10 -16v-12c0 -10 -4 -14 -10 -17zM30 47c-10 0 -18 9 -18 19v56c0 10 8 19 18 19h394c10 0 19 -9 19 -19v-56c0 -10 -9 -19 -19 -19h-394z" />
    <glyph glyph-name="logicalnot" unicode="&#xac;" horiz-adv-x="504" 
d="M42 300c-10 0 -19 9 -19 19v56c0 10 9 19 19 19h393c11 0 19 -10 19 -19v-226c0 -10 -9 -18 -19 -18h-56c-10 0 -19 8 -19 18v151h-318z" />
    <glyph glyph-name="Delta" unicode="&#x2206;" horiz-adv-x="703" 
d="M29 43l303 658c3 6 10 10 16 10h9c6 0 13 -4 16 -10l302 -660c9 -20 5 -41 -20 -41h-600c-26 0 -39 14 -26 43zM200 119h304l-153 340h-1z" />
    <glyph glyph-name="uni0394" unicode="&#x394;" horiz-adv-x="703" 
d="M29 43l303 658c3 6 10 10 16 10h9c6 0 13 -4 16 -10l302 -660c9 -20 5 -41 -20 -41h-600c-26 0 -39 14 -26 43zM200 119h304l-153 340h-1z" />
    <glyph glyph-name="Omega" unicode="&#x2126;" horiz-adv-x="781" 
d="M33 18v88c0 9 8 18 18 18h86c-64 43 -107 143 -107 232c0 200 160 354 360 354s360 -154 360 -354c0 -89 -44 -189 -109 -232h88c10 0 18 -9 18 -18v-88c0 -10 -8 -18 -18 -18h-270c-10 0 -17 8 -17 18v54c0 26 8 29 24 38c96 47 152 145 152 239
c0 124 -104 230 -228 230c-125 0 -229 -106 -229 -230c0 -94 57 -192 152 -239c17 -9 25 -12 25 -38v-54c0 -10 -7 -18 -18 -18h-269c-10 0 -18 8 -18 18z" />
    <glyph glyph-name="uni03A9" unicode="&#x3a9;" horiz-adv-x="781" 
d="M33 18v88c0 9 8 18 18 18h86c-64 43 -107 143 -107 232c0 200 160 354 360 354s360 -154 360 -354c0 -89 -44 -189 -109 -232h88c10 0 18 -9 18 -18v-88c0 -10 -8 -18 -18 -18h-270c-10 0 -17 8 -17 18v54c0 26 8 29 24 38c96 47 152 145 152 239
c0 124 -104 230 -228 230c-125 0 -229 -106 -229 -230c0 -94 57 -192 152 -239c17 -9 25 -12 25 -38v-54c0 -10 -7 -18 -18 -18h-269c-10 0 -18 8 -18 18z" />
    <glyph glyph-name="mu" unicode="&#xb5;" horiz-adv-x="524" 
d="M181 -4v-277c0 -10 -9 -19 -19 -19h-82c-10 0 -19 9 -19 19v662c0 11 9 19 19 19h82c10 0 19 -8 19 -19v-199c2 -49 29 -78 73 -78c42 0 74 39 80 75v202c0 15 6 19 22 19h76c10 0 19 -8 19 -19v-362c0 -10 -9 -19 -19 -19h-37c-10 0 -16 7 -19 15l-12 33
c-18 -16 -55 -58 -134 -58c-18 0 -34 2 -49 6z" />
    <glyph glyph-name="uni03BC" unicode="&#x3bc;" horiz-adv-x="524" 
d="M181 -4v-277c0 -10 -9 -19 -19 -19h-82c-10 0 -19 9 -19 19v662c0 11 9 19 19 19h82c10 0 19 -8 19 -19v-199c2 -49 29 -78 73 -78c42 0 74 39 80 75v202c0 15 6 19 22 19h76c10 0 19 -8 19 -19v-362c0 -10 -9 -19 -19 -19h-37c-10 0 -16 7 -19 15l-12 33
c-18 -16 -55 -58 -134 -58c-18 0 -34 2 -49 6z" />
    <glyph glyph-name="pi" unicode="&#x3c0;" horiz-adv-x="681" 
d="M121 18v277h-77c-10 0 -18 9 -18 18v69c0 10 8 18 18 18h573c10 0 17 -7 17 -17v-70c0 -10 -7 -18 -17 -18h-83v-277c0 -10 -8 -18 -18 -18h-89c-9 0 -18 8 -18 18v277h-163v-277c0 -10 -9 -18 -18 -18h-89c-10 0 -18 8 -18 18z" />
    <glyph glyph-name="degree" unicode="&#xb0;" horiz-adv-x="310" 
d="M155 440c-75 0 -135 60 -135 135s60 135 135 135c74 0 135 -60 135 -135s-61 -135 -135 -135zM155 524c26 0 49 24 49 51c0 26 -23 49 -49 49c-27 0 -51 -23 -51 -49c0 -27 24 -51 51 -51z" />
    <glyph glyph-name="afii61289" unicode="&#x2113;" horiz-adv-x="505" 
d="M94 154c0 19 2 37 4 56c-14 -4 -33 -9 -44 -11c-9 -1 -14 2 -15 11l-5 38c-1 8 -2 17 15 20c22 4 44 8 64 15c5 29 10 56 16 85c43 218 103 342 207 342c73 0 115 -55 115 -139c0 -174 -136 -282 -281 -337c-5 -25 -9 -51 -9 -78c0 -50 20 -98 75 -98c59 0 108 20 147 44
c15 9 19 6 26 -5l14 -21c9 -13 10 -16 -2 -27c-11 -9 -88 -59 -185 -59c-102 0 -142 79 -142 164zM183 304c112 49 201 137 201 267c0 43 -18 70 -48 70c-64 0 -110 -107 -143 -284z" />
    <glyph glyph-name="estimated" unicode="&#x212e;" horiz-adv-x="823" 
d="M150 168c50 -71 144 -113 237 -113c70 0 143 30 202 81c9 9 17 13 28 2l21 -22c8 -9 5 -18 -6 -29c-70 -65 -155 -97 -245 -97c-203 0 -363 157 -363 359c0 203 160 361 363 361c202 0 362 -161 364 -364c0 -22 -7 -29 -24 -29h-577v-149zM150 380h476v150
c-54 70 -141 114 -239 114c-99 0 -183 -41 -237 -112v-152z" />
    <glyph glyph-name="eng" unicode="&#x14b;" horiz-adv-x="519" 
d="M60 19v362c0 11 9 19 19 19h38c9 0 14 -5 17 -12l14 -37c15 16 64 59 141 59c127 0 178 -95 178 -199v-319c0 -132 -80 -202 -186 -202c-53 0 -101 23 -118 39c-7 5 -8 16 -4 23l33 64c4 8 15 10 24 5c13 -8 37 -20 59 -20c45 0 72 33 72 91v319c0 52 -27 85 -75 85
c-52 0 -84 -36 -94 -63v-214c0 -14 -6 -19 -25 -19h-74c-10 0 -19 9 -19 19z" />
    <glyph glyph-name="Eng" unicode="&#x14a;" horiz-adv-x="773" 
d="M91 19v673c0 10 9 18 19 18h25l416 -442h1v413c0 10 8 19 19 19h92c10 0 19 -9 19 -19v-789c0 -132 -80 -202 -186 -202c-53 0 -101 23 -118 39c-7 5 -8 16 -4 23l33 64c4 8 15 10 24 5c13 -8 37 -20 59 -20c45 0 67 33 67 91v187l-336 370h-1v-430c0 -10 -8 -19 -19 -19
h-91c-10 0 -19 9 -19 19z" />
    <glyph glyph-name="infinity" unicode="&#x221e;" horiz-adv-x="593" 
d="M190 156c-77 0 -140 63 -140 140c0 78 63 140 140 140c42 0 81 -25 105 -55c26 30 65 55 107 55c78 0 141 -62 141 -140c0 -77 -63 -140 -141 -140c-42 0 -81 24 -107 55c-24 -31 -63 -55 -105 -55zM346 296c0 -29 23 -52 52 -52s53 23 53 52s-24 52 -53 52
s-52 -23 -52 -52zM193 244c29 0 53 23 53 52s-24 52 -53 52c-28 0 -51 -23 -51 -52s23 -52 51 -52z" />
    <glyph glyph-name="partialdiff" unicode="&#x2202;" horiz-adv-x="570" 
d="M53 219c0 143 104 217 204 217c47 0 97 -18 114 -28c-31 110 -173 177 -220 192c-19 6 -23 17 -18 29l23 59c4 13 14 18 28 14c86 -28 333 -144 333 -436c0 -150 -81 -276 -238 -276c-123 0 -226 103 -226 229zM166 221c0 -63 51 -117 114 -117c81 0 117 79 117 147
c-11 36 -50 87 -116 87c-64 0 -115 -53 -115 -117z" />
    <glyph glyph-name="integral" unicode="&#x222b;" horiz-adv-x="393" 
d="M121 -108v617c0 130 81 201 193 201c57 0 94 -25 111 -39c6 -6 9 -17 4 -24l-37 -62c-6 -8 -16 -10 -24 -5c-5 4 -33 17 -53 17c-36 0 -69 -27 -69 -89v-617c0 -130 -83 -201 -194 -201c-57 0 -94 25 -111 39c-6 6 -8 17 -4 24l38 62c5 8 15 10 24 5c4 -4 32 -17 52 -17
c36 0 70 27 70 89z" />
    <glyph glyph-name="radical" unicode="&#x221a;" horiz-adv-x="687" 
d="M232 1l-172 376c-6 12 1 23 15 23h94c7 0 14 -6 15 -10l67 -153h5l204 452c2 5 9 11 17 11h188c10 0 17 -8 17 -18v-72c0 -10 -7 -18 -17 -18h-119l-273 -591c-3 -6 -11 -11 -16 -11h-9c-5 0 -13 5 -16 11z" />
    <glyph glyph-name="summation" unicode="&#x2211;" horiz-adv-x="546" 
d="M50 18v40l278 296l-278 294v34c0 10 7 18 17 18h411c10 0 18 -8 18 -18v-88c0 -10 -8 -18 -18 -18h-216l167 -157c7 -6 18 -17 18 -36v-56c0 -17 -11 -27 -18 -34l-167 -169h216c10 0 18 -8 18 -18v-88c0 -10 -8 -18 -18 -18h-411c-10 0 -17 8 -17 18z" />
    <glyph glyph-name="product" unicode="&#x220f;" horiz-adv-x="686" 
d="M49 18v664c0 10 8 18 18 18h552c9 0 17 -8 17 -18v-664c0 -10 -8 -18 -17 -18h-98c-10 0 -17 8 -17 18v558h-322v-558c0 -10 -8 -18 -18 -18h-97c-10 0 -18 8 -18 18z" />
    <glyph glyph-name="lozenge" unicode="&#x25ca;" horiz-adv-x="703" 
d="M92 312c-14 18 -17 35 -13 55c3 12 8 21 18 35l235 299c3 6 10 10 16 10h9c6 0 13 -4 16 -10l235 -298c16 -21 22 -37 18 -58c-2 -13 -8 -23 -19 -38l-234 -297c-3 -6 -10 -10 -16 -10h-9c-6 0 -13 5 -16 10zM351 167h2l143 188l-143 190h-2l-143 -190z" />
    <glyph glyph-name="uniF8FF" unicode="&#xf8ff;" horiz-adv-x="599" 
d="M50 30v640c0 21 9 30 30 30h439c21 0 30 -9 30 -30v-640c0 -21 -9 -30 -30 -30h-439c-21 0 -30 9 -30 30zM262 314c0 -7 7 -12 14 -12h36c9 0 15 4 15 13v26c0 48 105 63 105 150c0 65 -54 111 -125 111c-87 0 -130 -61 -130 -61c-4 -6 -6 -13 0 -18l22 -22
c6 -4 11 -4 17 0c13 12 36 41 84 41c40 0 61 -25 61 -52c0 -63 -99 -72 -99 -147v-29zM245 156c0 -26 22 -48 48 -48c27 0 49 22 49 48s-22 48 -49 48c-26 0 -48 -22 -48 -48z" />
    <glyph glyph-name="zero.tf" horiz-adv-x="604" 
d="M302 -10c-160 0 -252 131 -252 350s92 350 252 350s252 -131 252 -350s-92 -350 -252 -350zM302 108c77 0 121 83 121 232c0 148 -44 232 -121 232s-121 -84 -121 -232c0 -149 44 -232 121 -232z" />
    <glyph glyph-name="one.tf" horiz-adv-x="604" 
d="M130 0c-11 0 -19 8 -19 18v71c0 11 8 19 19 19h128v390l-88 -19c-9 -2 -19 4 -20 13l-6 49c-1 8 1 14 5 18l144 121h70c10 0 18 -9 18 -19v-553h108c11 0 19 -8 19 -19v-71c0 -10 -8 -18 -19 -18h-359z" />
    <glyph glyph-name="two.tf" horiz-adv-x="604" 
d="M71 19v23c66 80 192 244 259 333c31 38 51 77 51 111c0 45 -34 91 -106 91c-48 0 -89 -34 -112 -59c-8 -8 -19 -8 -27 0l-48 48c-6 6 -8 18 -1 26c0 0 78 98 197 98c143 0 223 -91 223 -199c0 -65 -28 -106 -67 -162c-43 -61 -119 -155 -172 -222h216c10 0 19 -9 19 -19
v-69c0 -10 -9 -19 -19 -19h-394c-11 0 -19 9 -19 19z" />
    <glyph glyph-name="three.tf" horiz-adv-x="604" 
d="M75 79c-6 7 -5 18 1 25l51 49c9 8 18 8 26 0c3 -4 62 -54 123 -54c54 0 106 39 106 94c0 52 -48 99 -138 99h-56c-11 0 -19 8 -19 20v63c0 13 7 20 19 20h56c82 0 124 41 124 92c0 55 -46 92 -97 92c-52 0 -84 -28 -101 -48c-7 -8 -18 -9 -27 -1l-49 46c-8 7 -7 19 0 26
c0 0 76 88 188 88c116 0 213 -71 213 -183c0 -77 -58 -135 -103 -156v-3c47 -20 121 -74 121 -163c0 -113 -92 -195 -230 -195c-125 0 -186 63 -208 89z" />
    <glyph glyph-name="four.tf" horiz-adv-x="604" 
d="M43 145c-11 0 -19 9 -19 19v83l360 438c3 3 8 6 15 6h54c10 0 19 -8 19 -19v-426h80c11 0 19 -8 19 -18v-62c0 -10 -8 -19 -19 -19h-80l1 -128c0 -10 -9 -19 -19 -19h-83c-10 0 -19 9 -19 19v126h-309zM156 249h200v240z" />
    <glyph glyph-name="five.tf" horiz-adv-x="604" 
d="M95 73c-13 15 -14 22 -2 34l50 49c7 6 16 8 24 1c4 -4 62 -56 129 -56c68 0 116 55 116 118c0 62 -42 112 -121 112h-154c-20 0 -31 19 -31 35v295c0 10 8 19 19 19h316c11 0 19 -9 19 -19v-68c0 -10 -8 -19 -19 -19h-222v-133h86c142 0 229 -91 229 -222
c0 -125 -104 -229 -242 -229c-107 0 -172 53 -197 83z" />
    <glyph glyph-name="six.tf" horiz-adv-x="604" 
d="M74 266c0 292 247 408 333 436c14 4 24 -1 28 -14l23 -59c5 -12 1 -23 -18 -29c-47 -15 -189 -82 -220 -192c17 10 67 28 114 28c100 0 204 -74 204 -217c0 -126 -103 -229 -226 -229c-157 0 -238 126 -238 276zM194 251c0 -68 36 -147 117 -147c63 0 114 54 114 117
c0 64 -51 117 -115 117c-66 0 -105 -51 -116 -87z" />
    <glyph glyph-name="seven.tf" horiz-adv-x="604" 
d="M113 19v11l260 542h-264c-10 0 -19 9 -19 19v70c0 10 9 19 19 19h416c10 0 19 -9 19 -19v-7l-298 -627c-7 -16 -17 -27 -34 -27h-74c-12 0 -25 3 -25 19z" />
    <glyph glyph-name="eight.tf" horiz-adv-x="604" 
d="M64 182c0 87 93 153 121 167v3c-41 22 -103 77 -103 155c0 111 96 183 217 183c125 0 221 -72 221 -183c0 -76 -62 -130 -103 -154v-4c45 -23 121 -81 121 -167c0 -109 -92 -192 -239 -192c-143 0 -235 83 -235 192zM301 407c62 14 91 52 91 95c0 48 -41 85 -93 85
c-48 0 -89 -37 -89 -85c0 -45 28 -80 91 -95zM197 184c0 -55 50 -92 104 -92c55 0 104 37 104 92c0 45 -37 91 -104 106c-67 -15 -104 -61 -104 -106z" />
    <glyph glyph-name="nine.tf" horiz-adv-x="604" 
d="M145 57c-5 12 -1 23 18 29c47 15 189 82 220 192c-17 -10 -67 -28 -114 -28c-100 0 -204 74 -204 217c0 126 103 229 226 229c157 0 238 -126 238 -276c0 -292 -247 -408 -333 -436c-14 -4 -24 1 -28 14zM293 348c66 0 105 51 116 87c0 68 -36 147 -117 147
c-63 0 -114 -54 -114 -117c0 -64 51 -117 115 -117z" />
    <glyph glyph-name="zerosuperior" unicode="&#x2070;" horiz-adv-x="357" 
d="M179 494c-83 0 -127 60 -127 158c0 99 44 158 127 158c82 0 125 -59 125 -158c0 -98 -43 -158 -125 -158zM179 564c27 0 44 31 44 88s-17 88 -44 88c-28 0 -44 -31 -44 -88s16 -88 44 -88z" />
    <glyph glyph-name="foursuperior" unicode="&#x2074;" horiz-adv-x="370" 
d="M206 504c-5 0 -10 4 -10 9v48h-137c-5 0 -9 4 -9 8v51l163 177c2 2 6 3 8 3h41c5 0 9 -4 9 -9v-170h40c5 0 9 -4 9 -8v-43c0 -5 -4 -9 -9 -9h-40v-48c0 -5 -4 -9 -9 -9h-56zM123 620h74v83z" />
    <glyph glyph-name="fivesuperior" unicode="&#x2075;" horiz-adv-x="326" 
d="M152 494c-51 0 -84 24 -96 38c-5 5 -6 9 -1 15l27 33c5 7 10 7 15 2c1 -1 23 -21 57 -21c23 0 45 16 45 38s-18 37 -48 37h-74c-10 0 -15 8 -15 16v139c0 5 4 9 9 9h160c5 0 9 -4 9 -9v-44c0 -5 -4 -9 -9 -9h-103v-39h35c72 0 114 -37 114 -99c0 -61 -50 -106 -125 -106z
" />
    <glyph glyph-name="sixsuperior" unicode="&#x2076;" horiz-adv-x="334" 
d="M170 494c-76 0 -120 54 -120 124c0 131 130 185 166 196c9 3 15 -1 18 -8l13 -34c2 -6 1 -13 -9 -16c-24 -7 -88 -34 -104 -74c2 1 23 13 55 13c47 0 95 -32 95 -97c0 -57 -52 -104 -114 -104zM170 563c22 0 40 17 40 38c0 22 -18 39 -40 39s-40 -18 -45 -30
c1 -23 19 -47 45 -47z" />
    <glyph glyph-name="sevensuperior" unicode="&#x2077;" horiz-adv-x="322" 
d="M68 504c-7 0 -11 2 -11 8v6l116 218h-109c-5 0 -10 4 -10 8v47c0 5 5 9 10 9h199c5 0 9 -4 9 -9v-14l-132 -264c-4 -7 -8 -9 -15 -9h-57z" />
    <glyph glyph-name="eightsuperior" unicode="&#x2078;" horiz-adv-x="342" 
d="M170 494c-72 0 -120 37 -120 86c0 47 52 73 60 76v1c-20 8 -51 31 -51 70c0 51 50 83 111 83c63 0 113 -32 113 -83c0 -38 -32 -62 -52 -70v-1c24 -7 61 -31 61 -76c0 -49 -48 -86 -122 -86zM171 686c20 2 32 16 32 31c0 16 -14 31 -33 31c-18 0 -32 -15 -32 -31
c0 -17 12 -29 33 -31zM171 556c20 0 38 12 38 32c0 17 -14 34 -38 36c-23 -2 -39 -19 -39 -36c0 -19 19 -32 39 -32z" />
    <glyph glyph-name="ninesuperior" unicode="&#x2079;" horiz-adv-x="334" 
d="M118 488c-9 -3 -15 1 -18 8l-13 34c-2 6 -1 13 9 16c24 7 88 34 104 74c-2 -1 -23 -13 -55 -13c-47 0 -95 32 -95 97c0 57 52 104 114 104c76 0 120 -54 120 -124c0 -131 -130 -185 -166 -196zM164 662c22 0 40 18 45 30c-1 23 -19 47 -45 47c-22 0 -40 -17 -40 -38
c0 -22 18 -39 40 -39z" />
    <glyph glyph-name="zeroinferior" unicode="&#x2080;" horiz-adv-x="357" 
d="M52 -2c0 99 44 158 127 158c82 0 125 -59 125 -158c0 -98 -43 -158 -125 -158c-83 0 -127 60 -127 158zM135 -2c0 -57 16 -88 44 -88c27 0 44 31 44 88s-17 88 -44 88c-28 0 -44 -31 -44 -88z" />
    <glyph glyph-name="oneinferior" unicode="&#x2081;" horiz-adv-x="241" 
d="M52 57l-2 31c0 5 2 7 7 11l74 47h51c5 0 9 -4 9 -9v-278c0 -5 -4 -9 -9 -9h-62c-6 0 -10 4 -10 9v193l-49 -4c-5 0 -9 3 -9 9z" />
    <glyph glyph-name="twoinferior" unicode="&#x2082;" horiz-adv-x="316" 
d="M85 70l-22 31c-6 8 -8 13 3 21c6 5 42 34 94 34c63 0 106 -37 106 -92c0 -30 -14 -58 -37 -86l-54 -64h80c5 0 9 -4 9 -9v-46c0 -5 -3 -9 -9 -9h-195c-6 0 -10 3 -10 9v17l110 126c17 19 25 36 25 50c0 20 -16 35 -40 35c-18 0 -36 -11 -44 -20c-6 -4 -11 -4 -16 3z" />
    <glyph glyph-name="threeinferior" unicode="&#x2083;" horiz-adv-x="317" 
d="M91 15c0 10 6 14 15 14h29c25 0 41 13 41 31s-16 30 -38 30c-15 0 -30 -8 -39 -16c-6 -3 -9 -5 -15 3l-24 29c-5 5 -6 14 1 18c0 0 33 32 89 32c64 0 108 -32 108 -83c0 -36 -28 -60 -51 -70v-1c23 -9 60 -32 60 -76c0 -55 -53 -86 -117 -86c-57 0 -86 25 -95 33
c-6 6 -6 11 -1 18l22 29c5 7 11 6 17 2c1 0 21 -16 47 -16s42 12 42 31s-16 33 -47 33h-29c-10 0 -15 3 -15 14v31z" />
    <glyph glyph-name="fourinferior" unicode="&#x2084;" horiz-adv-x="370" 
d="M50 -34l163 177c2 2 6 3 8 3h41c5 0 9 -4 9 -9v-170h40c5 0 9 -4 9 -8v-43c0 -5 -4 -9 -9 -9h-40v-48c0 -5 -4 -9 -9 -9h-56c-5 0 -10 4 -10 9v48h-137c-5 0 -9 4 -9 8v51zM123 -34h74v83z" />
    <glyph glyph-name="fiveinferior" unicode="&#x2085;" horiz-adv-x="326" 
d="M62 -2v139c0 5 4 9 9 9h160c5 0 9 -4 9 -9v-44c0 -5 -4 -9 -9 -9h-103v-39h35c72 0 114 -37 114 -99c0 -61 -50 -106 -125 -106c-51 0 -84 24 -96 38c-5 5 -6 9 -1 15l27 33c5 7 10 7 15 2c1 -1 23 -21 57 -21c23 0 45 16 45 38s-18 37 -48 37h-74c-10 0 -15 8 -15 16z
" />
    <glyph glyph-name="sixinferior" unicode="&#x2086;" horiz-adv-x="334" 
d="M50 -36c0 131 130 185 166 196c9 3 15 -1 18 -8l13 -34c2 -6 1 -13 -9 -16c-24 -7 -88 -34 -104 -74c2 1 23 13 55 13c47 0 95 -32 95 -97c0 -57 -52 -104 -114 -104c-76 0 -120 54 -120 124zM125 -44c1 -23 19 -47 45 -47c22 0 40 17 40 38c0 22 -18 39 -40 39
s-40 -18 -45 -30z" />
    <glyph glyph-name="seveninferior" unicode="&#x2087;" horiz-adv-x="322" 
d="M64 82c-5 0 -10 4 -10 8v47c0 5 5 9 10 9h199c5 0 9 -4 9 -9v-14l-132 -264c-4 -7 -8 -9 -15 -9h-57c-7 0 -11 2 -11 8v6l116 218h-109z" />
    <glyph glyph-name="eightinferior" unicode="&#x2088;" horiz-adv-x="342" 
d="M50 -74c0 47 52 73 60 76v1c-20 8 -51 31 -51 70c0 51 50 83 111 83c63 0 113 -32 113 -83c0 -38 -32 -62 -52 -70v-1c24 -7 61 -31 61 -76c0 -49 -48 -86 -122 -86c-72 0 -120 37 -120 86zM138 63c0 -17 12 -29 33 -31c20 2 32 16 32 31c0 16 -14 31 -33 31
c-18 0 -32 -15 -32 -31zM132 -66c0 -19 19 -32 39 -32s38 12 38 32c0 17 -14 34 -38 36c-23 -2 -39 -19 -39 -36z" />
    <glyph glyph-name="nineinferior" unicode="&#x2089;" horiz-adv-x="334" 
d="M50 50c0 57 52 104 114 104c76 0 120 -54 120 -124c0 -131 -130 -185 -166 -196c-9 -3 -15 1 -18 8l-13 34c-2 6 -1 13 9 16c24 7 88 34 104 74c-2 -1 -23 -13 -55 -13c-47 0 -95 32 -95 97zM124 47c0 -22 18 -39 40 -39s40 18 45 30c-1 23 -19 47 -45 47
c-22 0 -40 -17 -40 -38z" />
    <glyph glyph-name="zero.denom" horiz-adv-x="357" 
d="M52 148c0 99 44 158 127 158c82 0 125 -59 125 -158c0 -98 -43 -158 -125 -158c-83 0 -127 60 -127 158zM179 60c27 0 44 31 44 88s-17 88 -44 88c-28 0 -44 -31 -44 -88s16 -88 44 -88z" />
    <glyph glyph-name="one.denom" horiz-adv-x="241" 
d="M110 9v193l-49 -4c-5 0 -9 3 -9 9l-2 31c0 5 2 7 7 11l74 47h51c5 0 9 -4 9 -9v-278c0 -5 -4 -9 -9 -9h-62c-6 0 -10 4 -10 9z" />
    <glyph glyph-name="two.denom" horiz-adv-x="316" 
d="M50 9v17l110 126c17 19 25 36 25 50c0 20 -16 35 -40 35c-18 0 -36 -11 -44 -20c-6 -4 -11 -4 -16 3l-22 31c-6 8 -8 13 3 21c6 5 42 34 94 34c63 0 106 -37 106 -92c0 -30 -14 -58 -37 -86l-54 -64h80c5 0 9 -4 9 -9v-46c0 -5 -3 -9 -9 -9h-195c-6 0 -10 3 -10 9z" />
    <glyph glyph-name="three.denom" horiz-adv-x="317" 
d="M55 23c-6 6 -6 11 -1 18l22 29c5 7 11 6 17 2c1 0 21 -16 47 -16s42 12 42 31s-16 33 -47 33h-29c-10 0 -15 3 -15 14v31c0 10 6 14 15 14h29c25 0 41 13 41 31s-16 30 -38 30c-15 0 -30 -8 -39 -16c-6 -3 -9 -5 -15 3l-24 29c-5 5 -6 14 1 18c0 0 33 32 89 32
c64 0 108 -32 108 -83c0 -36 -28 -60 -51 -70v-1c23 -9 60 -32 60 -76c0 -55 -53 -86 -117 -86c-57 0 -86 25 -95 33z" />
    <glyph glyph-name="four.denom" horiz-adv-x="370" 
d="M50 65v51l163 177c2 2 6 3 8 3h41c5 0 9 -4 9 -9v-170h40c5 0 9 -4 9 -8v-43c0 -5 -4 -9 -9 -9h-40v-48c0 -5 -4 -9 -9 -9h-56c-5 0 -10 4 -10 9v48h-137c-5 0 -9 4 -9 8zM123 116h74v83z" />
    <glyph glyph-name="five.denom" horiz-adv-x="326" 
d="M56 28c-5 5 -6 9 -1 15l27 33c5 7 10 7 15 2c1 -1 23 -21 57 -21c23 0 45 16 45 38s-18 37 -48 37h-74c-10 0 -15 8 -15 16v139c0 5 4 9 9 9h160c5 0 9 -4 9 -9v-44c0 -5 -4 -9 -9 -9h-103v-39h35c72 0 114 -37 114 -99c0 -61 -50 -106 -125 -106c-51 0 -84 24 -96 38z
" />
    <glyph glyph-name="six.denom" horiz-adv-x="334" 
d="M50 114c0 131 130 185 166 196c9 3 15 -1 18 -8l13 -34c2 -6 1 -13 -9 -16c-24 -7 -88 -34 -104 -74c2 1 23 13 55 13c47 0 95 -32 95 -97c0 -57 -52 -104 -114 -104c-76 0 -120 54 -120 124zM125 106c1 -23 19 -47 45 -47c22 0 40 17 40 38c0 22 -18 39 -40 39
s-40 -18 -45 -30z" />
    <glyph glyph-name="seven.denom" horiz-adv-x="322" 
d="M57 8v6l116 218h-109c-5 0 -10 4 -10 8v47c0 5 5 9 10 9h199c5 0 9 -4 9 -9v-14l-132 -264c-4 -7 -8 -9 -15 -9h-57c-7 0 -11 2 -11 8z" />
    <glyph glyph-name="eight.denom" horiz-adv-x="342" 
d="M50 76c0 47 52 73 60 76v1c-20 8 -51 31 -51 70c0 51 50 83 111 83c63 0 113 -32 113 -83c0 -38 -32 -62 -52 -70v-1c24 -7 61 -31 61 -76c0 -49 -48 -86 -122 -86c-72 0 -120 37 -120 86zM171 182c20 2 32 16 32 31c0 16 -14 31 -33 31c-18 0 -32 -15 -32 -31
c0 -17 12 -29 33 -31zM132 84c0 -19 19 -32 39 -32s38 12 38 32c0 17 -14 34 -38 36c-23 -2 -39 -19 -39 -36z" />
    <glyph glyph-name="nine.denom" horiz-adv-x="334" 
d="M87 26c-2 6 -1 13 9 16c24 7 88 34 104 74c-2 -1 -23 -13 -55 -13c-47 0 -95 32 -95 97c0 57 52 104 114 104c76 0 120 -54 120 -124c0 -131 -130 -185 -166 -196c-9 -3 -15 1 -18 8zM164 158c22 0 40 18 45 30c-1 23 -19 47 -45 47c-22 0 -40 -17 -40 -38
c0 -22 18 -39 40 -39z" />
    <glyph glyph-name="zero.num" horiz-adv-x="357" 
d="M179 394c-83 0 -127 60 -127 158c0 99 44 158 127 158c82 0 125 -59 125 -158c0 -98 -43 -158 -125 -158zM179 464c27 0 44 31 44 88s-17 88 -44 88c-28 0 -44 -31 -44 -88s16 -88 44 -88z" />
    <glyph glyph-name="one.num" horiz-adv-x="241" 
d="M120 404c-6 0 -10 4 -10 9v193l-49 -4c-5 0 -9 3 -9 9l-2 31c0 5 2 7 7 11l74 47h51c5 0 9 -4 9 -9v-278c0 -5 -4 -9 -9 -9h-62z" />
    <glyph glyph-name="two.num" horiz-adv-x="316" 
d="M60 404c-6 0 -10 3 -10 9v17l110 126c17 19 25 36 25 50c0 20 -16 35 -40 35c-18 0 -36 -11 -44 -20c-6 -4 -11 -4 -16 3l-22 31c-6 8 -8 13 3 21c6 5 42 34 94 34c63 0 106 -37 106 -92c0 -30 -14 -58 -37 -86l-54 -64h80c5 0 9 -4 9 -9v-46c0 -5 -3 -9 -9 -9h-195z" />
    <glyph glyph-name="three.num" horiz-adv-x="317" 
d="M150 394c-57 0 -86 25 -95 33c-6 6 -6 11 -1 18l22 29c5 7 11 6 17 2c1 0 21 -16 47 -16s42 12 42 31s-16 33 -47 33h-29c-10 0 -15 3 -15 14v31c0 10 6 14 15 14h29c25 0 41 13 41 31s-16 30 -38 30c-15 0 -30 -8 -39 -16c-6 -3 -9 -5 -15 3l-24 29c-5 5 -6 14 1 18
c0 0 33 32 89 32c64 0 108 -32 108 -83c0 -36 -28 -60 -51 -70v-1c23 -9 60 -32 60 -76c0 -55 -53 -86 -117 -86z" />
    <glyph glyph-name="four.num" horiz-adv-x="370" 
d="M206 404c-5 0 -10 4 -10 9v48h-137c-5 0 -9 4 -9 8v51l163 177c2 2 6 3 8 3h41c5 0 9 -4 9 -9v-170h40c5 0 9 -4 9 -8v-43c0 -5 -4 -9 -9 -9h-40v-48c0 -5 -4 -9 -9 -9h-56zM123 520h74v83z" />
    <glyph glyph-name="five.num" horiz-adv-x="326" 
d="M152 394c-51 0 -84 24 -96 38c-5 5 -6 9 -1 15l27 33c5 7 10 7 15 2c1 -1 23 -21 57 -21c23 0 45 16 45 38s-18 37 -48 37h-74c-10 0 -15 8 -15 16v139c0 5 4 9 9 9h160c5 0 9 -4 9 -9v-44c0 -5 -4 -9 -9 -9h-103v-39h35c72 0 114 -37 114 -99c0 -61 -50 -106 -125 -106z
" />
    <glyph glyph-name="six.num" horiz-adv-x="334" 
d="M170 394c-76 0 -120 54 -120 124c0 131 130 185 166 196c9 3 15 -1 18 -8l13 -34c2 -6 1 -13 -9 -16c-24 -7 -88 -34 -104 -74c2 1 23 13 55 13c47 0 95 -32 95 -97c0 -57 -52 -104 -114 -104zM170 463c22 0 40 17 40 38c0 22 -18 39 -40 39s-40 -18 -45 -30
c1 -23 19 -47 45 -47z" />
    <glyph glyph-name="seven.num" horiz-adv-x="322" 
d="M68 404c-7 0 -11 2 -11 8v6l116 218h-109c-5 0 -10 4 -10 8v47c0 5 5 9 10 9h199c5 0 9 -4 9 -9v-14l-132 -264c-4 -7 -8 -9 -15 -9h-57z" />
    <glyph glyph-name="eight.num" horiz-adv-x="342" 
d="M170 394c-72 0 -120 37 -120 86c0 47 52 73 60 76v1c-20 8 -51 31 -51 70c0 51 50 83 111 83c63 0 113 -32 113 -83c0 -38 -32 -62 -52 -70v-1c24 -7 61 -31 61 -76c0 -49 -48 -86 -122 -86zM171 586c20 2 32 16 32 31c0 16 -14 31 -33 31c-18 0 -32 -15 -32 -31
c0 -17 12 -29 33 -31zM171 456c20 0 38 12 38 32c0 17 -14 34 -38 36c-23 -2 -39 -19 -39 -36c0 -19 19 -32 39 -32z" />
    <glyph glyph-name="nine.num" horiz-adv-x="334" 
d="M118 388c-9 -3 -15 1 -18 8l-13 34c-2 6 -1 13 9 16c24 7 88 34 104 74c-2 -1 -23 -13 -55 -13c-47 0 -95 32 -95 97c0 57 52 104 114 104c76 0 120 -54 120 -124c0 -131 -130 -185 -166 -196zM164 562c22 0 40 18 45 30c-1 23 -19 47 -45 47c-22 0 -40 -17 -40 -38
c0 -22 18 -39 40 -39z" />
    <glyph glyph-name="parenright.case" horiz-adv-x="343" 
d="M29 32c-1 8 3 17 12 19c98 26 135 127 135 294c0 166 -37 269 -135 295c-7 1 -13 10 -12 18l3 66c0 9 8 16 19 15c114 -6 248 -80 248 -394s-134 -386 -248 -394c-11 0 -18 6 -19 16z" />
    <glyph glyph-name="hyphen.case" horiz-adv-x="369" 
d="M73 282c-11 0 -19 8 -19 18v67c0 11 8 19 19 19h223c11 0 19 -8 19 -19v-67c0 -10 -8 -18 -19 -18h-223z" />
    <glyph glyph-name="bracketleft.case" horiz-adv-x="349" 
d="M181 -80h130c10 0 19 -8 19 -18v-63c0 -10 -9 -19 -19 -19h-226c-10 0 -19 9 -19 19v962c0 10 9 19 19 19h226c10 0 19 -9 19 -19v-62c0 -11 -9 -19 -19 -19h-130v-800z" />
    <glyph glyph-name="bracketright.case" horiz-adv-x="349" 
d="M38 -80h130v800h-130c-10 0 -19 8 -19 19v62c0 10 9 19 19 19h226c10 0 19 -9 19 -19v-962c0 -10 -9 -19 -19 -19h-226c-10 0 -19 9 -19 19v63c0 10 9 18 19 18z" />
    <glyph glyph-name="braceleft.case" horiz-adv-x="394" 
d="M103 84v123c0 45 -45 64 -69 68c-8 1 -15 8 -15 18v49c0 10 7 15 14 17c9 2 70 26 70 69v127c0 220 145 271 248 275c11 1 19 -5 20 -17l4 -63c1 -11 -7 -17 -14 -18c-78 -17 -134 -75 -134 -177v-105c0 -86 -74 -126 -83 -130v-4c27 -11 83 -44 83 -125v-107
c0 -102 56 -159 134 -175c7 -2 15 -8 14 -19l-4 -63c-1 -10 -10 -18 -20 -17c-103 4 -248 54 -248 274z" />
    <glyph glyph-name="bar.case" horiz-adv-x="180" 
d="M65 -162v1023c0 11 9 19 19 19h13c10 0 18 -8 18 -19v-1023c0 -10 -9 -18 -19 -18h-12c-10 0 -19 8 -19 18z" />
    <glyph glyph-name="braceright.case" horiz-adv-x="394" 
d="M167 84v107c0 81 56 114 83 125v4c-9 4 -83 44 -83 130v105c0 102 -56 160 -134 177c-7 1 -15 7 -14 18l4 63c1 12 9 18 20 17c103 -4 248 -55 248 -275v-127c0 -43 61 -67 70 -69c7 -2 14 -7 14 -17v-49c0 -10 -7 -17 -15 -18c-24 -4 -69 -23 -69 -68v-123
c0 -220 -145 -270 -248 -274c-10 -1 -19 7 -20 17l-4 63c-1 11 7 17 14 19c78 16 134 73 134 175z" />
    <glyph glyph-name="guilsinglleft.case" horiz-adv-x="271" 
d="M130 159l-104 155c-6 8 -4 18 0 24l109 148c3 5 10 12 18 12h57c17 0 23 -15 15 -31l-68 -139l65 -147c7 -16 2 -30 -15 -30h-62c-7 0 -12 4 -15 8z" />
    <glyph glyph-name="guilsinglright.case" horiz-adv-x="271" 
d="M63 151c-17 0 -22 14 -15 30l65 147l-68 139c-8 16 -2 31 15 31h57c8 0 15 -7 18 -12l109 -148c4 -6 6 -16 0 -24l-104 -155c-3 -4 -8 -8 -15 -8h-62z" />
    <glyph glyph-name="guillemotleft.case" horiz-adv-x="471" 
d="M226 314c-6 8 -4 18 0 24l109 148c3 5 10 12 18 12h57c17 0 23 -15 15 -31l-68 -139l65 -147c7 -16 2 -30 -15 -30h-62c-7 0 -12 4 -15 8zM130 159l-104 155c-6 8 -4 18 0 24l109 148c3 5 10 12 18 12h57c17 0 23 -15 15 -31l-68 -139l65 -147c7 -16 2 -30 -15 -30h-62
c-7 0 -12 4 -15 8z" />
    <glyph glyph-name="guillemotright.case" horiz-adv-x="471" 
d="M248 181l65 147l-68 139c-8 16 -2 31 15 31h57c8 0 15 -7 18 -12l109 -148c4 -6 6 -16 0 -24l-104 -155c-3 -4 -8 -8 -15 -8h-62c-17 0 -22 14 -15 30zM63 151c-17 0 -22 14 -15 30l65 147l-68 139c-8 16 -2 31 15 31h57c8 0 15 -7 18 -12l109 -148c4 -6 6 -16 0 -24
l-104 -155c-3 -4 -8 -8 -15 -8h-62z" />
    <glyph glyph-name="endash.case" horiz-adv-x="539" 
d="M72 300c-11 0 -19 8 -19 18v37c0 11 8 19 19 19h395c11 0 19 -8 19 -19v-37c0 -10 -8 -18 -19 -18h-395z" />
    <glyph glyph-name="emdash.case" horiz-adv-x="759" 
d="M72 300c-11 0 -19 8 -19 18v37c0 11 8 19 19 19h615c11 0 19 -8 19 -19v-37c0 -10 -8 -18 -19 -18h-615z" />
    <glyph glyph-name="bullet.case" horiz-adv-x="389" 
d="M192 185c-69 0 -129 59 -129 129c0 73 60 133 129 133c73 0 133 -60 133 -133c0 -70 -60 -129 -133 -129z" />
    <glyph glyph-name="periodcentered.case" horiz-adv-x="258" 
d="M128 257c-48 0 -89 41 -89 89c0 51 41 92 89 92c51 0 92 -41 92 -92c0 -48 -41 -89 -92 -89z" />
    <glyph glyph-name="parenleft.case" horiz-adv-x="342" 
d="M291 -49c-114 8 -248 80 -248 394s134 388 248 394c11 1 19 -6 19 -15l3 -66c1 -8 -5 -17 -12 -18c-98 -26 -135 -129 -135 -295c0 -167 37 -268 135 -294c9 -2 13 -11 12 -19l-3 -65c-1 -10 -8 -16 -19 -16z" />
    <glyph glyph-name="brokenbar" unicode="&#xa6;" horiz-adv-x="315" 
d="M151 392c-10 0 -19 8 -19 18v331c0 11 9 19 19 19h13c10 0 18 -8 18 -19v-331c0 -10 -9 -18 -19 -18h-12zM132 49c0 11 9 19 19 19h13c10 0 18 -8 18 -19v-331c0 -10 -9 -18 -19 -18h-12c-10 0 -19 8 -19 18v331z" />
    <glyph glyph-name="a.alt" 
d="M440 381v-362c0 -10 -9 -19 -19 -19h-39c-9 0 -16 8 -19 19l-10 31s-47 -60 -131 -60c-109 0 -192 95 -192 210s83 210 193 210c65 0 114 -35 129 -55l13 33c3 8 10 12 17 12h39c10 0 19 -8 19 -19zM321 163v78c-6 21 -30 61 -81 61c-55 0 -93 -48 -93 -104
s37 -100 90 -100s77 41 84 65z" />
    <glyph glyph-name="agrave.alt" 
d="M440 381v-362c0 -10 -9 -19 -19 -19h-39c-9 0 -16 8 -19 19l-10 31s-47 -60 -131 -60c-109 0 -192 95 -192 210s83 210 193 210c65 0 114 -35 129 -55l13 33c3 8 10 12 17 12h39c10 0 19 -8 19 -19zM321 163v78c-6 21 -30 61 -81 61c-55 0 -93 -48 -93 -104
s37 -100 90 -100s77 41 84 65zM337 528l-175 77c-8 4 -13 14 -6 27l28 51c5 9 17 9 26 3l164 -97c6 -3 10 -11 6 -19l-18 -36c-4 -9 -11 -12 -25 -6z" />
    <glyph glyph-name="aacute.alt" 
d="M440 381v-362c0 -10 -9 -19 -19 -19h-39c-9 0 -16 8 -19 19l-10 31s-47 -60 -131 -60c-109 0 -192 95 -192 210s83 210 193 210c65 0 114 -35 129 -55l13 33c3 8 10 12 17 12h39c10 0 19 -8 19 -19zM321 163v78c-6 21 -30 61 -81 61c-55 0 -93 -48 -93 -104
s37 -100 90 -100s77 41 84 65zM176 528c-15 -6 -21 -3 -26 6l-17 36c-4 8 0 15 6 19l163 97c9 6 21 6 26 -3l29 -51c6 -13 2 -23 -6 -27z" />
    <glyph glyph-name="acircumflex.alt" 
d="M440 381v-362c0 -10 -9 -19 -19 -19h-39c-9 0 -16 8 -19 19l-10 31s-47 -60 -131 -60c-109 0 -192 95 -192 210s83 210 193 210c65 0 114 -35 129 -55l13 33c3 8 10 12 17 12h39c10 0 19 -8 19 -19zM321 163v78c-6 21 -30 61 -81 61c-55 0 -93 -48 -93 -104
s37 -100 90 -100s77 41 84 65zM129 529l-26 37c-5 7 0 15 6 19l130 101c6 5 14 5 21 0l130 -101c6 -4 11 -12 6 -19l-26 -37c-6 -8 -11 -10 -23 -3l-97 61l-98 -61c-12 -7 -17 -5 -23 3z" />
    <glyph glyph-name="atilde.alt" 
d="M440 381v-362c0 -10 -9 -19 -19 -19h-39c-9 0 -16 8 -19 19l-10 31s-47 -60 -131 -60c-109 0 -192 95 -192 210s83 210 193 210c65 0 114 -35 129 -55l13 33c3 8 10 12 17 12h39c10 0 19 -8 19 -19zM321 163v78c-6 21 -30 61 -81 61c-55 0 -93 -48 -93 -104
s37 -100 90 -100s77 41 84 65zM127 562l-29 21c-7 5 -9 16 -6 23c10 18 43 84 104 84c52 0 69 -55 107 -55c35 0 36 62 65 41l28 -20c9 -7 8 -19 1 -31c-11 -19 -40 -76 -97 -76c-52 0 -76 56 -109 56c-36 0 -34 -62 -64 -43z" />
    <glyph glyph-name="adieresis.alt" 
d="M440 381v-362c0 -10 -9 -19 -19 -19h-39c-9 0 -16 8 -19 19l-10 31s-47 -60 -131 -60c-109 0 -192 95 -192 210s83 210 193 210c65 0 114 -35 129 -55l13 33c3 8 10 12 17 12h39c10 0 19 -8 19 -19zM321 163v78c-6 21 -30 61 -81 61c-55 0 -93 -48 -93 -104
s37 -100 90 -100s77 41 84 65zM348 551c-35 0 -63 29 -63 64s28 63 63 63s64 -28 64 -63s-29 -64 -64 -64zM147 551c-35 0 -63 29 -63 64s28 63 63 63s64 -28 64 -63s-29 -64 -64 -64z" />
    <glyph glyph-name="amacron.alt" 
d="M440 381v-362c0 -10 -9 -19 -19 -19h-39c-9 0 -16 8 -19 19l-10 31s-47 -60 -131 -60c-109 0 -192 95 -192 210s83 210 193 210c65 0 114 -35 129 -55l13 33c3 8 10 12 17 12h39c10 0 19 -8 19 -19zM321 163v78c-6 21 -30 61 -81 61c-55 0 -93 -48 -93 -104
s37 -100 90 -100s77 41 84 65zM122 570c-11 0 -19 8 -19 18v34c0 11 8 19 19 19h256c11 0 19 -8 19 -19v-34c0 -10 -8 -18 -19 -18h-256z" />
    <glyph glyph-name="abreve.alt" 
d="M440 381v-362c0 -10 -9 -19 -19 -19h-39c-9 0 -16 8 -19 19l-10 31s-47 -60 -131 -60c-109 0 -192 95 -192 210s83 210 193 210c65 0 114 -35 129 -55l13 33c3 8 10 12 17 12h39c10 0 19 -8 19 -19zM321 163v78c-6 21 -30 61 -81 61c-55 0 -93 -48 -93 -104
s37 -100 90 -100s77 41 84 65zM249 528c-73 0 -130 51 -140 118c-2 12 5 22 18 22h37c9 0 15 -7 17 -14c10 -31 35 -53 68 -53c30 0 56 25 66 53c2 8 10 14 17 14h39c12 0 19 -10 18 -22c-11 -67 -68 -118 -140 -118z" />
    <glyph glyph-name="aring.alt" 
d="M440 381v-362c0 -10 -9 -19 -19 -19h-39c-9 0 -16 8 -19 19l-10 31s-47 -60 -131 -60c-109 0 -192 95 -192 210s83 210 193 210c65 0 114 -35 129 -55l13 33c3 8 10 12 17 12h39c10 0 19 -8 19 -19zM321 163v78c-6 21 -30 61 -81 61c-55 0 -93 -48 -93 -104
s37 -100 90 -100s77 41 84 65zM247 484c-63 0 -113 50 -113 113s50 113 113 113c62 0 113 -50 113 -113s-51 -113 -113 -113zM247 547c26 0 48 24 48 50s-22 48 -48 48s-50 -22 -50 -48s24 -50 50 -50z" />
    <glyph glyph-name="aringacute.alt" 
d="M440 381v-362c0 -10 -9 -19 -19 -19h-39c-9 0 -16 8 -19 19l-10 31s-47 -60 -131 -60c-109 0 -192 95 -192 210s83 210 193 210c65 0 114 -35 129 -55l13 33c3 8 10 12 17 12h39c10 0 19 -8 19 -19zM321 163v78c-6 21 -30 61 -81 61c-55 0 -93 -48 -93 -104
s37 -100 90 -100s77 41 84 65zM249 434c-63 0 -113 50 -113 113s50 113 113 113c62 0 113 -50 113 -113s-51 -113 -113 -113zM249 497c26 0 48 24 48 50s-22 48 -48 48s-50 -22 -50 -48s24 -50 50 -50zM178 662c-15 -6 -21 -3 -26 6l-17 36c-4 8 0 15 6 19l163 97
c9 6 21 6 26 -3l29 -51c6 -13 2 -23 -6 -27z" />
    <glyph glyph-name="aogonek.alt" 
d="M440 381v-362c0 -10 -9 -19 -19 -19h-7c-18 -18 -45 -53 -45 -96c0 -35 23 -64 66 -64c20 0 34 6 46 9c11 3 20 -5 20 -17v-30c0 -9 -7 -16 -14 -19c-4 -1 -36 -10 -66 -10c-69 0 -127 35 -127 110c0 79 66 127 71 130l-12 37s-47 -60 -131 -60c-109 0 -192 95 -192 210
s83 210 193 210c65 0 114 -35 129 -55l13 33c3 8 10 12 17 12h39c10 0 19 -8 19 -19zM321 163v78c-6 21 -30 61 -81 61c-55 0 -93 -48 -93 -104s37 -100 90 -100s77 41 84 65z" />
    </font>
</defs>
</svg>
