<?xml version="1.0" standalone="no"?>
<!DOCTYPE svg PUBLIC "-//W3C//DTD SVG 1.1//EN" "http://www.w3.org/Graphics/SVG/1.1/DTD/svg11.dtd" >
<svg xmlns="http://www.w3.org/2000/svg" width="100%" height="100%">
<metadata>
Created by FontXChange 20110222 at Fri Dec  5 12:06:32 2014
 By Timothy Brister
Copyright (c) 2010 - 2012, Matt McInerney (matt@pixelspread.com), Pablo Impallari(impallari@gmail.com), Rodrigo Fuenzalida (hello@rfuenzalida.com) and Brenda Gallo(gbrenda1987@gmail.com), with Reserved Font Name "Raleway"
</metadata>
<defs>
<font id="RalewayDots-Regular" horiz-adv-x="764" >
  <font-face 
    font-family="RalewayDots"
    font-weight="400"
    font-stretch="normal"
    units-per-em="1000"
    panose-1="2 11 0 3 3 1 1 6 0 3"
    ascent="800"
    descent="-200"
    x-height="520"
    cap-height="726"
    bbox="-221 -218 1134 940"
    underline-thickness="50"
    underline-position="-50"
    unicode-range="U+0020-FB06"
  />
<missing-glyph horiz-adv-x="0" 
 />
    <glyph glyph-name="f_f" unicode="ff" horiz-adv-x="571" 
d="M337 180q-10 0 -10 10t10 10t10 -10t-10 -10zM337 144q-10 0 -10 10t10 10t10 -10t-10 -10zM337 107q-10 0 -10 10t10 10t10 -10t-10 -10zM337 71q-10 0 -10 10t10 10t10 -10t-10 -10zM337 0q-10 0 -10 10t10 10t10 -10t-10 -10zM337 494q-10 0 -10 10t10 10t10 -10
t-10 -10zM337 452q-10 0 -10 10t10 10t10 -10t-10 -10zM337 414q-10 0 -10 10t10 10t10 -10t-10 -10zM337 334q-10 0 -10 10t10 10t10 -10t-10 -10zM337 297q-10 0 -10 10t10 10t10 -10t-10 -10zM337 257q-10 0 -10 10t10 10t10 -10t-10 -10zM337 219q-10 0 -10 10t10 10
t10 -10t-10 -10zM348 609q-10 0 -10 10t10 10t10 -10t-10 -10zM339 572q-10 0 -10 10t10 10t10 -10t-10 -10zM337 534q-10 0 -10 10t10 10t10 -10t-10 -10zM337 374q-10 0 -10 10t10 10t10 -10t-10 -10zM300 434q-10 0 -10 10t10 10t10 -10t-10 -10zM371 434q-10 0 -10 10
t10 10t10 -10t-10 -10zM337 36q-10 0 -10 10t10 10t10 -10t-10 -10zM363 646q-10 0 -10 10t10 10t10 -10t-10 -10zM387 676q-10 0 -10 10t10 10t10 -10t-10 -10zM416 699q-10 0 -10 10t10 10t10 -10t-10 -10zM451 712q-10 0 -10 10t10 10t10 -10t-10 -10zM487 717
q-10 0 -10 10t10 10t10 -10t-10 -10zM522 710q-10 0 -10 10t10 10t10 -10t-10 -10zM553 696q-10 0 -10 10t10 10t10 -10t-10 -10zM122 180q-10 0 -10 10t10 10t10 -10t-10 -10zM122 144q-10 0 -10 10t10 10t10 -10t-10 -10zM122 107q-10 0 -10 10t10 10t10 -10t-10 -10z
M122 71q-10 0 -10 10t10 10t10 -10t-10 -10zM122 0q-10 0 -10 10t10 10t10 -10t-10 -10zM122 494q-10 0 -10 10t10 10t10 -10t-10 -10zM122 452q-10 0 -10 10t10 10t10 -10t-10 -10zM122 414q-10 0 -10 10t10 10t10 -10t-10 -10zM122 334q-10 0 -10 10t10 10t10 -10t-10 -10
zM122 297q-10 0 -10 10t10 10t10 -10t-10 -10zM122 257q-10 0 -10 10t10 10t10 -10t-10 -10zM122 219q-10 0 -10 10t10 10t10 -10t-10 -10zM122 374q-10 0 -10 10t10 10t10 -10t-10 -10zM88 434q-10 0 -10 10t10 10t10 -10t-10 -10zM51 434q-10 0 -10 10t10 10t10 -10
t-10 -10zM122 36q-10 0 -10 10t10 10t10 -10t-10 -10zM264 434q-10 0 -10 10t10 10t10 -10t-10 -10zM228 434q-10 0 -10 10t10 10t10 -10t-10 -10zM192 434q-10 0 -10 10t10 10t10 -10t-10 -10zM156 434q-10 0 -10 10t10 10t10 -10t-10 -10zM407 434q-10 0 -10 10t10 10
t10 -10t-10 -10zM443 434q-10 0 -10 10t10 10t10 -10t-10 -10zM479 434q-10 0 -10 10t10 10t10 -10t-10 -10zM515 434q-10 0 -10 10t10 10t10 -10t-10 -10zM148 609q-10 0 -10 10t10 10t10 -10t-10 -10zM133 572q-10 0 -10 10t10 10t10 -10t-10 -10zM124 534q-10 0 -10 10
t10 10t10 -10t-10 -10zM170 640q-10 0 -10 10t10 10t10 -10t-10 -10zM198 662q-10 0 -10 10t10 10t10 -10t-10 -10zM231 672q-10 0 -10 10t10 10t10 -10t-10 -10zM267 674q-10 0 -10 10t10 10t10 -10t-10 -10zM302 669q-10 0 -10 10t10 10t10 -10t-10 -10zM333 659
q-10 0 -10 10t10 10t10 -10t-10 -10z" />
    <glyph glyph-name="f_f_i" unicode="ffi" horiz-adv-x="683" 
d="M337 180q-10 0 -10 10t10 10t10 -10t-10 -10zM337 144q-10 0 -10 10t10 10t10 -10t-10 -10zM337 107q-10 0 -10 10t10 10t10 -10t-10 -10zM337 71q-10 0 -10 10t10 10t10 -10t-10 -10zM337 0q-10 0 -10 10t10 10t10 -10t-10 -10zM337 494q-10 0 -10 10t10 10t10 -10
t-10 -10zM337 452q-10 0 -10 10t10 10t10 -10t-10 -10zM337 414q-10 0 -10 10t10 10t10 -10t-10 -10zM337 334q-10 0 -10 10t10 10t10 -10t-10 -10zM337 297q-10 0 -10 10t10 10t10 -10t-10 -10zM337 257q-10 0 -10 10t10 10t10 -10t-10 -10zM337 219q-10 0 -10 10t10 10
t10 -10t-10 -10zM348 609q-10 0 -10 10t10 10t10 -10t-10 -10zM339 572q-10 0 -10 10t10 10t10 -10t-10 -10zM337 534q-10 0 -10 10t10 10t10 -10t-10 -10zM337 374q-10 0 -10 10t10 10t10 -10t-10 -10zM300 434q-10 0 -10 10t10 10t10 -10t-10 -10zM371 434q-10 0 -10 10
t10 10t10 -10t-10 -10zM337 36q-10 0 -10 10t10 10t10 -10t-10 -10zM363 646q-10 0 -10 10t10 10t10 -10t-10 -10zM387 676q-10 0 -10 10t10 10t10 -10t-10 -10zM416 699q-10 0 -10 10t10 10t10 -10t-10 -10zM451 712q-10 0 -10 10t10 10t10 -10t-10 -10zM487 717
q-10 0 -10 10t10 10t10 -10t-10 -10zM522 710q-10 0 -10 10t10 10t10 -10t-10 -10zM553 696q-10 0 -10 10t10 10t10 -10t-10 -10zM122 180q-10 0 -10 10t10 10t10 -10t-10 -10zM122 144q-10 0 -10 10t10 10t10 -10t-10 -10zM122 107q-10 0 -10 10t10 10t10 -10t-10 -10z
M122 71q-10 0 -10 10t10 10t10 -10t-10 -10zM122 0q-10 0 -10 10t10 10t10 -10t-10 -10zM122 494q-10 0 -10 10t10 10t10 -10t-10 -10zM122 452q-10 0 -10 10t10 10t10 -10t-10 -10zM122 414q-10 0 -10 10t10 10t10 -10t-10 -10zM122 334q-10 0 -10 10t10 10t10 -10t-10 -10
zM122 297q-10 0 -10 10t10 10t10 -10t-10 -10zM122 257q-10 0 -10 10t10 10t10 -10t-10 -10zM122 219q-10 0 -10 10t10 10t10 -10t-10 -10zM122 374q-10 0 -10 10t10 10t10 -10t-10 -10zM88 434q-10 0 -10 10t10 10t10 -10t-10 -10zM51 434q-10 0 -10 10t10 10t10 -10
t-10 -10zM122 36q-10 0 -10 10t10 10t10 -10t-10 -10zM264 434q-10 0 -10 10t10 10t10 -10t-10 -10zM228 434q-10 0 -10 10t10 10t10 -10t-10 -10zM192 434q-10 0 -10 10t10 10t10 -10t-10 -10zM156 434q-10 0 -10 10t10 10t10 -10t-10 -10zM407 434q-10 0 -10 10t10 10
t10 -10t-10 -10zM443 434q-10 0 -10 10t10 10t10 -10t-10 -10zM479 434q-10 0 -10 10t10 10t10 -10t-10 -10zM515 434q-10 0 -10 10t10 10t10 -10t-10 -10zM148 609q-10 0 -10 10t10 10t10 -10t-10 -10zM133 572q-10 0 -10 10t10 10t10 -10t-10 -10zM124 534q-10 0 -10 10
t10 10t10 -10t-10 -10zM170 640q-10 0 -10 10t10 10t10 -10t-10 -10zM198 662q-10 0 -10 10t10 10t10 -10t-10 -10zM231 672q-10 0 -10 10t10 10t10 -10t-10 -10zM267 674q-10 0 -10 10t10 10t10 -10t-10 -10zM302 669q-10 0 -10 10t10 10t10 -10t-10 -10zM333 659
q-10 0 -10 10t10 10t10 -10t-10 -10zM551 434q-10 0 -10 10t10 10t10 -10t-10 -10zM587 434q-10 0 -10 10t10 10t10 -10t-10 -10zM587 398q-10 0 -10 10t10 10t10 -10t-10 -10zM587 362q-10 0 -10 10t10 10t10 -10t-10 -10zM587 326q-10 0 -10 10t10 10t10 -10t-10 -10z
M587 290q-10 0 -10 10t10 10t10 -10t-10 -10zM587 254q-10 0 -10 10t10 10t10 -10t-10 -10zM587 218q-10 0 -10 10t10 10t10 -10t-10 -10zM587 182q-10 0 -10 10t10 10t10 -10t-10 -10zM587 146q-10 0 -10 10t10 10t10 -10t-10 -10zM587 110q-10 0 -10 10t10 10t10 -10
t-10 -10zM587 74q-10 0 -10 10t10 10t10 -10t-10 -10zM587 38q-10 0 -10 10t10 10t10 -10t-10 -10zM587 2q-10 0 -10 10t10 10t10 -10t-10 -10z" />
    <glyph glyph-name="f_f_l" unicode="ffl" horiz-adv-x="757" 
d="M342 180q-10 0 -10 10t10 10t10 -10t-10 -10zM342 144q-10 0 -10 10t10 10t10 -10t-10 -10zM342 107q-10 0 -10 10t10 10t10 -10t-10 -10zM342 71q-10 0 -10 10t10 10t10 -10t-10 -10zM342 0q-10 0 -10 10t10 10t10 -10t-10 -10zM342 494q-10 0 -10 10t10 10t10 -10
t-10 -10zM342 452q-10 0 -10 10t10 10t10 -10t-10 -10zM342 414q-10 0 -10 10t10 10t10 -10t-10 -10zM342 334q-10 0 -10 10t10 10t10 -10t-10 -10zM342 297q-10 0 -10 10t10 10t10 -10t-10 -10zM342 257q-10 0 -10 10t10 10t10 -10t-10 -10zM342 219q-10 0 -10 10t10 10
t10 -10t-10 -10zM352 608q-10 0 -10 10t10 10t10 -10t-10 -10zM344 572q-10 0 -10 10t10 10t10 -10t-10 -10zM342 534q-10 0 -10 10t10 10t10 -10t-10 -10zM342 374q-10 0 -10 10t10 10t10 -10t-10 -10zM305 434q-10 0 -10 10t10 10t10 -10t-10 -10zM376 434q-10 0 -10 10
t10 10t10 -10t-10 -10zM342 36q-10 0 -10 10t10 10t10 -10t-10 -10zM367 643q-10 0 -10 10t10 10t10 -10t-10 -10zM388 674q-10 0 -10 10t10 10t10 -10t-10 -10zM418 698q-10 0 -10 10t10 10t10 -10t-10 -10zM453 712q-10 0 -10 10t10 10t10 -10t-10 -10zM491 717
q-10 0 -10 10t10 10t10 -10t-10 -10zM530 710q-10 0 -10 10t10 10t10 -10t-10 -10zM566 695q-10 0 -10 10t10 10t10 -10t-10 -10zM269 434q-10 0 -10 10t10 10t10 -10t-10 -10zM412 434q-10 0 -10 10t10 10t10 -10t-10 -10zM448 434q-10 0 -10 10t10 10t10 -10t-10 -10z
M484 434q-10 0 -10 10t10 10t10 -10t-10 -10zM621 434q-10 0 -10 10t10 10t10 -10t-10 -10zM621 398q-10 0 -10 10t10 10t10 -10t-10 -10zM621 362q-10 0 -10 10t10 10t10 -10t-10 -10zM621 326q-10 0 -10 10t10 10t10 -10t-10 -10zM621 290q-10 0 -10 10t10 10t10 -10
t-10 -10zM621 254q-10 0 -10 10t10 10t10 -10t-10 -10zM621 218q-10 0 -10 10t10 10t10 -10t-10 -10zM621 182q-10 0 -10 10t10 10t10 -10t-10 -10zM621 146q-10 0 -10 10t10 10t10 -10t-10 -10zM621 110q-10 0 -10 10t10 10t10 -10t-10 -10zM621 74q-10 0 -10 10t10 10
t10 -10t-10 -10zM631 38q-10 0 -10 10t10 10t10 -10t-10 -10zM656 10q-10 0 -10 10t10 10t10 -10t-10 -10zM590 674q-10 0 -10 10t10 10t10 -10t-10 -10zM692 -1q-10 0 -10 10t10 10t10 -10t-10 -10zM729 3q-10 0 -10 10t10 10t10 -10t-10 -10zM764 11q-10 0 -10 10t10 10
t10 -10t-10 -10zM621 470q-10 0 -10 10t10 10t10 -10t-10 -10zM621 506q-10 0 -10 10t10 10t10 -10t-10 -10zM621 542q-10 0 -10 10t10 10t10 -10t-10 -10zM621 578q-10 0 -10 10t10 10t10 -10t-10 -10zM621 614q-10 0 -10 10t10 10t10 -10t-10 -10zM611 649q-10 0 -10 10
t10 10t10 -10t-10 -10zM122 180q-10 0 -10 10t10 10t10 -10t-10 -10zM122 144q-10 0 -10 10t10 10t10 -10t-10 -10zM122 107q-10 0 -10 10t10 10t10 -10t-10 -10zM122 71q-10 0 -10 10t10 10t10 -10t-10 -10zM122 0q-10 0 -10 10t10 10t10 -10t-10 -10zM122 494
q-10 0 -10 10t10 10t10 -10t-10 -10zM122 452q-10 0 -10 10t10 10t10 -10t-10 -10zM122 414q-10 0 -10 10t10 10t10 -10t-10 -10zM122 334q-10 0 -10 10t10 10t10 -10t-10 -10zM122 297q-10 0 -10 10t10 10t10 -10t-10 -10zM122 257q-10 0 -10 10t10 10t10 -10t-10 -10z
M122 219q-10 0 -10 10t10 10t10 -10t-10 -10zM122 374q-10 0 -10 10t10 10t10 -10t-10 -10zM88 434q-10 0 -10 10t10 10t10 -10t-10 -10zM51 434q-10 0 -10 10t10 10t10 -10t-10 -10zM122 36q-10 0 -10 10t10 10t10 -10t-10 -10zM231 434q-10 0 -10 10t10 10t10 -10t-10 -10
zM193 434q-10 0 -10 10t10 10t10 -10t-10 -10zM156 434q-10 0 -10 10t10 10t10 -10t-10 -10zM148 609q-10 0 -10 10t10 10t10 -10t-10 -10zM133 572q-10 0 -10 10t10 10t10 -10t-10 -10zM124 534q-10 0 -10 10t10 10t10 -10t-10 -10zM170 640q-10 0 -10 10t10 10t10 -10
t-10 -10zM198 662q-10 0 -10 10t10 10t10 -10t-10 -10zM231 672q-10 0 -10 10t10 10t10 -10t-10 -10zM267 674q-10 0 -10 10t10 10t10 -10t-10 -10zM302 669q-10 0 -10 10t10 10t10 -10t-10 -10zM333 659q-10 0 -10 10t10 10t10 -10t-10 -10z" />
    <glyph glyph-name="f_i" unicode="fi" horiz-adv-x="469" 
d="M122 180q-10 0 -10 10t10 10t10 -10t-10 -10zM122 144q-10 0 -10 10t10 10t10 -10t-10 -10zM122 107q-10 0 -10 10t10 10t10 -10t-10 -10zM122 71q-10 0 -10 10t10 10t10 -10t-10 -10zM122 0q-10 0 -10 10t10 10t10 -10t-10 -10zM122 494q-10 0 -10 10t10 10t10 -10
t-10 -10zM122 452q-10 0 -10 10t10 10t10 -10t-10 -10zM122 414q-10 0 -10 10t10 10t10 -10t-10 -10zM122 334q-10 0 -10 10t10 10t10 -10t-10 -10zM122 297q-10 0 -10 10t10 10t10 -10t-10 -10zM122 257q-10 0 -10 10t10 10t10 -10t-10 -10zM122 219q-10 0 -10 10t10 10
t10 -10t-10 -10zM135 609q-10 0 -10 10t10 10t10 -10t-10 -10zM124 572q-10 0 -10 10t10 10t10 -10t-10 -10zM122 534q-10 0 -10 10t10 10t10 -10t-10 -10zM122 374q-10 0 -10 10t10 10t10 -10t-10 -10zM85 434q-10 0 -10 10t10 10t10 -10t-10 -10zM156 434q-10 0 -10 10
t10 10t10 -10t-10 -10zM122 36q-10 0 -10 10t10 10t10 -10t-10 -10zM152 646q-10 0 -10 10t10 10t10 -10t-10 -10zM176 676q-10 0 -10 10t10 10t10 -10t-10 -10zM207 699q-10 0 -10 10t10 10t10 -10t-10 -10zM243 712q-10 0 -10 10t10 10t10 -10t-10 -10zM280 716
q-10 0 -10 10t10 10t10 -10t-10 -10zM316 711q-10 0 -10 10t10 10t10 -10t-10 -10zM350 701q-10 0 -10 10t10 10t10 -10t-10 -10zM49 434q-10 0 -10 10t10 10t10 -10t-10 -10zM192 434q-10 0 -10 10t10 10t10 -10t-10 -10zM228 434q-10 0 -10 10t10 10t10 -10t-10 -10z
M264 434q-10 0 -10 10t10 10t10 -10t-10 -10zM300 434q-10 0 -10 10t10 10t10 -10t-10 -10zM336 434q-10 0 -10 10t10 10t10 -10t-10 -10zM372 434q-10 0 -10 10t10 10t10 -10t-10 -10zM372 398q-10 0 -10 10t10 10t10 -10t-10 -10zM372 362q-10 0 -10 10t10 10t10 -10
t-10 -10zM372 326q-10 0 -10 10t10 10t10 -10t-10 -10zM372 290q-10 0 -10 10t10 10t10 -10t-10 -10zM372 254q-10 0 -10 10t10 10t10 -10t-10 -10zM372 218q-10 0 -10 10t10 10t10 -10t-10 -10zM372 182q-10 0 -10 10t10 10t10 -10t-10 -10zM372 146q-10 0 -10 10t10 10
t10 -10t-10 -10zM372 110q-10 0 -10 10t10 10t10 -10t-10 -10zM372 74q-10 0 -10 10t10 10t10 -10t-10 -10zM372 38q-10 0 -10 10t10 10t10 -10t-10 -10zM372 2q-10 0 -10 10t10 10t10 -10t-10 -10zM380 684q-10 0 -10 10t10 10t10 -10t-10 -10z" />
    <glyph glyph-name="f_l" unicode="fl" horiz-adv-x="539" 
d="M122 180q-10 0 -10 10t10 10t10 -10t-10 -10zM122 144q-10 0 -10 10t10 10t10 -10t-10 -10zM122 107q-10 0 -10 10t10 10t10 -10t-10 -10zM122 71q-10 0 -10 10t10 10t10 -10t-10 -10zM122 0q-10 0 -10 10t10 10t10 -10t-10 -10zM122 494q-10 0 -10 10t10 10t10 -10
t-10 -10zM122 452q-10 0 -10 10t10 10t10 -10t-10 -10zM122 414q-10 0 -10 10t10 10t10 -10t-10 -10zM122 334q-10 0 -10 10t10 10t10 -10t-10 -10zM122 297q-10 0 -10 10t10 10t10 -10t-10 -10zM122 257q-10 0 -10 10t10 10t10 -10t-10 -10zM122 219q-10 0 -10 10t10 10
t10 -10t-10 -10zM132 608q-10 0 -10 10t10 10t10 -10t-10 -10zM124 572q-10 0 -10 10t10 10t10 -10t-10 -10zM122 534q-10 0 -10 10t10 10t10 -10t-10 -10zM122 374q-10 0 -10 10t10 10t10 -10t-10 -10zM85 434q-10 0 -10 10t10 10t10 -10t-10 -10zM156 434q-10 0 -10 10
t10 10t10 -10t-10 -10zM122 36q-10 0 -10 10t10 10t10 -10t-10 -10zM147 643q-10 0 -10 10t10 10t10 -10t-10 -10zM168 674q-10 0 -10 10t10 10t10 -10t-10 -10zM198 698q-10 0 -10 10t10 10t10 -10t-10 -10zM233 712q-10 0 -10 10t10 10t10 -10t-10 -10zM271 717
q-10 0 -10 10t10 10t10 -10t-10 -10zM310 710q-10 0 -10 10t10 10t10 -10t-10 -10zM346 695q-10 0 -10 10t10 10t10 -10t-10 -10zM49 434q-10 0 -10 10t10 10t10 -10t-10 -10zM192 434q-10 0 -10 10t10 10t10 -10t-10 -10zM228 434q-10 0 -10 10t10 10t10 -10t-10 -10z
M264 434q-10 0 -10 10t10 10t10 -10t-10 -10zM401 434q-10 0 -10 10t10 10t10 -10t-10 -10zM401 398q-10 0 -10 10t10 10t10 -10t-10 -10zM401 362q-10 0 -10 10t10 10t10 -10t-10 -10zM401 326q-10 0 -10 10t10 10t10 -10t-10 -10zM401 290q-10 0 -10 10t10 10t10 -10
t-10 -10zM401 254q-10 0 -10 10t10 10t10 -10t-10 -10zM401 218q-10 0 -10 10t10 10t10 -10t-10 -10zM401 182q-10 0 -10 10t10 10t10 -10t-10 -10zM401 146q-10 0 -10 10t10 10t10 -10t-10 -10zM401 110q-10 0 -10 10t10 10t10 -10t-10 -10zM401 74q-10 0 -10 10t10 10
t10 -10t-10 -10zM411 38q-10 0 -10 10t10 10t10 -10t-10 -10zM436 10q-10 0 -10 10t10 10t10 -10t-10 -10zM370 674q-10 0 -10 10t10 10t10 -10t-10 -10zM472 -1q-10 0 -10 10t10 10t10 -10t-10 -10zM509 3q-10 0 -10 10t10 10t10 -10t-10 -10zM544 11q-10 0 -10 10t10 10
t10 -10t-10 -10zM401 470q-10 0 -10 10t10 10t10 -10t-10 -10zM401 506q-10 0 -10 10t10 10t10 -10t-10 -10zM401 542q-10 0 -10 10t10 10t10 -10t-10 -10zM401 578q-10 0 -10 10t10 10t10 -10t-10 -10zM401 614q-10 0 -10 10t10 10t10 -10t-10 -10zM391 649q-10 0 -10 10
t10 10t10 -10t-10 -10z" />
    <glyph glyph-name=".notdef" horiz-adv-x="0" 
 />
    <glyph glyph-name="NULL" horiz-adv-x="0" 
 />
    <glyph glyph-name="nonmarkingreturn" horiz-adv-x="0" 
 />
    <glyph glyph-name="space" unicode=" " horiz-adv-x="265" 
 />
    <glyph glyph-name="AEacute" unicode="&#x1fc;" horiz-adv-x="997" 
d="M494 826q-10 0 -10 10t10 10t10 -10t-10 -10zM515 850q-10 0 -10 10t10 10t10 -10t-10 -10zM536 875q-10 0 -10 10t10 10t10 -10t-10 -10zM557 900q-10 0 -10 10t10 10t10 -10t-10 -10zM496 690q-10 0 -10 10t10 10t10 -10t-10 -10zM496 654q-10 0 -10 10t10 10t10 -10
t-10 -10zM496 618q-10 0 -10 10t10 10t10 -10t-10 -10zM496 582q-10 0 -10 10t10 10t10 -10t-10 -10zM496 546q-10 0 -10 10t10 10t10 -10t-10 -10zM496 510q-10 0 -10 10t10 10t10 -10t-10 -10zM496 474q-10 0 -10 10t10 10t10 -10t-10 -10zM496 438q-10 0 -10 10t10 10
t10 -10t-10 -10zM496 402q-10 0 -10 10t10 10t10 -10t-10 -10zM496 366q-10 0 -10 10t10 10t10 -10t-10 -10zM496 330q-10 0 -10 10t10 10t10 -10t-10 -10zM496 294q-10 0 -10 10t10 10t10 -10t-10 -10zM496 258q-10 0 -10 10t10 10t10 -10t-10 -10zM496 222q-10 0 -10 10
t10 10t10 -10t-10 -10zM496 186q-10 0 -10 10t10 10t10 -10t-10 -10zM496 150q-10 0 -10 10t10 10t10 -10t-10 -10zM496 114q-10 0 -10 10t10 10t10 -10t-10 -10zM496 78q-10 0 -10 10t10 10t10 -10t-10 -10zM496 42q-10 0 -10 10t10 10t10 -10t-10 -10zM496 6q-10 0 -10 10
t10 10t10 -10t-10 -10zM532 6q-10 0 -10 10t10 10t10 -10t-10 -10zM568 6q-10 0 -10 10t10 10t10 -10t-10 -10zM604 6q-10 0 -10 10t10 10t10 -10t-10 -10zM640 6q-10 0 -10 10t10 10t10 -10t-10 -10zM676 6q-10 0 -10 10t10 10t10 -10t-10 -10zM712 6q-10 0 -10 10t10 10
t10 -10t-10 -10zM748 6q-10 0 -10 10t10 10t10 -10t-10 -10zM784 6q-10 0 -10 10t10 10t10 -10t-10 -10zM820 6q-10 0 -10 10t10 10t10 -10t-10 -10zM856 6q-10 0 -10 10t10 10t10 -10t-10 -10zM892 6q-10 0 -10 10t10 10t10 -10t-10 -10zM928 6q-10 0 -10 10t10 10t10 -10
t-10 -10zM532 365q-10 0 -10 10t10 10t10 -10t-10 -10zM568 365q-10 0 -10 10t10 10t10 -10t-10 -10zM604 365q-10 0 -10 10t10 10t10 -10t-10 -10zM640 365q-10 0 -10 10t10 10t10 -10t-10 -10zM676 365q-10 0 -10 10t10 10t10 -10t-10 -10zM712 365q-10 0 -10 10t10 10
t10 -10t-10 -10zM748 365q-10 0 -10 10t10 10t10 -10t-10 -10zM784 365q-10 0 -10 10t10 10t10 -10t-10 -10zM820 365q-10 0 -10 10t10 10t10 -10t-10 -10zM856 365q-10 0 -10 10t10 10t10 -10t-10 -10zM532 690q-10 0 -10 10t10 10t10 -10t-10 -10zM568 690q-10 0 -10 10
t10 10t10 -10t-10 -10zM604 690q-10 0 -10 10t10 10t10 -10t-10 -10zM640 690q-10 0 -10 10t10 10t10 -10t-10 -10zM676 690q-10 0 -10 10t10 10t10 -10t-10 -10zM712 690q-10 0 -10 10t10 10t10 -10t-10 -10zM748 690q-10 0 -10 10t10 10t10 -10t-10 -10zM784 690
q-10 0 -10 10t10 10t10 -10t-10 -10zM820 690q-10 0 -10 10t10 10t10 -10t-10 -10zM856 690q-10 0 -10 10t10 10t10 -10t-10 -10zM892 690q-10 0 -10 10t10 10t10 -10t-10 -10zM928 690q-10 0 -10 10t10 10t10 -10t-10 -10zM460 258q-10 0 -10 10t10 10t10 -10t-10 -10z
M424 258q-10 0 -10 10t10 10t10 -10t-10 -10zM388 258q-10 0 -10 10t10 10t10 -10t-10 -10zM352 258q-10 0 -10 10t10 10t10 -10t-10 -10zM316 258q-10 0 -10 10t10 10t10 -10t-10 -10zM280 258q-10 0 -10 10t10 10t10 -10t-10 -10zM244 258q-10 0 -10 10t10 10t10 -10
t-10 -10zM208 258q-10 0 -10 10t10 10t10 -10t-10 -10zM228 294q-10 0 -10 10t10 10t10 -10t-10 -10zM251 329q-10 0 -10 10t10 10t10 -10t-10 -10zM275 365q-10 0 -10 10t10 10t10 -10t-10 -10zM298 401q-10 0 -10 10t10 10t10 -10t-10 -10zM321 436q-10 0 -10 10t10 10
t10 -10t-10 -10zM344 471q-10 0 -10 10t10 10t10 -10t-10 -10zM367 505q-10 0 -10 10t10 10t10 -10t-10 -10zM389 539q-10 0 -10 10t10 10t10 -10t-10 -10zM411 573q-10 0 -10 10t10 10t10 -10t-10 -10zM434 607q-10 0 -10 10t10 10t10 -10t-10 -10zM456 641q-10 0 -10 10
t10 10t10 -10t-10 -10zM186 224q-10 0 -10 10t10 10t10 -10t-10 -10zM164 190q-10 0 -10 10t10 10t10 -10t-10 -10zM142 156q-10 0 -10 10t10 10t10 -10t-10 -10zM120 122q-10 0 -10 10t10 10t10 -10t-10 -10zM98 88q-10 0 -10 10t10 10t10 -10t-10 -10zM75 54q-10 0 -10 10
t10 10t10 -10t-10 -10zM53 20q-10 0 -10 10t10 10t10 -10t-10 -10zM33 -10q-10 0 -10 10t10 10t10 -10t-10 -10z" />
    <glyph glyph-name="acute" unicode="&#xb4;" horiz-adv-x="205" 
d="M65 638q-10 0 -10 10t10 10t10 -10t-10 -10zM86 662q-10 0 -10 10t10 10t10 -10t-10 -10zM107 687q-10 0 -10 10t10 10t10 -10t-10 -10zM128 712q-10 0 -10 10t10 10t10 -10t-10 -10z" />
    <glyph glyph-name="Aacute" unicode="&#xc1;" horiz-adv-x="682" 
d="M312 626q-10 0 -10 10t10 10t10 -10t-10 -10zM298 594q-10 0 -10 10t10 10t10 -10t-10 -10zM341 690q-10 0 -10 10t10 10t10 -10t-10 -10zM256 498q-10 0 -10 10t10 10t10 -10t-10 -10zM242 466q-10 0 -10 10t10 10t10 -10t-10 -10zM284 562q-10 0 -10 10t10 10t10 -10
t-10 -10zM270 530q-10 0 -10 10t10 10t10 -10t-10 -10zM201 370q-10 0 -10 10t10 10t10 -10t-10 -10zM187 338q-10 0 -10 10t10 10t10 -10t-10 -10zM228 434q-10 0 -10 10t10 10t10 -10t-10 -10zM214 402q-10 0 -10 10t10 10t10 -10t-10 -10zM173 306q-10 0 -10 10t10 10
t10 -10t-10 -10zM159 274q-10 0 -10 10t10 10t10 -10t-10 -10zM326 658q-10 0 -10 10t10 10t10 -10t-10 -10zM132 210q-10 0 -10 10t10 10t10 -10t-10 -10zM118 178q-10 0 -10 10t10 10t10 -10t-10 -10zM76 82q-10 0 -10 10t10 10t10 -10t-10 -10zM62 50q-10 0 -10 10t10 10
t10 -10t-10 -10zM104 146q-10 0 -10 10t10 10t10 -10t-10 -10zM90 114q-10 0 -10 10t10 10t10 -10t-10 -10zM48 18q-10 0 -10 10t10 10t10 -10t-10 -10zM34 -14q-10 0 -10 10t10 10t10 -10t-10 -10zM146 242q-10 0 -10 10t10 10t10 -10t-10 -10zM181 250q-10 0 -10 10t10 10
t10 -10t-10 -10zM213 250q-10 0 -10 10t10 10t10 -10t-10 -10zM245 250q-10 0 -10 10t10 10t10 -10t-10 -10zM277 250q-10 0 -10 10t10 10t10 -10t-10 -10zM309 250q-10 0 -10 10t10 10t10 -10t-10 -10zM341 250q-10 0 -10 10t10 10t10 -10t-10 -10zM373 250q-10 0 -10 10
t10 10t10 -10t-10 -10zM405 250q-10 0 -10 10t10 10t10 -10t-10 -10zM437 250q-10 0 -10 10t10 10t10 -10t-10 -10zM469 250q-10 0 -10 10t10 10t10 -10t-10 -10zM501 250q-10 0 -10 10t10 10t10 -10t-10 -10zM371 626q-10 0 -10 10t10 10t10 -10t-10 -10zM385 594
q-10 0 -10 10t10 10t10 -10t-10 -10zM427 498q-10 0 -10 10t10 10t10 -10t-10 -10zM441 466q-10 0 -10 10t10 10t10 -10t-10 -10zM399 562q-10 0 -10 10t10 10t10 -10t-10 -10zM413 530q-10 0 -10 10t10 10t10 -10t-10 -10zM482 370q-10 0 -10 10t10 10t10 -10t-10 -10z
M496 338q-10 0 -10 10t10 10t10 -10t-10 -10zM455 434q-10 0 -10 10t10 10t10 -10t-10 -10zM469 402q-10 0 -10 10t10 10t10 -10t-10 -10zM510 306q-10 0 -10 10t10 10t10 -10t-10 -10zM524 274q-10 0 -10 10t10 10t10 -10t-10 -10zM357 658q-10 0 -10 10t10 10t10 -10
t-10 -10zM551 210q-10 0 -10 10t10 10t10 -10t-10 -10zM565 178q-10 0 -10 10t10 10t10 -10t-10 -10zM607 82q-10 0 -10 10t10 10t10 -10t-10 -10zM621 50q-10 0 -10 10t10 10t10 -10t-10 -10zM579 146q-10 0 -10 10t10 10t10 -10t-10 -10zM593 114q-10 0 -10 10t10 10
t10 -10t-10 -10zM635 18q-10 0 -10 10t10 10t10 -10t-10 -10zM649 -14q-10 0 -10 10t10 10t10 -10t-10 -10zM537 242q-10 0 -10 10t10 10t10 -10t-10 -10zM324 826q-10 0 -10 10t10 10t10 -10t-10 -10zM345 850q-10 0 -10 10t10 10t10 -10t-10 -10zM366 875q-10 0 -10 10
t10 10t10 -10t-10 -10zM387 900q-10 0 -10 10t10 10t10 -10t-10 -10z" />
    <glyph glyph-name="Abreve" unicode="&#x102;" horiz-adv-x="682" 
d="M312 626q-10 0 -10 10t10 10t10 -10t-10 -10zM298 594q-10 0 -10 10t10 10t10 -10t-10 -10zM341 690q-10 0 -10 10t10 10t10 -10t-10 -10zM256 498q-10 0 -10 10t10 10t10 -10t-10 -10zM242 466q-10 0 -10 10t10 10t10 -10t-10 -10zM284 562q-10 0 -10 10t10 10t10 -10
t-10 -10zM270 530q-10 0 -10 10t10 10t10 -10t-10 -10zM201 370q-10 0 -10 10t10 10t10 -10t-10 -10zM187 338q-10 0 -10 10t10 10t10 -10t-10 -10zM228 434q-10 0 -10 10t10 10t10 -10t-10 -10zM214 402q-10 0 -10 10t10 10t10 -10t-10 -10zM173 306q-10 0 -10 10t10 10
t10 -10t-10 -10zM159 274q-10 0 -10 10t10 10t10 -10t-10 -10zM326 658q-10 0 -10 10t10 10t10 -10t-10 -10zM132 210q-10 0 -10 10t10 10t10 -10t-10 -10zM118 178q-10 0 -10 10t10 10t10 -10t-10 -10zM76 82q-10 0 -10 10t10 10t10 -10t-10 -10zM62 50q-10 0 -10 10t10 10
t10 -10t-10 -10zM104 146q-10 0 -10 10t10 10t10 -10t-10 -10zM90 114q-10 0 -10 10t10 10t10 -10t-10 -10zM48 18q-10 0 -10 10t10 10t10 -10t-10 -10zM34 -14q-10 0 -10 10t10 10t10 -10t-10 -10zM146 242q-10 0 -10 10t10 10t10 -10t-10 -10zM181 250q-10 0 -10 10t10 10
t10 -10t-10 -10zM213 250q-10 0 -10 10t10 10t10 -10t-10 -10zM245 250q-10 0 -10 10t10 10t10 -10t-10 -10zM277 250q-10 0 -10 10t10 10t10 -10t-10 -10zM309 250q-10 0 -10 10t10 10t10 -10t-10 -10zM341 250q-10 0 -10 10t10 10t10 -10t-10 -10zM373 250q-10 0 -10 10
t10 10t10 -10t-10 -10zM405 250q-10 0 -10 10t10 10t10 -10t-10 -10zM437 250q-10 0 -10 10t10 10t10 -10t-10 -10zM469 250q-10 0 -10 10t10 10t10 -10t-10 -10zM501 250q-10 0 -10 10t10 10t10 -10t-10 -10zM371 626q-10 0 -10 10t10 10t10 -10t-10 -10zM385 594
q-10 0 -10 10t10 10t10 -10t-10 -10zM427 498q-10 0 -10 10t10 10t10 -10t-10 -10zM441 466q-10 0 -10 10t10 10t10 -10t-10 -10zM399 562q-10 0 -10 10t10 10t10 -10t-10 -10zM413 530q-10 0 -10 10t10 10t10 -10t-10 -10zM482 370q-10 0 -10 10t10 10t10 -10t-10 -10z
M496 338q-10 0 -10 10t10 10t10 -10t-10 -10zM455 434q-10 0 -10 10t10 10t10 -10t-10 -10zM469 402q-10 0 -10 10t10 10t10 -10t-10 -10zM510 306q-10 0 -10 10t10 10t10 -10t-10 -10zM524 274q-10 0 -10 10t10 10t10 -10t-10 -10zM357 658q-10 0 -10 10t10 10t10 -10
t-10 -10zM551 210q-10 0 -10 10t10 10t10 -10t-10 -10zM565 178q-10 0 -10 10t10 10t10 -10t-10 -10zM607 82q-10 0 -10 10t10 10t10 -10t-10 -10zM621 50q-10 0 -10 10t10 10t10 -10t-10 -10zM579 146q-10 0 -10 10t10 10t10 -10t-10 -10zM593 114q-10 0 -10 10t10 10
t10 -10t-10 -10zM635 18q-10 0 -10 10t10 10t10 -10t-10 -10zM649 -14q-10 0 -10 10t10 10t10 -10t-10 -10zM537 242q-10 0 -10 10t10 10t10 -10t-10 -10zM275 900q-10 0 -10 10t10 10t10 -10t-10 -10zM286 868q-10 0 -10 10t10 10t10 -10t-10 -10zM309 845q-10 0 -10 10
t10 10t10 -10t-10 -10zM343 835q-10 0 -10 10t10 10t10 -10t-10 -10zM411 900q-10 0 -10 10t10 10t10 -10t-10 -10zM400 868q-10 0 -10 10t10 10t10 -10t-10 -10zM377 845q-10 0 -10 10t10 10t10 -10t-10 -10z" />
    <glyph glyph-name="breve" unicode="&#x2d8;" horiz-adv-x="258" 
d="M62 712q-10 0 -10 10t10 10t10 -10t-10 -10zM73 680q-10 0 -10 10t10 10t10 -10t-10 -10zM96 657q-10 0 -10 10t10 10t10 -10t-10 -10zM130 647q-10 0 -10 10t10 10t10 -10t-10 -10zM198 712q-10 0 -10 10t10 10t10 -10t-10 -10zM187 680q-10 0 -10 10t10 10t10 -10
t-10 -10zM164 657q-10 0 -10 10t10 10t10 -10t-10 -10z" />
    <glyph glyph-name="Acircumflex" unicode="&#xc2;" horiz-adv-x="682" 
d="M312 626q-10 0 -10 10t10 10t10 -10t-10 -10zM298 594q-10 0 -10 10t10 10t10 -10t-10 -10zM341 690q-10 0 -10 10t10 10t10 -10t-10 -10zM256 498q-10 0 -10 10t10 10t10 -10t-10 -10zM242 466q-10 0 -10 10t10 10t10 -10t-10 -10zM284 562q-10 0 -10 10t10 10t10 -10
t-10 -10zM270 530q-10 0 -10 10t10 10t10 -10t-10 -10zM201 370q-10 0 -10 10t10 10t10 -10t-10 -10zM187 338q-10 0 -10 10t10 10t10 -10t-10 -10zM228 434q-10 0 -10 10t10 10t10 -10t-10 -10zM214 402q-10 0 -10 10t10 10t10 -10t-10 -10zM173 306q-10 0 -10 10t10 10
t10 -10t-10 -10zM159 274q-10 0 -10 10t10 10t10 -10t-10 -10zM326 658q-10 0 -10 10t10 10t10 -10t-10 -10zM132 210q-10 0 -10 10t10 10t10 -10t-10 -10zM118 178q-10 0 -10 10t10 10t10 -10t-10 -10zM76 82q-10 0 -10 10t10 10t10 -10t-10 -10zM62 50q-10 0 -10 10t10 10
t10 -10t-10 -10zM104 146q-10 0 -10 10t10 10t10 -10t-10 -10zM90 114q-10 0 -10 10t10 10t10 -10t-10 -10zM48 18q-10 0 -10 10t10 10t10 -10t-10 -10zM34 -14q-10 0 -10 10t10 10t10 -10t-10 -10zM146 242q-10 0 -10 10t10 10t10 -10t-10 -10zM181 250q-10 0 -10 10t10 10
t10 -10t-10 -10zM213 250q-10 0 -10 10t10 10t10 -10t-10 -10zM245 250q-10 0 -10 10t10 10t10 -10t-10 -10zM277 250q-10 0 -10 10t10 10t10 -10t-10 -10zM309 250q-10 0 -10 10t10 10t10 -10t-10 -10zM341 250q-10 0 -10 10t10 10t10 -10t-10 -10zM373 250q-10 0 -10 10
t10 10t10 -10t-10 -10zM405 250q-10 0 -10 10t10 10t10 -10t-10 -10zM437 250q-10 0 -10 10t10 10t10 -10t-10 -10zM469 250q-10 0 -10 10t10 10t10 -10t-10 -10zM501 250q-10 0 -10 10t10 10t10 -10t-10 -10zM371 626q-10 0 -10 10t10 10t10 -10t-10 -10zM385 594
q-10 0 -10 10t10 10t10 -10t-10 -10zM427 498q-10 0 -10 10t10 10t10 -10t-10 -10zM441 466q-10 0 -10 10t10 10t10 -10t-10 -10zM399 562q-10 0 -10 10t10 10t10 -10t-10 -10zM413 530q-10 0 -10 10t10 10t10 -10t-10 -10zM482 370q-10 0 -10 10t10 10t10 -10t-10 -10z
M496 338q-10 0 -10 10t10 10t10 -10t-10 -10zM455 434q-10 0 -10 10t10 10t10 -10t-10 -10zM469 402q-10 0 -10 10t10 10t10 -10t-10 -10zM510 306q-10 0 -10 10t10 10t10 -10t-10 -10zM524 274q-10 0 -10 10t10 10t10 -10t-10 -10zM357 658q-10 0 -10 10t10 10t10 -10
t-10 -10zM551 210q-10 0 -10 10t10 10t10 -10t-10 -10zM565 178q-10 0 -10 10t10 10t10 -10t-10 -10zM607 82q-10 0 -10 10t10 10t10 -10t-10 -10zM621 50q-10 0 -10 10t10 10t10 -10t-10 -10zM579 146q-10 0 -10 10t10 10t10 -10t-10 -10zM593 114q-10 0 -10 10t10 10
t10 -10t-10 -10zM635 18q-10 0 -10 10t10 10t10 -10t-10 -10zM649 -14q-10 0 -10 10t10 10t10 -10t-10 -10zM537 242q-10 0 -10 10t10 10t10 -10t-10 -10zM341 898q-10 0 -10 10t10 10t10 -10t-10 -10zM369 878q-10 0 -10 10t10 10t10 -10t-10 -10zM395 857q-10 0 -10 10
t10 10t10 -10t-10 -10zM421 837q-10 0 -10 10t10 10t10 -10t-10 -10zM313 878q-10 0 -10 10t10 10t10 -10t-10 -10zM287 857q-10 0 -10 10t10 10t10 -10t-10 -10zM261 837q-10 0 -10 10t10 10t10 -10t-10 -10z" />
    <glyph glyph-name="circumflex" unicode="&#x2c6;" horiz-adv-x="310" 
d="M155 710q-10 0 -10 10t10 10t10 -10t-10 -10zM183 690q-10 0 -10 10t10 10t10 -10t-10 -10zM209 669q-10 0 -10 10t10 10t10 -10t-10 -10zM235 649q-10 0 -10 10t10 10t10 -10t-10 -10zM127 690q-10 0 -10 10t10 10t10 -10t-10 -10zM101 669q-10 0 -10 10t10 10t10 -10
t-10 -10zM75 649q-10 0 -10 10t10 10t10 -10t-10 -10z" />
    <glyph glyph-name="Adieresis" unicode="&#xc4;" horiz-adv-x="682" 
d="M312 626q-10 0 -10 10t10 10t10 -10t-10 -10zM298 594q-10 0 -10 10t10 10t10 -10t-10 -10zM341 690q-10 0 -10 10t10 10t10 -10t-10 -10zM256 498q-10 0 -10 10t10 10t10 -10t-10 -10zM242 466q-10 0 -10 10t10 10t10 -10t-10 -10zM284 562q-10 0 -10 10t10 10t10 -10
t-10 -10zM270 530q-10 0 -10 10t10 10t10 -10t-10 -10zM201 370q-10 0 -10 10t10 10t10 -10t-10 -10zM187 338q-10 0 -10 10t10 10t10 -10t-10 -10zM228 434q-10 0 -10 10t10 10t10 -10t-10 -10zM214 402q-10 0 -10 10t10 10t10 -10t-10 -10zM173 306q-10 0 -10 10t10 10
t10 -10t-10 -10zM159 274q-10 0 -10 10t10 10t10 -10t-10 -10zM326 658q-10 0 -10 10t10 10t10 -10t-10 -10zM132 210q-10 0 -10 10t10 10t10 -10t-10 -10zM118 178q-10 0 -10 10t10 10t10 -10t-10 -10zM76 82q-10 0 -10 10t10 10t10 -10t-10 -10zM62 50q-10 0 -10 10t10 10
t10 -10t-10 -10zM104 146q-10 0 -10 10t10 10t10 -10t-10 -10zM90 114q-10 0 -10 10t10 10t10 -10t-10 -10zM48 18q-10 0 -10 10t10 10t10 -10t-10 -10zM34 -14q-10 0 -10 10t10 10t10 -10t-10 -10zM146 242q-10 0 -10 10t10 10t10 -10t-10 -10zM181 250q-10 0 -10 10t10 10
t10 -10t-10 -10zM213 250q-10 0 -10 10t10 10t10 -10t-10 -10zM245 250q-10 0 -10 10t10 10t10 -10t-10 -10zM277 250q-10 0 -10 10t10 10t10 -10t-10 -10zM309 250q-10 0 -10 10t10 10t10 -10t-10 -10zM341 250q-10 0 -10 10t10 10t10 -10t-10 -10zM373 250q-10 0 -10 10
t10 10t10 -10t-10 -10zM405 250q-10 0 -10 10t10 10t10 -10t-10 -10zM437 250q-10 0 -10 10t10 10t10 -10t-10 -10zM469 250q-10 0 -10 10t10 10t10 -10t-10 -10zM501 250q-10 0 -10 10t10 10t10 -10t-10 -10zM371 626q-10 0 -10 10t10 10t10 -10t-10 -10zM385 594
q-10 0 -10 10t10 10t10 -10t-10 -10zM427 498q-10 0 -10 10t10 10t10 -10t-10 -10zM441 466q-10 0 -10 10t10 10t10 -10t-10 -10zM399 562q-10 0 -10 10t10 10t10 -10t-10 -10zM413 530q-10 0 -10 10t10 10t10 -10t-10 -10zM482 370q-10 0 -10 10t10 10t10 -10t-10 -10z
M496 338q-10 0 -10 10t10 10t10 -10t-10 -10zM455 434q-10 0 -10 10t10 10t10 -10t-10 -10zM469 402q-10 0 -10 10t10 10t10 -10t-10 -10zM510 306q-10 0 -10 10t10 10t10 -10t-10 -10zM524 274q-10 0 -10 10t10 10t10 -10t-10 -10zM357 658q-10 0 -10 10t10 10t10 -10
t-10 -10zM551 210q-10 0 -10 10t10 10t10 -10t-10 -10zM565 178q-10 0 -10 10t10 10t10 -10t-10 -10zM607 82q-10 0 -10 10t10 10t10 -10t-10 -10zM621 50q-10 0 -10 10t10 10t10 -10t-10 -10zM579 146q-10 0 -10 10t10 10t10 -10t-10 -10zM593 114q-10 0 -10 10t10 10
t10 -10t-10 -10zM635 18q-10 0 -10 10t10 10t10 -10t-10 -10zM649 -14q-10 0 -10 10t10 10t10 -10t-10 -10zM537 242q-10 0 -10 10t10 10t10 -10t-10 -10zM279 834q-10 0 -10 10t10 10t10 -10t-10 -10zM279 867q-10 0 -10 10t10 10t10 -10t-10 -10zM279 900q-10 0 -10 10
t10 10t10 -10t-10 -10zM405 834q-10 0 -10 10t10 10t10 -10t-10 -10zM405 867q-10 0 -10 10t10 10t10 -10t-10 -10zM405 900q-10 0 -10 10t10 10t10 -10t-10 -10z" />
    <glyph glyph-name="dieresis" unicode="&#xa8;" horiz-adv-x="263" 
d="M69 646q-10 0 -10 10t10 10t10 -10t-10 -10zM69 679q-10 0 -10 10t10 10t10 -10t-10 -10zM69 712q-10 0 -10 10t10 10t10 -10t-10 -10zM195 646q-10 0 -10 10t10 10t10 -10t-10 -10zM195 679q-10 0 -10 10t10 10t10 -10t-10 -10zM195 712q-10 0 -10 10t10 10t10 -10
t-10 -10z" />
    <glyph glyph-name="Agrave" unicode="&#xc0;" horiz-adv-x="682" 
d="M312 626q-10 0 -10 10t10 10t10 -10t-10 -10zM298 594q-10 0 -10 10t10 10t10 -10t-10 -10zM341 690q-10 0 -10 10t10 10t10 -10t-10 -10zM256 498q-10 0 -10 10t10 10t10 -10t-10 -10zM242 466q-10 0 -10 10t10 10t10 -10t-10 -10zM284 562q-10 0 -10 10t10 10t10 -10
t-10 -10zM270 530q-10 0 -10 10t10 10t10 -10t-10 -10zM201 370q-10 0 -10 10t10 10t10 -10t-10 -10zM187 338q-10 0 -10 10t10 10t10 -10t-10 -10zM228 434q-10 0 -10 10t10 10t10 -10t-10 -10zM214 402q-10 0 -10 10t10 10t10 -10t-10 -10zM173 306q-10 0 -10 10t10 10
t10 -10t-10 -10zM159 274q-10 0 -10 10t10 10t10 -10t-10 -10zM326 658q-10 0 -10 10t10 10t10 -10t-10 -10zM132 210q-10 0 -10 10t10 10t10 -10t-10 -10zM118 178q-10 0 -10 10t10 10t10 -10t-10 -10zM76 82q-10 0 -10 10t10 10t10 -10t-10 -10zM62 50q-10 0 -10 10t10 10
t10 -10t-10 -10zM104 146q-10 0 -10 10t10 10t10 -10t-10 -10zM90 114q-10 0 -10 10t10 10t10 -10t-10 -10zM48 18q-10 0 -10 10t10 10t10 -10t-10 -10zM34 -14q-10 0 -10 10t10 10t10 -10t-10 -10zM146 242q-10 0 -10 10t10 10t10 -10t-10 -10zM181 250q-10 0 -10 10t10 10
t10 -10t-10 -10zM213 250q-10 0 -10 10t10 10t10 -10t-10 -10zM245 250q-10 0 -10 10t10 10t10 -10t-10 -10zM277 250q-10 0 -10 10t10 10t10 -10t-10 -10zM309 250q-10 0 -10 10t10 10t10 -10t-10 -10zM341 250q-10 0 -10 10t10 10t10 -10t-10 -10zM373 250q-10 0 -10 10
t10 10t10 -10t-10 -10zM405 250q-10 0 -10 10t10 10t10 -10t-10 -10zM437 250q-10 0 -10 10t10 10t10 -10t-10 -10zM469 250q-10 0 -10 10t10 10t10 -10t-10 -10zM501 250q-10 0 -10 10t10 10t10 -10t-10 -10zM371 626q-10 0 -10 10t10 10t10 -10t-10 -10zM385 594
q-10 0 -10 10t10 10t10 -10t-10 -10zM427 498q-10 0 -10 10t10 10t10 -10t-10 -10zM441 466q-10 0 -10 10t10 10t10 -10t-10 -10zM399 562q-10 0 -10 10t10 10t10 -10t-10 -10zM413 530q-10 0 -10 10t10 10t10 -10t-10 -10zM482 370q-10 0 -10 10t10 10t10 -10t-10 -10z
M496 338q-10 0 -10 10t10 10t10 -10t-10 -10zM455 434q-10 0 -10 10t10 10t10 -10t-10 -10zM469 402q-10 0 -10 10t10 10t10 -10t-10 -10zM510 306q-10 0 -10 10t10 10t10 -10t-10 -10zM524 274q-10 0 -10 10t10 10t10 -10t-10 -10zM357 658q-10 0 -10 10t10 10t10 -10
t-10 -10zM551 210q-10 0 -10 10t10 10t10 -10t-10 -10zM565 178q-10 0 -10 10t10 10t10 -10t-10 -10zM607 82q-10 0 -10 10t10 10t10 -10t-10 -10zM621 50q-10 0 -10 10t10 10t10 -10t-10 -10zM579 146q-10 0 -10 10t10 10t10 -10t-10 -10zM593 114q-10 0 -10 10t10 10
t10 -10t-10 -10zM635 18q-10 0 -10 10t10 10t10 -10t-10 -10zM649 -14q-10 0 -10 10t10 10t10 -10t-10 -10zM537 242q-10 0 -10 10t10 10t10 -10t-10 -10zM357 828q-10 0 -10 10t10 10t10 -10t-10 -10zM336 852q-10 0 -10 10t10 10t10 -10t-10 -10zM315 877q-10 0 -10 10
t10 10t10 -10t-10 -10zM294 902q-10 0 -10 10t10 10t10 -10t-10 -10z" />
    <glyph glyph-name="grave" unicode="`" horiz-adv-x="205" 
d="M140 640q-10 0 -10 10t10 10t10 -10t-10 -10zM119 664q-10 0 -10 10t10 10t10 -10t-10 -10zM98 689q-10 0 -10 10t10 10t10 -10t-10 -10zM77 714q-10 0 -10 10t10 10t10 -10t-10 -10z" />
    <glyph glyph-name="Amacron" unicode="&#x100;" horiz-adv-x="682" 
d="M312 626q-10 0 -10 10t10 10t10 -10t-10 -10zM298 594q-10 0 -10 10t10 10t10 -10t-10 -10zM341 690q-10 0 -10 10t10 10t10 -10t-10 -10zM256 498q-10 0 -10 10t10 10t10 -10t-10 -10zM242 466q-10 0 -10 10t10 10t10 -10t-10 -10zM284 562q-10 0 -10 10t10 10t10 -10
t-10 -10zM270 530q-10 0 -10 10t10 10t10 -10t-10 -10zM201 370q-10 0 -10 10t10 10t10 -10t-10 -10zM187 338q-10 0 -10 10t10 10t10 -10t-10 -10zM228 434q-10 0 -10 10t10 10t10 -10t-10 -10zM214 402q-10 0 -10 10t10 10t10 -10t-10 -10zM173 306q-10 0 -10 10t10 10
t10 -10t-10 -10zM159 274q-10 0 -10 10t10 10t10 -10t-10 -10zM326 658q-10 0 -10 10t10 10t10 -10t-10 -10zM132 210q-10 0 -10 10t10 10t10 -10t-10 -10zM118 178q-10 0 -10 10t10 10t10 -10t-10 -10zM76 82q-10 0 -10 10t10 10t10 -10t-10 -10zM62 50q-10 0 -10 10t10 10
t10 -10t-10 -10zM104 146q-10 0 -10 10t10 10t10 -10t-10 -10zM90 114q-10 0 -10 10t10 10t10 -10t-10 -10zM48 18q-10 0 -10 10t10 10t10 -10t-10 -10zM34 -14q-10 0 -10 10t10 10t10 -10t-10 -10zM146 242q-10 0 -10 10t10 10t10 -10t-10 -10zM181 250q-10 0 -10 10t10 10
t10 -10t-10 -10zM213 250q-10 0 -10 10t10 10t10 -10t-10 -10zM245 250q-10 0 -10 10t10 10t10 -10t-10 -10zM277 250q-10 0 -10 10t10 10t10 -10t-10 -10zM309 250q-10 0 -10 10t10 10t10 -10t-10 -10zM341 250q-10 0 -10 10t10 10t10 -10t-10 -10zM373 250q-10 0 -10 10
t10 10t10 -10t-10 -10zM405 250q-10 0 -10 10t10 10t10 -10t-10 -10zM437 250q-10 0 -10 10t10 10t10 -10t-10 -10zM469 250q-10 0 -10 10t10 10t10 -10t-10 -10zM501 250q-10 0 -10 10t10 10t10 -10t-10 -10zM371 626q-10 0 -10 10t10 10t10 -10t-10 -10zM385 594
q-10 0 -10 10t10 10t10 -10t-10 -10zM427 498q-10 0 -10 10t10 10t10 -10t-10 -10zM441 466q-10 0 -10 10t10 10t10 -10t-10 -10zM399 562q-10 0 -10 10t10 10t10 -10t-10 -10zM413 530q-10 0 -10 10t10 10t10 -10t-10 -10zM482 370q-10 0 -10 10t10 10t10 -10t-10 -10z
M496 338q-10 0 -10 10t10 10t10 -10t-10 -10zM455 434q-10 0 -10 10t10 10t10 -10t-10 -10zM469 402q-10 0 -10 10t10 10t10 -10t-10 -10zM510 306q-10 0 -10 10t10 10t10 -10t-10 -10zM524 274q-10 0 -10 10t10 10t10 -10t-10 -10zM357 658q-10 0 -10 10t10 10t10 -10
t-10 -10zM551 210q-10 0 -10 10t10 10t10 -10t-10 -10zM565 178q-10 0 -10 10t10 10t10 -10t-10 -10zM607 82q-10 0 -10 10t10 10t10 -10t-10 -10zM621 50q-10 0 -10 10t10 10t10 -10t-10 -10zM579 146q-10 0 -10 10t10 10t10 -10t-10 -10zM593 114q-10 0 -10 10t10 10
t10 -10t-10 -10zM635 18q-10 0 -10 10t10 10t10 -10t-10 -10zM649 -14q-10 0 -10 10t10 10t10 -10t-10 -10zM537 242q-10 0 -10 10t10 10t10 -10t-10 -10zM212 872q-10 0 -10 10t10 10t10 -10t-10 -10zM249 872q-10 0 -10 10t10 10t10 -10t-10 -10zM286 872q-10 0 -10 10
t10 10t10 -10t-10 -10zM323 872q-10 0 -10 10t10 10t10 -10t-10 -10zM360 872q-10 0 -10 10t10 10t10 -10t-10 -10zM397 872q-10 0 -10 10t10 10t10 -10t-10 -10zM434 872q-10 0 -10 10t10 10t10 -10t-10 -10zM471 872q-10 0 -10 10t10 10t10 -10t-10 -10z" />
    <glyph glyph-name="macron" unicode="&#xaf;" horiz-adv-x="385" 
d="M63 684q-10 0 -10 10t10 10t10 -10t-10 -10zM100 684q-10 0 -10 10t10 10t10 -10t-10 -10zM137 684q-10 0 -10 10t10 10t10 -10t-10 -10zM174 684q-10 0 -10 10t10 10t10 -10t-10 -10zM211 684q-10 0 -10 10t10 10t10 -10t-10 -10zM248 684q-10 0 -10 10t10 10t10 -10
t-10 -10zM285 684q-10 0 -10 10t10 10t10 -10t-10 -10zM322 684q-10 0 -10 10t10 10t10 -10t-10 -10z" />
    <glyph glyph-name="Aogonek" unicode="&#x104;" horiz-adv-x="682" 
d="M624 -33q-10 0 -10 10t10 10t10 -10t-10 -10zM600 -54q-10 0 -10 10t10 10t10 -10t-10 -10zM580 -80q-10 0 -10 10t10 10t10 -10t-10 -10zM571 -113q-10 0 -10 10t10 10t10 -10t-10 -10zM581 -146q-10 0 -10 10t10 10t10 -10t-10 -10zM609 -164q-10 0 -10 10t10 10
t10 -10t-10 -10zM312 626q-10 0 -10 10t10 10t10 -10t-10 -10zM298 594q-10 0 -10 10t10 10t10 -10t-10 -10zM341 690q-10 0 -10 10t10 10t10 -10t-10 -10zM256 498q-10 0 -10 10t10 10t10 -10t-10 -10zM242 466q-10 0 -10 10t10 10t10 -10t-10 -10zM284 562q-10 0 -10 10
t10 10t10 -10t-10 -10zM270 530q-10 0 -10 10t10 10t10 -10t-10 -10zM201 370q-10 0 -10 10t10 10t10 -10t-10 -10zM187 338q-10 0 -10 10t10 10t10 -10t-10 -10zM228 434q-10 0 -10 10t10 10t10 -10t-10 -10zM214 402q-10 0 -10 10t10 10t10 -10t-10 -10zM173 306
q-10 0 -10 10t10 10t10 -10t-10 -10zM159 274q-10 0 -10 10t10 10t10 -10t-10 -10zM326 658q-10 0 -10 10t10 10t10 -10t-10 -10zM132 210q-10 0 -10 10t10 10t10 -10t-10 -10zM118 178q-10 0 -10 10t10 10t10 -10t-10 -10zM76 82q-10 0 -10 10t10 10t10 -10t-10 -10zM62 50
q-10 0 -10 10t10 10t10 -10t-10 -10zM104 146q-10 0 -10 10t10 10t10 -10t-10 -10zM90 114q-10 0 -10 10t10 10t10 -10t-10 -10zM48 18q-10 0 -10 10t10 10t10 -10t-10 -10zM34 -14q-10 0 -10 10t10 10t10 -10t-10 -10zM146 242q-10 0 -10 10t10 10t10 -10t-10 -10zM181 250
q-10 0 -10 10t10 10t10 -10t-10 -10zM213 250q-10 0 -10 10t10 10t10 -10t-10 -10zM245 250q-10 0 -10 10t10 10t10 -10t-10 -10zM277 250q-10 0 -10 10t10 10t10 -10t-10 -10zM309 250q-10 0 -10 10t10 10t10 -10t-10 -10zM341 250q-10 0 -10 10t10 10t10 -10t-10 -10z
M373 250q-10 0 -10 10t10 10t10 -10t-10 -10zM405 250q-10 0 -10 10t10 10t10 -10t-10 -10zM437 250q-10 0 -10 10t10 10t10 -10t-10 -10zM469 250q-10 0 -10 10t10 10t10 -10t-10 -10zM501 250q-10 0 -10 10t10 10t10 -10t-10 -10zM371 626q-10 0 -10 10t10 10t10 -10
t-10 -10zM385 594q-10 0 -10 10t10 10t10 -10t-10 -10zM427 498q-10 0 -10 10t10 10t10 -10t-10 -10zM441 466q-10 0 -10 10t10 10t10 -10t-10 -10zM399 562q-10 0 -10 10t10 10t10 -10t-10 -10zM413 530q-10 0 -10 10t10 10t10 -10t-10 -10zM482 370q-10 0 -10 10t10 10
t10 -10t-10 -10zM496 338q-10 0 -10 10t10 10t10 -10t-10 -10zM455 434q-10 0 -10 10t10 10t10 -10t-10 -10zM469 402q-10 0 -10 10t10 10t10 -10t-10 -10zM510 306q-10 0 -10 10t10 10t10 -10t-10 -10zM524 274q-10 0 -10 10t10 10t10 -10t-10 -10zM357 658q-10 0 -10 10
t10 10t10 -10t-10 -10zM551 210q-10 0 -10 10t10 10t10 -10t-10 -10zM565 178q-10 0 -10 10t10 10t10 -10t-10 -10zM607 82q-10 0 -10 10t10 10t10 -10t-10 -10zM621 50q-10 0 -10 10t10 10t10 -10t-10 -10zM579 146q-10 0 -10 10t10 10t10 -10t-10 -10zM593 114
q-10 0 -10 10t10 10t10 -10t-10 -10zM635 18q-10 0 -10 10t10 10t10 -10t-10 -10zM649 -14q-10 0 -10 10t10 10t10 -10t-10 -10zM537 242q-10 0 -10 10t10 10t10 -10t-10 -10z" />
    <glyph glyph-name="ogonek" unicode="&#x2db;" horiz-adv-x="214" 
d="M142 -8q-10 0 -10 10t10 10t10 -10t-10 -10zM117 -27q-10 0 -10 10t10 10t10 -10t-10 -10zM93 -48q-10 0 -10 10t10 10t10 -10t-10 -10zM73 -74q-10 0 -10 10t10 10t10 -10t-10 -10zM64 -107q-10 0 -10 10t10 10t10 -10t-10 -10zM74 -140q-10 0 -10 10t10 10t10 -10
t-10 -10zM102 -158q-10 0 -10 10t10 10t10 -10t-10 -10z" />
    <glyph glyph-name="Aring" unicode="&#xc5;" horiz-adv-x="682" 
d="M312 626q-10 0 -10 10t10 10t10 -10t-10 -10zM298 594q-10 0 -10 10t10 10t10 -10t-10 -10zM341 690q-10 0 -10 10t10 10t10 -10t-10 -10zM256 498q-10 0 -10 10t10 10t10 -10t-10 -10zM242 466q-10 0 -10 10t10 10t10 -10t-10 -10zM284 562q-10 0 -10 10t10 10t10 -10
t-10 -10zM270 530q-10 0 -10 10t10 10t10 -10t-10 -10zM201 370q-10 0 -10 10t10 10t10 -10t-10 -10zM187 338q-10 0 -10 10t10 10t10 -10t-10 -10zM228 434q-10 0 -10 10t10 10t10 -10t-10 -10zM214 402q-10 0 -10 10t10 10t10 -10t-10 -10zM173 306q-10 0 -10 10t10 10
t10 -10t-10 -10zM159 274q-10 0 -10 10t10 10t10 -10t-10 -10zM326 658q-10 0 -10 10t10 10t10 -10t-10 -10zM132 210q-10 0 -10 10t10 10t10 -10t-10 -10zM118 178q-10 0 -10 10t10 10t10 -10t-10 -10zM76 82q-10 0 -10 10t10 10t10 -10t-10 -10zM62 50q-10 0 -10 10t10 10
t10 -10t-10 -10zM104 146q-10 0 -10 10t10 10t10 -10t-10 -10zM90 114q-10 0 -10 10t10 10t10 -10t-10 -10zM48 18q-10 0 -10 10t10 10t10 -10t-10 -10zM34 -14q-10 0 -10 10t10 10t10 -10t-10 -10zM146 242q-10 0 -10 10t10 10t10 -10t-10 -10zM181 250q-10 0 -10 10t10 10
t10 -10t-10 -10zM213 250q-10 0 -10 10t10 10t10 -10t-10 -10zM245 250q-10 0 -10 10t10 10t10 -10t-10 -10zM277 250q-10 0 -10 10t10 10t10 -10t-10 -10zM309 250q-10 0 -10 10t10 10t10 -10t-10 -10zM341 250q-10 0 -10 10t10 10t10 -10t-10 -10zM373 250q-10 0 -10 10
t10 10t10 -10t-10 -10zM405 250q-10 0 -10 10t10 10t10 -10t-10 -10zM437 250q-10 0 -10 10t10 10t10 -10t-10 -10zM469 250q-10 0 -10 10t10 10t10 -10t-10 -10zM501 250q-10 0 -10 10t10 10t10 -10t-10 -10zM371 626q-10 0 -10 10t10 10t10 -10t-10 -10zM385 594
q-10 0 -10 10t10 10t10 -10t-10 -10zM427 498q-10 0 -10 10t10 10t10 -10t-10 -10zM441 466q-10 0 -10 10t10 10t10 -10t-10 -10zM399 562q-10 0 -10 10t10 10t10 -10t-10 -10zM413 530q-10 0 -10 10t10 10t10 -10t-10 -10zM482 370q-10 0 -10 10t10 10t10 -10t-10 -10z
M496 338q-10 0 -10 10t10 10t10 -10t-10 -10zM455 434q-10 0 -10 10t10 10t10 -10t-10 -10zM469 402q-10 0 -10 10t10 10t10 -10t-10 -10zM510 306q-10 0 -10 10t10 10t10 -10t-10 -10zM524 274q-10 0 -10 10t10 10t10 -10t-10 -10zM357 658q-10 0 -10 10t10 10t10 -10
t-10 -10zM551 210q-10 0 -10 10t10 10t10 -10t-10 -10zM565 178q-10 0 -10 10t10 10t10 -10t-10 -10zM607 82q-10 0 -10 10t10 10t10 -10t-10 -10zM621 50q-10 0 -10 10t10 10t10 -10t-10 -10zM579 146q-10 0 -10 10t10 10t10 -10t-10 -10zM593 114q-10 0 -10 10t10 10
t10 -10t-10 -10zM635 18q-10 0 -10 10t10 10t10 -10t-10 -10zM649 -14q-10 0 -10 10t10 10t10 -10t-10 -10zM537 242q-10 0 -10 10t10 10t10 -10t-10 -10zM341 898q-10 0 -10 10t10 10t10 -10t-10 -10zM393 849q-10 0 -10 10t10 10t10 -10t-10 -10zM290 849q-10 0 -10 10
t10 10t10 -10t-10 -10zM341 799q-10 0 -10 10t10 10t10 -10t-10 -10zM378 814q-10 0 -10 10t10 10t10 -10t-10 -10zM378 883q-10 0 -10 10t10 10t10 -10t-10 -10zM306 814q-10 0 -10 10t10 10t10 -10t-10 -10zM305 883q-10 0 -10 10t10 10t10 -10t-10 -10z" />
    <glyph glyph-name="ring" unicode="&#x2da;" horiz-adv-x="241" 
d="M120 710q-10 0 -10 10t10 10t10 -10t-10 -10zM172 661q-10 0 -10 10t10 10t10 -10t-10 -10zM69 661q-10 0 -10 10t10 10t10 -10t-10 -10zM120 611q-10 0 -10 10t10 10t10 -10t-10 -10zM157 626q-10 0 -10 10t10 10t10 -10t-10 -10zM157 695q-10 0 -10 10t10 10t10 -10
t-10 -10zM85 626q-10 0 -10 10t10 10t10 -10t-10 -10zM84 695q-10 0 -10 10t10 10t10 -10t-10 -10z" />
    <glyph glyph-name="Aringacute" unicode="&#x1fa;" horiz-adv-x="682" 
d="M341 790q-10 0 -10 10t10 10t10 -10t-10 -10zM393 741q-10 0 -10 10t10 10t10 -10t-10 -10zM290 741q-10 0 -10 10t10 10t10 -10t-10 -10zM378 706q-10 0 -10 10t10 10t10 -10t-10 -10zM378 775q-10 0 -10 10t10 10t10 -10t-10 -10zM306 706q-10 0 -10 10t10 10t10 -10
t-10 -10zM305 775q-10 0 -10 10t10 10t10 -10t-10 -10zM312 626q-10 0 -10 10t10 10t10 -10t-10 -10zM298 594q-10 0 -10 10t10 10t10 -10t-10 -10zM341 690q-10 0 -10 10t10 10t10 -10t-10 -10zM256 498q-10 0 -10 10t10 10t10 -10t-10 -10zM242 466q-10 0 -10 10t10 10
t10 -10t-10 -10zM284 562q-10 0 -10 10t10 10t10 -10t-10 -10zM270 530q-10 0 -10 10t10 10t10 -10t-10 -10zM201 370q-10 0 -10 10t10 10t10 -10t-10 -10zM187 338q-10 0 -10 10t10 10t10 -10t-10 -10zM228 434q-10 0 -10 10t10 10t10 -10t-10 -10zM214 402q-10 0 -10 10
t10 10t10 -10t-10 -10zM173 306q-10 0 -10 10t10 10t10 -10t-10 -10zM159 274q-10 0 -10 10t10 10t10 -10t-10 -10zM326 658q-10 0 -10 10t10 10t10 -10t-10 -10zM132 210q-10 0 -10 10t10 10t10 -10t-10 -10zM118 178q-10 0 -10 10t10 10t10 -10t-10 -10zM76 82
q-10 0 -10 10t10 10t10 -10t-10 -10zM62 50q-10 0 -10 10t10 10t10 -10t-10 -10zM104 146q-10 0 -10 10t10 10t10 -10t-10 -10zM90 114q-10 0 -10 10t10 10t10 -10t-10 -10zM48 18q-10 0 -10 10t10 10t10 -10t-10 -10zM34 -14q-10 0 -10 10t10 10t10 -10t-10 -10zM146 242
q-10 0 -10 10t10 10t10 -10t-10 -10zM181 250q-10 0 -10 10t10 10t10 -10t-10 -10zM213 250q-10 0 -10 10t10 10t10 -10t-10 -10zM245 250q-10 0 -10 10t10 10t10 -10t-10 -10zM277 250q-10 0 -10 10t10 10t10 -10t-10 -10zM309 250q-10 0 -10 10t10 10t10 -10t-10 -10z
M341 250q-10 0 -10 10t10 10t10 -10t-10 -10zM373 250q-10 0 -10 10t10 10t10 -10t-10 -10zM405 250q-10 0 -10 10t10 10t10 -10t-10 -10zM437 250q-10 0 -10 10t10 10t10 -10t-10 -10zM469 250q-10 0 -10 10t10 10t10 -10t-10 -10zM501 250q-10 0 -10 10t10 10t10 -10
t-10 -10zM371 626q-10 0 -10 10t10 10t10 -10t-10 -10zM385 594q-10 0 -10 10t10 10t10 -10t-10 -10zM427 498q-10 0 -10 10t10 10t10 -10t-10 -10zM441 466q-10 0 -10 10t10 10t10 -10t-10 -10zM399 562q-10 0 -10 10t10 10t10 -10t-10 -10zM413 530q-10 0 -10 10t10 10
t10 -10t-10 -10zM482 370q-10 0 -10 10t10 10t10 -10t-10 -10zM496 338q-10 0 -10 10t10 10t10 -10t-10 -10zM455 434q-10 0 -10 10t10 10t10 -10t-10 -10zM469 402q-10 0 -10 10t10 10t10 -10t-10 -10zM510 306q-10 0 -10 10t10 10t10 -10t-10 -10zM524 274q-10 0 -10 10
t10 10t10 -10t-10 -10zM357 658q-10 0 -10 10t10 10t10 -10t-10 -10zM551 210q-10 0 -10 10t10 10t10 -10t-10 -10zM565 178q-10 0 -10 10t10 10t10 -10t-10 -10zM607 82q-10 0 -10 10t10 10t10 -10t-10 -10zM621 50q-10 0 -10 10t10 10t10 -10t-10 -10zM579 146
q-10 0 -10 10t10 10t10 -10t-10 -10zM593 114q-10 0 -10 10t10 10t10 -10t-10 -10zM635 18q-10 0 -10 10t10 10t10 -10t-10 -10zM649 -14q-10 0 -10 10t10 10t10 -10t-10 -10zM537 242q-10 0 -10 10t10 10t10 -10t-10 -10zM326 827q-10 0 -10 10t10 10t10 -10t-10 -10z
M347 851q-10 0 -10 10t10 10t10 -10t-10 -10zM368 876q-10 0 -10 10t10 10t10 -10t-10 -10zM389 901q-10 0 -10 9q0 10 10 10t10 -10q0 -9 -10 -9z" />
    <glyph glyph-name="Atilde" unicode="&#xc3;" horiz-adv-x="682" 
d="M312 626q-10 0 -10 10t10 10t10 -10t-10 -10zM298 594q-10 0 -10 10t10 10t10 -10t-10 -10zM341 690q-10 0 -10 10t10 10t10 -10t-10 -10zM256 498q-10 0 -10 10t10 10t10 -10t-10 -10zM242 466q-10 0 -10 10t10 10t10 -10t-10 -10zM284 562q-10 0 -10 10t10 10t10 -10
t-10 -10zM270 530q-10 0 -10 10t10 10t10 -10t-10 -10zM201 370q-10 0 -10 10t10 10t10 -10t-10 -10zM187 338q-10 0 -10 10t10 10t10 -10t-10 -10zM228 434q-10 0 -10 10t10 10t10 -10t-10 -10zM214 402q-10 0 -10 10t10 10t10 -10t-10 -10zM173 306q-10 0 -10 10t10 10
t10 -10t-10 -10zM159 274q-10 0 -10 10t10 10t10 -10t-10 -10zM326 658q-10 0 -10 10t10 10t10 -10t-10 -10zM132 210q-10 0 -10 10t10 10t10 -10t-10 -10zM118 178q-10 0 -10 10t10 10t10 -10t-10 -10zM76 82q-10 0 -10 10t10 10t10 -10t-10 -10zM62 50q-10 0 -10 10t10 10
t10 -10t-10 -10zM104 146q-10 0 -10 10t10 10t10 -10t-10 -10zM90 114q-10 0 -10 10t10 10t10 -10t-10 -10zM48 18q-10 0 -10 10t10 10t10 -10t-10 -10zM34 -14q-10 0 -10 10t10 10t10 -10t-10 -10zM146 242q-10 0 -10 10t10 10t10 -10t-10 -10zM181 250q-10 0 -10 10t10 10
t10 -10t-10 -10zM213 250q-10 0 -10 10t10 10t10 -10t-10 -10zM245 250q-10 0 -10 10t10 10t10 -10t-10 -10zM277 250q-10 0 -10 10t10 10t10 -10t-10 -10zM309 250q-10 0 -10 10t10 10t10 -10t-10 -10zM341 250q-10 0 -10 10t10 10t10 -10t-10 -10zM373 250q-10 0 -10 10
t10 10t10 -10t-10 -10zM405 250q-10 0 -10 10t10 10t10 -10t-10 -10zM437 250q-10 0 -10 10t10 10t10 -10t-10 -10zM469 250q-10 0 -10 10t10 10t10 -10t-10 -10zM501 250q-10 0 -10 10t10 10t10 -10t-10 -10zM371 626q-10 0 -10 10t10 10t10 -10t-10 -10zM385 594
q-10 0 -10 10t10 10t10 -10t-10 -10zM427 498q-10 0 -10 10t10 10t10 -10t-10 -10zM441 466q-10 0 -10 10t10 10t10 -10t-10 -10zM399 562q-10 0 -10 10t10 10t10 -10t-10 -10zM413 530q-10 0 -10 10t10 10t10 -10t-10 -10zM482 370q-10 0 -10 10t10 10t10 -10t-10 -10z
M496 338q-10 0 -10 10t10 10t10 -10t-10 -10zM455 434q-10 0 -10 10t10 10t10 -10t-10 -10zM469 402q-10 0 -10 10t10 10t10 -10t-10 -10zM510 306q-10 0 -10 10t10 10t10 -10t-10 -10zM524 274q-10 0 -10 10t10 10t10 -10t-10 -10zM357 658q-10 0 -10 10t10 10t10 -10
t-10 -10zM551 210q-10 0 -10 10t10 10t10 -10t-10 -10zM565 178q-10 0 -10 10t10 10t10 -10t-10 -10zM607 82q-10 0 -10 10t10 10t10 -10t-10 -10zM621 50q-10 0 -10 10t10 10t10 -10t-10 -10zM579 146q-10 0 -10 10t10 10t10 -10t-10 -10zM593 114q-10 0 -10 10t10 10
t10 -10t-10 -10zM635 18q-10 0 -10 10t10 10t10 -10t-10 -10zM649 -14q-10 0 -10 10t10 10t10 -10t-10 -10zM537 242q-10 0 -10 10t10 10t10 -10t-10 -10zM214 831q-10 0 -10 10t10 10t10 -10t-10 -10zM228 863q-10 0 -10 10t10 10t10 -10t-10 -10zM255 884q-10 0 -10 10
t10 10t10 -10t-10 -10zM290 884q-10 0 -10 10t10 10t10 -10t-10 -10zM324 873q-10 0 -10 10t10 10t10 -10t-10 -10zM357 857q-10 0 -10 10t10 10t10 -10t-10 -10zM392 847q-10 0 -10 10t10 10t10 -10t-10 -10zM428 850q-10 0 -10 10t10 10t10 -10t-10 -10zM458 868
q-10 0 -10 10t10 10t10 -10t-10 -10zM474 900q-10 0 -10 10t10 10t10 -10t-10 -10z" />
    <glyph glyph-name="tilde" unicode="&#x2dc;" horiz-adv-x="390" 
d="M65 643q-10 0 -10 10t10 10t10 -10t-10 -10zM79 675q-10 0 -10 10t10 10t10 -10t-10 -10zM106 696q-10 0 -10 10t10 10t10 -10t-10 -10zM141 696q-10 0 -10 10t10 10t10 -10t-10 -10zM175 685q-10 0 -10 10t10 10t10 -10t-10 -10zM208 669q-10 0 -10 10t10 10t10 -10
t-10 -10zM243 659q-10 0 -10 10t10 10t10 -10t-10 -10zM279 662q-10 0 -10 10t10 10t10 -10t-10 -10zM309 680q-10 0 -10 10t10 10t10 -10t-10 -10zM325 712q-10 0 -10 10t10 10t10 -10t-10 -10z" />
    <glyph glyph-name="B" unicode="B" horiz-adv-x="662" 
d="M116 211q-10 0 -10 10t10 10t10 -10t-10 -10zM116 170q-10 0 -10 10t10 10t10 -10t-10 -10zM116 129q-10 0 -10 10t10 10t10 -10t-10 -10zM116 88q-10 0 -10 10t10 10t10 -10t-10 -10zM116 529q-10 0 -10 10t10 10t10 -10t-10 -10zM116 490q-10 0 -10 10t10 10t10 -10
t-10 -10zM116 447q-10 0 -10 10t10 10t10 -10t-10 -10zM116 367q-10 0 -10 10t10 10t10 -10t-10 -10zM116 330q-10 0 -10 10t10 10t10 -10t-10 -10zM116 290q-10 0 -10 10t10 10t10 -10t-10 -10zM116 250q-10 0 -10 10t10 10t10 -10t-10 -10zM116 680q-10 0 -10 10t10 10
t10 -10t-10 -10zM116 643q-10 0 -10 10t10 10t10 -10t-10 -10zM116 605q-10 0 -10 10t10 10t10 -10t-10 -10zM116 569q-10 0 -10 10t10 10t10 -10t-10 -10zM116 407q-10 0 -10 10t10 10t10 -10t-10 -10zM116 48q-10 0 -10 10t10 10t10 -10t-10 -10zM116 8q-10 0 -10 10
t10 10t10 -10t-10 -10zM149 349q-10 0 -10 10t10 10t10 -10t-10 -10zM184 349q-10 0 -10 10t10 10t10 -10t-10 -10zM219 349q-10 0 -10 10t10 10t10 -10t-10 -10zM254 349q-10 0 -10 10t10 10t10 -10t-10 -10zM289 349q-10 0 -10 10t10 10t10 -10t-10 -10zM324 349
q-10 0 -10 10t10 10t10 -10t-10 -10zM359 349q-10 0 -10 10t10 10t10 -10t-10 -10zM394 349q-10 0 -10 10t10 10t10 -10t-10 -10zM429 349q-10 0 -10 10t10 10t10 -10t-10 -10zM149 6q-10 0 -10 10t10 10t10 -10t-10 -10zM184 6q-10 0 -10 10t10 10t10 -10t-10 -10zM219 6
q-10 0 -10 10t10 10t10 -10t-10 -10zM254 6q-10 0 -10 10t10 10t10 -10t-10 -10zM289 6q-10 0 -10 10t10 10t10 -10t-10 -10zM324 6q-10 0 -10 10t10 10t10 -10t-10 -10zM359 6q-10 0 -10 10t10 10t10 -10t-10 -10zM394 6q-10 0 -10 10t10 10t10 -10t-10 -10zM429 6
q-10 0 -10 10t10 10t10 -10t-10 -10zM149 684q-10 0 -10 10t10 10t10 -10t-10 -10zM184 684q-10 0 -10 10t10 10t10 -10t-10 -10zM219 684q-10 0 -10 10t10 10t10 -10t-10 -10zM254 684q-10 0 -10 10t10 10t10 -10t-10 -10zM289 684q-10 0 -10 10t10 10t10 -10t-10 -10z
M324 684q-10 0 -10 10t10 10t10 -10t-10 -10zM359 684q-10 0 -10 10t10 10t10 -10t-10 -10zM394 684q-10 0 -10 10t10 10t10 -10t-10 -10zM430 683q-10 0 -10 10t10 10t10 -10t-10 -10zM462 350q-10 0 -10 10t10 10t10 -10t-10 -10zM494 377q-10 0 -10 10t10 10t10 -10
t-10 -10zM520 400q-10 0 -10 10t10 10t10 -10t-10 -10zM541 428q-10 0 -10 10t10 10t10 -10t-10 -10zM556 461q-10 0 -10 10t10 10t10 -10t-10 -10zM563 498q-10 0 -10 10t10 10t10 -10t-10 -10zM564 535q-10 0 -10 10t10 10t10 -10t-10 -10zM558 569q-10 0 -10 10t10 10
t10 -10t-10 -10zM544 603q-10 0 -10 10t10 10t10 -10t-10 -10zM524 634q-10 0 -10 10t10 10t10 -10t-10 -10zM497 660q-10 0 -10 10t10 10t10 -10t-10 -10zM465 677q-10 0 -10 10t10 10t10 -10t-10 -10zM463 29q10 0 10 -10t-10 -10t-10 10t10 10zM492 353q10 0 10 -10
t-10 -10t-10 10t10 10zM524 338q10 0 10 -10t-10 -10t-10 10t10 10zM550 315q10 0 10 -10t-10 -10t-10 10t10 10zM571 287q10 0 10 -10t-10 -10t-10 10t10 10zM586 254q10 0 10 -10t-10 -10t-10 10t10 10zM593 217q10 0 10 -10t-10 -10t-10 10t10 10zM594 180q10 0 10 -10
t-10 -10t-10 10t10 10zM588 146q10 0 10 -10t-10 -10t-10 10t10 10zM574 112q10 0 10 -10t-10 -10t-10 10t10 10zM554 81q10 0 10 -10t-10 -10t-10 10t10 10zM527 55q10 0 10 -10t-10 -10t-10 10t10 10zM495 38q10 0 10 -10t-10 -10t-10 10t10 10z" />
    <glyph glyph-name="B.sc" horiz-adv-x="569" 
d="M105 -2q-10 0 -10 10t10 10t10 -10t-10 -10zM105 35q-10 0 -10 10t10 10t10 -10t-10 -10zM105 72q-10 0 -10 10t10 10t10 -10t-10 -10zM105 109q-10 0 -10 10t10 10t10 -10t-10 -10zM105 146q-10 0 -10 10t10 10t10 -10t-10 -10zM105 183q-10 0 -10 10t10 10t10 -10
t-10 -10zM105 220q-10 0 -10 10t10 10t10 -10t-10 -10zM105 257q-10 0 -10 10t10 10t10 -10t-10 -10zM105 294q-10 0 -10 10t10 10t10 -10t-10 -10zM105 331q-10 0 -10 10t10 10t10 -10t-10 -10zM105 368q-10 0 -10 10t10 10t10 -10t-10 -10zM105 405q-10 0 -10 10t10 10
t10 -10t-10 -10zM105 442q-10 0 -10 10t10 10t10 -10t-10 -10zM105 479q-10 0 -10 10t10 10t10 -10t-10 -10zM105 516q-10 0 -10 10t10 10t10 -10t-10 -10zM142 516q-10 0 -10 10t10 10t10 -10t-10 -10zM179 516q-10 0 -10 10t10 10t10 -10t-10 -10zM216 516q-10 0 -10 10
t10 10t10 -10t-10 -10zM253 516q-10 0 -10 10t10 10t10 -10t-10 -10zM290 516q-10 0 -10 10t10 10t10 -10t-10 -10zM327 516q-10 0 -10 10t10 10t10 -10t-10 -10zM364 516q-10 0 -10 10t10 10t10 -10t-10 -10zM142 276q-10 0 -10 10t10 10t10 -10t-10 -10zM179 276
q-10 0 -10 10t10 10t10 -10t-10 -10zM216 276q-10 0 -10 10t10 10t10 -10t-10 -10zM253 276q-10 0 -10 10t10 10t10 -10t-10 -10zM290 276q-10 0 -10 10t10 10t10 -10t-10 -10zM327 276q-10 0 -10 10t10 10t10 -10t-10 -10zM364 276q-10 0 -10 10t10 10t10 -10t-10 -10z
M401 507q-10 0 -10 10t10 10t10 -10t-10 -10zM433 487q-10 0 -10 10t10 10t10 -10t-10 -10zM457 457q-10 0 -10 10t10 10t10 -10t-10 -10zM471 419q-10 0 -10 10t10 10t10 -10t-10 -10zM472 379q-10 0 -10 10t10 10t10 -10t-10 -10zM462 340q-10 0 -10 10t10 10t10 -10
t-10 -10zM438 306q-10 0 -10 10t10 10t10 -10t-10 -10zM404 285q-10 0 -10 10t10 10t10 -10t-10 -10zM404 252q-10 0 -10 10t10 10t10 -10t-10 -10zM441 234q-10 0 -10 10t10 10t10 -10t-10 -10zM470 205q-10 0 -10 10t10 10t10 -10t-10 -10zM489 171q-10 0 -10 10t10 10
t10 -10t-10 -10zM497 133q-10 0 -10 10t10 10t10 -10t-10 -10zM489 93q-10 0 -10 10t10 10t10 -10t-10 -10zM470 58q-10 0 -10 10t10 10t10 -10t-10 -10zM442 30q-10 0 -10 10t10 10t10 -10t-10 -10zM405 11q-10 0 -10 10t10 10t10 -10t-10 -10zM365 -3q-10 0 -10 10t10 10
t10 -10t-10 -10zM328 -3q-10 0 -10 10t10 10t10 -10t-10 -10zM291 -3q-10 0 -10 10t10 10t10 -10t-10 -10zM254 -3q-10 0 -10 10t10 10t10 -10t-10 -10zM217 -3q-10 0 -10 10t10 10t10 -10t-10 -10zM181 -3q-10 0 -10 10t10 10t10 -10t-10 -10zM144 -3q-10 0 -10 10t10 10
t10 -10t-10 -10z" />
    <glyph glyph-name="C" unicode="C" horiz-adv-x="698" 
d="M646 144q-10 0 -10 10t10 10t10 -10t-10 -10zM623 109q-10 0 -10 10t10 10t10 -10t-10 -10zM596 80q-10 0 -10 10t10 10t10 -10t-10 -10zM565 52q-10 0 -10 10t10 10t10 -10t-10 -10zM530 30q-10 0 -10 10t10 10t10 -10t-10 -10zM491 13q-10 0 -10 10t10 10t10 -10
t-10 -10zM450 1q-10 0 -10 10t10 10t10 -10t-10 -10zM408 -5q-10 0 -10 10t10 10t10 -10t-10 -10zM366 -6q-10 0 -10 10t10 10t10 -10t-10 -10zM324 0q-10 0 -10 10t10 10t10 -10t-10 -10zM284 13q-10 0 -10 10t10 10t10 -10t-10 -10zM245 32q-10 0 -10 10t10 10t10 -10
t-10 -10zM61 339q-10 0 -10 10t10 10t10 -10t-10 -10zM64 297q-10 0 -10 10t10 10t10 -10t-10 -10zM73 256q-10 0 -10 10t10 10t10 -10t-10 -10zM86 214q-10 0 -10 10t10 10t10 -10t-10 -10zM104 177q-10 0 -10 10t10 10t10 -10t-10 -10zM122 143q-10 0 -10 10t10 10t10 -10
t-10 -10zM149 110q-10 0 -10 10t10 10t10 -10t-10 -10zM178 81q-10 0 -10 10t10 10t10 -10t-10 -10zM211 55q-10 0 -10 10t10 10t10 -10t-10 -10zM632 564q10 0 10 -10t-10 -10t-10 10t10 10zM610 598q10 0 10 -10t-10 -10t-10 10t10 10zM583 630q10 0 10 -10t-10 -10
t-10 10t10 10zM552 658q10 0 10 -10t-10 -10t-10 10t10 10zM515 679q10 0 10 -10t-10 -10t-10 10t10 10zM477 695q10 0 10 -10t-10 -10t-10 10t10 10zM438 707q10 0 10 -10t-10 -10t-10 10t10 10zM398 712q10 0 10 -10t-10 -10t-10 10t10 10zM357 712q10 0 10 -10t-10 -10
t-10 10t10 10zM317 706q10 0 10 -10t-10 -10t-10 10t10 10zM276 694q10 0 10 -10t-10 -10t-10 10t10 10zM238 678q10 0 10 -10t-10 -10t-10 10t10 10zM62 402q10 0 10 -10t-10 -10t-10 10t10 10zM68 443q10 0 10 -10t-10 -10t-10 10t10 10zM79 483q10 0 10 -10t-10 -10
t-10 10t10 10zM94 523q10 0 10 -10t-10 -10t-10 10t10 10zM114 559q10 0 10 -10t-10 -10t-10 10t10 10zM138 593q10 0 10 -10t-10 -10t-10 10t10 10zM168 627q10 0 10 -10t-10 -10t-10 10t10 10zM201 655q10 0 10 -10t-10 -10t-10 10t10 10z" />
    <glyph glyph-name="C.sc" horiz-adv-x="599" 
d="M325 -2q-10 0 -10 10t10 10t10 -10t-10 -10zM325 519q-10 0 -10 10t10 10t10 -10t-10 -10zM282 514q-10 0 -10 10t10 10t10 -10t-10 -10zM239 504q-10 0 -10 10t10 10t10 -10t-10 -10zM199 486q-10 0 -10 10t10 10t10 -10t-10 -10zM162 460q-10 0 -10 10t10 10t10 -10
t-10 -10zM130 429q-10 0 -10 10t10 10t10 -10t-10 -10zM104 391q-10 0 -10 10t10 10t10 -10t-10 -10zM85 351q-10 0 -10 10t10 10t10 -10t-10 -10zM74 306q-10 0 -10 10t10 10t10 -10t-10 -10zM69 262q-10 0 -10 10t10 10t10 -10t-10 -10zM282 25q10 0 10 -10t-10 -10
t-10 10t10 10zM239 36q10 0 10 -10t-10 -10t-10 10t10 10zM199 56q10 0 10 -10t-10 -10t-10 10t10 10zM162 82q10 0 10 -10t-10 -10t-10 10t10 10zM130 115q10 0 10 -10t-10 -10t-10 10t10 10zM104 153q10 0 10 -10t-10 -10t-10 10t10 10zM85 193q10 0 10 -10t-10 -10
t-10 10t10 10zM74 238q10 0 10 -10t-10 -10t-10 10t10 10zM368 514q-10 0 -10 10t10 10t10 -10t-10 -10zM411 504q-10 0 -10 10t10 10t10 -10t-10 -10zM451 486q-10 0 -10 10t10 10t10 -10t-10 -10zM488 460q-10 0 -10 10t10 10t10 -10t-10 -10zM520 429q-10 0 -10 10t10 10
t10 -10t-10 -10zM369 23q10 0 10 -10t-10 -10t-10 10t10 10zM411 34q10 0 10 -10t-10 -10t-10 10t10 10zM451 52q10 0 10 -10t-10 -10t-10 10t10 10zM487 75q10 0 10 -10t-10 -10t-10 10t10 10zM519 104q10 0 10 -10t-10 -10t-10 10t10 10zM543 138q10 0 10 -10t-10 -10
t-10 10t10 10z" />
    <glyph glyph-name="A.sc" horiz-adv-x="582" 
d="M291 518q-10 0 -10 10t10 10t10 -10t-10 -10zM270 481q-10 0 -10 10t10 10t10 -10t-10 -10zM253 443q-10 0 -10 10t10 10t10 -10t-10 -10zM235 405q-10 0 -10 10t10 10t10 -10t-10 -10zM217 367q-10 0 -10 10t10 10t10 -10t-10 -10zM200 331q-10 0 -10 10t10 10t10 -10
t-10 -10zM183 294q-10 0 -10 10t10 10t10 -10t-10 -10zM165 256q-10 0 -10 10t10 10t10 -10t-10 -10zM147 218q-10 0 -10 10t10 10t10 -10t-10 -10zM131 180q-10 0 -10 10t10 10t10 -10t-10 -10zM115 143q-10 0 -10 10t10 10t10 -10t-10 -10zM98 107q-10 0 -10 10t10 10
t10 -10t-10 -10zM80 70q-10 0 -10 10t10 10t10 -10t-10 -10zM64 34q-10 0 -10 10t10 10t10 -10t-10 -10zM47 -2q-10 0 -10 10t10 10t10 -10t-10 -10zM312 481q-10 0 -10 10t10 10t10 -10t-10 -10zM329 443q-10 0 -10 10t10 10t10 -10t-10 -10zM347 405q-10 0 -10 10t10 10
t10 -10t-10 -10zM365 367q-10 0 -10 10t10 10t10 -10t-10 -10zM382 331q-10 0 -10 10t10 10t10 -10t-10 -10zM399 294q-10 0 -10 10t10 10t10 -10t-10 -10zM417 256q-10 0 -10 10t10 10t10 -10t-10 -10zM435 218q-10 0 -10 10t10 10t10 -10t-10 -10zM451 180q-10 0 -10 10
t10 10t10 -10t-10 -10zM467 143q-10 0 -10 10t10 10t10 -10t-10 -10zM484 107q-10 0 -10 10t10 10t10 -10t-10 -10zM502 70q-10 0 -10 10t10 10t10 -10t-10 -10zM518 34q-10 0 -10 10t10 10t10 -10t-10 -10zM535 -2q-10 0 -10 10t10 10t10 -10t-10 -10zM415 180
q-10 0 -10 10t10 10t10 -10t-10 -10zM380 180q-10 0 -10 10t10 10t10 -10t-10 -10zM344 180q-10 0 -10 10t10 10t10 -10t-10 -10zM308 180q-10 0 -10 10t10 10t10 -10t-10 -10zM272 180q-10 0 -10 10t10 10t10 -10t-10 -10zM236 180q-10 0 -10 10t10 10t10 -10t-10 -10z
M200 180q-10 0 -10 10t10 10t10 -10t-10 -10zM166 180q-10 0 -10 10t10 10t10 -10t-10 -10z" />
    <glyph glyph-name="Cacute" unicode="&#x106;" horiz-adv-x="698" 
d="M366 826q-10 0 -10 10t10 10t10 -10t-10 -10zM387 850q-10 0 -10 10t10 10t10 -10t-10 -10zM408 875q-10 0 -10 10t10 10t10 -10t-10 -10zM429 900q-10 0 -10 10t10 10t10 -10t-10 -10zM646 144q-10 0 -10 10t10 10t10 -10t-10 -10zM623 109q-10 0 -10 10t10 10t10 -10
t-10 -10zM596 80q-10 0 -10 10t10 10t10 -10t-10 -10zM565 52q-10 0 -10 10t10 10t10 -10t-10 -10zM530 30q-10 0 -10 10t10 10t10 -10t-10 -10zM491 13q-10 0 -10 10t10 10t10 -10t-10 -10zM450 1q-10 0 -10 10t10 10t10 -10t-10 -10zM408 -5q-10 0 -10 10t10 10t10 -10
t-10 -10zM366 -6q-10 0 -10 10t10 10t10 -10t-10 -10zM324 0q-10 0 -10 10t10 10t10 -10t-10 -10zM284 13q-10 0 -10 10t10 10t10 -10t-10 -10zM245 32q-10 0 -10 10t10 10t10 -10t-10 -10zM61 339q-10 0 -10 10t10 10t10 -10t-10 -10zM64 297q-10 0 -10 10t10 10t10 -10
t-10 -10zM73 256q-10 0 -10 10t10 10t10 -10t-10 -10zM86 214q-10 0 -10 10t10 10t10 -10t-10 -10zM104 177q-10 0 -10 10t10 10t10 -10t-10 -10zM122 143q-10 0 -10 10t10 10t10 -10t-10 -10zM149 110q-10 0 -10 10t10 10t10 -10t-10 -10zM178 81q-10 0 -10 10t10 10
t10 -10t-10 -10zM211 55q-10 0 -10 10t10 10t10 -10t-10 -10zM632 564q10 0 10 -10t-10 -10t-10 10t10 10zM610 598q10 0 10 -10t-10 -10t-10 10t10 10zM583 630q10 0 10 -10t-10 -10t-10 10t10 10zM552 658q10 0 10 -10t-10 -10t-10 10t10 10zM515 679q10 0 10 -10t-10 -10
t-10 10t10 10zM477 695q10 0 10 -10t-10 -10t-10 10t10 10zM438 707q10 0 10 -10t-10 -10t-10 10t10 10zM398 712q10 0 10 -10t-10 -10t-10 10t10 10zM357 712q10 0 10 -10t-10 -10t-10 10t10 10zM317 706q10 0 10 -10t-10 -10t-10 10t10 10zM276 694q10 0 10 -10t-10 -10
t-10 10t10 10zM238 678q10 0 10 -10t-10 -10t-10 10t10 10zM62 402q10 0 10 -10t-10 -10t-10 10t10 10zM68 443q10 0 10 -10t-10 -10t-10 10t10 10zM79 483q10 0 10 -10t-10 -10t-10 10t10 10zM94 523q10 0 10 -10t-10 -10t-10 10t10 10zM114 559q10 0 10 -10t-10 -10
t-10 10t10 10zM138 593q10 0 10 -10t-10 -10t-10 10t10 10zM168 627q10 0 10 -10t-10 -10t-10 10t10 10zM201 655q10 0 10 -10t-10 -10t-10 10t10 10z" />
    <glyph glyph-name="Ccaron" unicode="&#x10c;" horiz-adv-x="698" 
d="M383 848q10 0 10 -10t-10 -10t-10 10t10 10zM411 868q10 0 10 -10t-10 -10t-10 10t10 10zM437 889q10 0 10 -10t-10 -10t-10 10t10 10zM463 909q10 0 10 -10t-10 -10t-10 10t10 10zM355 868q10 0 10 -10t-10 -10t-10 10t10 10zM329 889q10 0 10 -10t-10 -10t-10 10t10 10
zM303 909q10 0 10 -10t-10 -10t-10 10t10 10zM646 144q-10 0 -10 10t10 10t10 -10t-10 -10zM623 109q-10 0 -10 10t10 10t10 -10t-10 -10zM596 80q-10 0 -10 10t10 10t10 -10t-10 -10zM565 52q-10 0 -10 10t10 10t10 -10t-10 -10zM530 30q-10 0 -10 10t10 10t10 -10t-10 -10
zM491 13q-10 0 -10 10t10 10t10 -10t-10 -10zM450 1q-10 0 -10 10t10 10t10 -10t-10 -10zM408 -5q-10 0 -10 10t10 10t10 -10t-10 -10zM366 -6q-10 0 -10 10t10 10t10 -10t-10 -10zM324 0q-10 0 -10 10t10 10t10 -10t-10 -10zM284 13q-10 0 -10 10t10 10t10 -10t-10 -10z
M245 32q-10 0 -10 10t10 10t10 -10t-10 -10zM61 339q-10 0 -10 10t10 10t10 -10t-10 -10zM64 297q-10 0 -10 10t10 10t10 -10t-10 -10zM73 256q-10 0 -10 10t10 10t10 -10t-10 -10zM86 214q-10 0 -10 10t10 10t10 -10t-10 -10zM104 177q-10 0 -10 10t10 10t10 -10t-10 -10z
M122 143q-10 0 -10 10t10 10t10 -10t-10 -10zM149 110q-10 0 -10 10t10 10t10 -10t-10 -10zM178 81q-10 0 -10 10t10 10t10 -10t-10 -10zM211 55q-10 0 -10 10t10 10t10 -10t-10 -10zM632 564q10 0 10 -10t-10 -10t-10 10t10 10zM610 598q10 0 10 -10t-10 -10t-10 10t10 10z
M583 630q10 0 10 -10t-10 -10t-10 10t10 10zM552 658q10 0 10 -10t-10 -10t-10 10t10 10zM515 679q10 0 10 -10t-10 -10t-10 10t10 10zM477 695q10 0 10 -10t-10 -10t-10 10t10 10zM438 707q10 0 10 -10t-10 -10t-10 10t10 10zM398 712q10 0 10 -10t-10 -10t-10 10t10 10z
M357 712q10 0 10 -10t-10 -10t-10 10t10 10zM317 706q10 0 10 -10t-10 -10t-10 10t10 10zM276 694q10 0 10 -10t-10 -10t-10 10t10 10zM238 678q10 0 10 -10t-10 -10t-10 10t10 10zM62 402q10 0 10 -10t-10 -10t-10 10t10 10zM68 443q10 0 10 -10t-10 -10t-10 10t10 10z
M79 483q10 0 10 -10t-10 -10t-10 10t10 10zM94 523q10 0 10 -10t-10 -10t-10 10t10 10zM114 559q10 0 10 -10t-10 -10t-10 10t10 10zM138 593q10 0 10 -10t-10 -10t-10 10t10 10zM168 627q10 0 10 -10t-10 -10t-10 10t10 10zM201 655q10 0 10 -10t-10 -10t-10 10t10 10z" />
    <glyph glyph-name="caron" unicode="&#x2c7;" horiz-adv-x="310" 
d="M155 660q10 0 10 -10t-10 -10t-10 10t10 10zM183 680q10 0 10 -10t-10 -10t-10 10t10 10zM209 701q10 0 10 -10t-10 -10t-10 10t10 10zM235 721q10 0 10 -10t-10 -10t-10 10t10 10zM127 680q10 0 10 -10t-10 -10t-10 10t10 10zM101 701q10 0 10 -10t-10 -10t-10 10t10 10
zM75 721q10 0 10 -10t-10 -10t-10 10t10 10z" />
    <glyph glyph-name="Ccedilla" unicode="&#xc7;" horiz-adv-x="699" 
d="M350 -34q-10 0 -10 10t10 10t10 -10t-10 -10zM334 -65q-10 0 -10 10t10 10t10 -10t-10 -10zM369 -62q-10 0 -10 10t10 10t10 -10t-10 -10zM404 -63q-10 0 -10 10t10 10t10 -10t-10 -10zM436 -76q-10 0 -10 10t10 10t10 -10t-10 -10zM449 -108q-10 0 -10 10t10 10t10 -10
t-10 -10zM438 -140q-10 0 -10 10t10 10t10 -10t-10 -10zM408 -155q-10 0 -10 10t10 10t10 -10t-10 -10zM374 -158q-10 0 -10 10t10 10t10 -10t-10 -10zM339 -155q-10 0 -10 10t10 10t10 -10t-10 -10zM306 -147q-10 0 -10 10t10 10t10 -10t-10 -10zM647 144q-10 0 -10 10
t10 10t10 -10t-10 -10zM624 109q-10 0 -10 10t10 10t10 -10t-10 -10zM597 80q-10 0 -10 10t10 10t10 -10t-10 -10zM566 52q-10 0 -10 10t10 10t10 -10t-10 -10zM531 30q-10 0 -10 10t10 10t10 -10t-10 -10zM492 13q-10 0 -10 10t10 10t10 -10t-10 -10zM451 1q-10 0 -10 10
t10 10t10 -10t-10 -10zM409 -5q-10 0 -10 10t10 10t10 -10t-10 -10zM367 -6q-10 0 -10 10t10 10t10 -10t-10 -10zM325 0q-10 0 -10 10t10 10t10 -10t-10 -10zM285 13q-10 0 -10 10t10 10t10 -10t-10 -10zM246 32q-10 0 -10 10t10 10t10 -10t-10 -10zM62 339q-10 0 -10 10
t10 10t10 -10t-10 -10zM65 297q-10 0 -10 10t10 10t10 -10t-10 -10zM74 256q-10 0 -10 10t10 10t10 -10t-10 -10zM87 214q-10 0 -10 10t10 10t10 -10t-10 -10zM105 177q-10 0 -10 10t10 10t10 -10t-10 -10zM123 143q-10 0 -10 10t10 10t10 -10t-10 -10zM150 110
q-10 0 -10 10t10 10t10 -10t-10 -10zM179 81q-10 0 -10 10t10 10t10 -10t-10 -10zM212 55q-10 0 -10 10t10 10t10 -10t-10 -10zM633 564q10 0 10 -10t-10 -10t-10 10t10 10zM611 598q10 0 10 -10t-10 -10t-10 10t10 10zM584 630q10 0 10 -10t-10 -10t-10 10t10 10zM553 658
q10 0 10 -10t-10 -10t-10 10t10 10zM516 679q10 0 10 -10t-10 -10t-10 10t10 10zM478 695q10 0 10 -10t-10 -10t-10 10t10 10zM439 707q10 0 10 -10t-10 -10t-10 10t10 10zM399 712q10 0 10 -10t-10 -10t-10 10t10 10zM358 712q10 0 10 -10t-10 -10t-10 10t10 10zM318 706
q10 0 10 -10t-10 -10t-10 10t10 10zM277 694q10 0 10 -10t-10 -10t-10 10t10 10zM239 678q10 0 10 -10t-10 -10t-10 10t10 10zM63 402q10 0 10 -10t-10 -10t-10 10t10 10zM69 443q10 0 10 -10t-10 -10t-10 10t10 10zM80 483q10 0 10 -10t-10 -10t-10 10t10 10zM95 523
q10 0 10 -10t-10 -10t-10 10t10 10zM115 559q10 0 10 -10t-10 -10t-10 10t10 10zM139 593q10 0 10 -10t-10 -10t-10 10t10 10zM169 627q10 0 10 -10t-10 -10t-10 10t10 10zM202 655q10 0 10 -10t-10 -10t-10 10t10 10z" />
    <glyph glyph-name="cedilla" unicode="&#xb8;" horiz-adv-x="261" 
d="M111 -13q-10 0 -10 10t10 10t10 -10t-10 -10zM94 -41q-10 0 -10 10t10 10t10 -10t-10 -10zM78 -72q-10 0 -10 10t10 10t10 -10t-10 -10zM113 -69q-10 0 -10 10t10 10t10 -10t-10 -10zM148 -70q-10 0 -10 10t10 10t10 -10t-10 -10zM180 -83q-10 0 -10 10t10 10t10 -10
t-10 -10zM193 -115q-10 0 -10 10t10 10t10 -10t-10 -10zM182 -147q-10 0 -10 10t10 10t10 -10t-10 -10zM152 -162q-10 0 -10 10t10 10t10 -10t-10 -10zM118 -165q-10 0 -10 10t10 10t10 -10t-10 -10zM83 -162q-10 0 -10 10t10 10t10 -10t-10 -10zM50 -154q-10 0 -10 10
t10 10t10 -10t-10 -10z" />
    <glyph glyph-name="Ccircumflex" unicode="&#x108;" horiz-adv-x="698" 
d="M383 898q-10 0 -10 10t10 10t10 -10t-10 -10zM411 878q-10 0 -10 10t10 10t10 -10t-10 -10zM437 857q-10 0 -10 10t10 10t10 -10t-10 -10zM463 837q-10 0 -10 10t10 10t10 -10t-10 -10zM355 878q-10 0 -10 10t10 10t10 -10t-10 -10zM329 857q-10 0 -10 10t10 10t10 -10
t-10 -10zM303 837q-10 0 -10 10t10 10t10 -10t-10 -10zM646 144q-10 0 -10 10t10 10t10 -10t-10 -10zM623 109q-10 0 -10 10t10 10t10 -10t-10 -10zM596 80q-10 0 -10 10t10 10t10 -10t-10 -10zM565 52q-10 0 -10 10t10 10t10 -10t-10 -10zM530 30q-10 0 -10 10t10 10
t10 -10t-10 -10zM491 13q-10 0 -10 10t10 10t10 -10t-10 -10zM450 1q-10 0 -10 10t10 10t10 -10t-10 -10zM408 -5q-10 0 -10 10t10 10t10 -10t-10 -10zM366 -6q-10 0 -10 10t10 10t10 -10t-10 -10zM324 0q-10 0 -10 10t10 10t10 -10t-10 -10zM284 13q-10 0 -10 10t10 10
t10 -10t-10 -10zM245 32q-10 0 -10 10t10 10t10 -10t-10 -10zM61 339q-10 0 -10 10t10 10t10 -10t-10 -10zM64 297q-10 0 -10 10t10 10t10 -10t-10 -10zM73 256q-10 0 -10 10t10 10t10 -10t-10 -10zM86 214q-10 0 -10 10t10 10t10 -10t-10 -10zM104 177q-10 0 -10 10t10 10
t10 -10t-10 -10zM122 143q-10 0 -10 10t10 10t10 -10t-10 -10zM149 110q-10 0 -10 10t10 10t10 -10t-10 -10zM178 81q-10 0 -10 10t10 10t10 -10t-10 -10zM211 55q-10 0 -10 10t10 10t10 -10t-10 -10zM632 564q10 0 10 -10t-10 -10t-10 10t10 10zM610 598q10 0 10 -10
t-10 -10t-10 10t10 10zM583 630q10 0 10 -10t-10 -10t-10 10t10 10zM552 658q10 0 10 -10t-10 -10t-10 10t10 10zM515 679q10 0 10 -10t-10 -10t-10 10t10 10zM477 695q10 0 10 -10t-10 -10t-10 10t10 10zM438 707q10 0 10 -10t-10 -10t-10 10t10 10zM398 712q10 0 10 -10
t-10 -10t-10 10t10 10zM357 712q10 0 10 -10t-10 -10t-10 10t10 10zM317 706q10 0 10 -10t-10 -10t-10 10t10 10zM276 694q10 0 10 -10t-10 -10t-10 10t10 10zM238 678q10 0 10 -10t-10 -10t-10 10t10 10zM62 402q10 0 10 -10t-10 -10t-10 10t10 10zM68 443q10 0 10 -10
t-10 -10t-10 10t10 10zM79 483q10 0 10 -10t-10 -10t-10 10t10 10zM94 523q10 0 10 -10t-10 -10t-10 10t10 10zM114 559q10 0 10 -10t-10 -10t-10 10t10 10zM138 593q10 0 10 -10t-10 -10t-10 10t10 10zM168 627q10 0 10 -10t-10 -10t-10 10t10 10zM201 655q10 0 10 -10
t-10 -10t-10 10t10 10z" />
    <glyph glyph-name="Cdotaccent" unicode="&#x10a;" horiz-adv-x="698" 
d="M646 144q-10 0 -10 10t10 10t10 -10t-10 -10zM623 109q-10 0 -10 10t10 10t10 -10t-10 -10zM596 80q-10 0 -10 10t10 10t10 -10t-10 -10zM565 52q-10 0 -10 10t10 10t10 -10t-10 -10zM530 30q-10 0 -10 10t10 10t10 -10t-10 -10zM491 13q-10 0 -10 10t10 10t10 -10
t-10 -10zM450 1q-10 0 -10 10t10 10t10 -10t-10 -10zM408 -5q-10 0 -10 10t10 10t10 -10t-10 -10zM366 -6q-10 0 -10 10t10 10t10 -10t-10 -10zM324 0q-10 0 -10 10t10 10t10 -10t-10 -10zM284 13q-10 0 -10 10t10 10t10 -10t-10 -10zM245 32q-10 0 -10 10t10 10t10 -10
t-10 -10zM61 339q-10 0 -10 10t10 10t10 -10t-10 -10zM64 297q-10 0 -10 10t10 10t10 -10t-10 -10zM73 256q-10 0 -10 10t10 10t10 -10t-10 -10zM86 214q-10 0 -10 10t10 10t10 -10t-10 -10zM104 177q-10 0 -10 10t10 10t10 -10t-10 -10zM122 143q-10 0 -10 10t10 10t10 -10
t-10 -10zM149 110q-10 0 -10 10t10 10t10 -10t-10 -10zM178 81q-10 0 -10 10t10 10t10 -10t-10 -10zM211 55q-10 0 -10 10t10 10t10 -10t-10 -10zM632 564q10 0 10 -10t-10 -10t-10 10t10 10zM610 598q10 0 10 -10t-10 -10t-10 10t10 10zM583 630q10 0 10 -10t-10 -10
t-10 10t10 10zM552 658q10 0 10 -10t-10 -10t-10 10t10 10zM515 679q10 0 10 -10t-10 -10t-10 10t10 10zM477 695q10 0 10 -10t-10 -10t-10 10t10 10zM438 707q10 0 10 -10t-10 -10t-10 10t10 10zM398 712q10 0 10 -10t-10 -10t-10 10t10 10zM357 712q10 0 10 -10t-10 -10
t-10 10t10 10zM317 706q10 0 10 -10t-10 -10t-10 10t10 10zM276 694q10 0 10 -10t-10 -10t-10 10t10 10zM238 678q10 0 10 -10t-10 -10t-10 10t10 10zM62 402q10 0 10 -10t-10 -10t-10 10t10 10zM68 443q10 0 10 -10t-10 -10t-10 10t10 10zM79 483q10 0 10 -10t-10 -10
t-10 10t10 10zM94 523q10 0 10 -10t-10 -10t-10 10t10 10zM114 559q10 0 10 -10t-10 -10t-10 10t10 10zM138 593q10 0 10 -10t-10 -10t-10 10t10 10zM168 627q10 0 10 -10t-10 -10t-10 10t10 10zM201 655q10 0 10 -10t-10 -10t-10 10t10 10zM383 834q-10 0 -10 10t10 10
t10 -10t-10 -10zM383 867q-10 0 -10 10t10 10t10 -10t-10 -10zM383 900q-10 0 -10 10t10 10t10 -10t-10 -10z" />
    <glyph glyph-name="dotaccent" unicode="&#x2d9;" horiz-adv-x="132" 
d="M66 646q-10 0 -10 10t10 10t10 -10t-10 -10zM66 679q-10 0 -10 10t10 10t10 -10t-10 -10zM66 712q-10 0 -10 10t10 10t10 -10t-10 -10z" />
    <glyph glyph-name="D" unicode="D" horiz-adv-x="718" 
d="M116 211q-10 0 -10 10t10 10t10 -10t-10 -10zM116 170q-10 0 -10 10t10 10t10 -10t-10 -10zM116 129q-10 0 -10 10t10 10t10 -10t-10 -10zM116 88q-10 0 -10 10t10 10t10 -10t-10 -10zM116 529q-10 0 -10 10t10 10t10 -10t-10 -10zM116 490q-10 0 -10 10t10 10t10 -10
t-10 -10zM116 447q-10 0 -10 10t10 10t10 -10t-10 -10zM116 367q-10 0 -10 10t10 10t10 -10t-10 -10zM116 330q-10 0 -10 10t10 10t10 -10t-10 -10zM116 290q-10 0 -10 10t10 10t10 -10t-10 -10zM116 250q-10 0 -10 10t10 10t10 -10t-10 -10zM116 680q-10 0 -10 10t10 10
t10 -10t-10 -10zM116 643q-10 0 -10 10t10 10t10 -10t-10 -10zM116 605q-10 0 -10 10t10 10t10 -10t-10 -10zM116 569q-10 0 -10 10t10 10t10 -10t-10 -10zM116 407q-10 0 -10 10t10 10t10 -10t-10 -10zM116 48q-10 0 -10 10t10 10t10 -10t-10 -10zM116 8q-10 0 -10 10
t10 10t10 -10t-10 -10zM149 6q-10 0 -10 10t10 10t10 -10t-10 -10zM184 6q-10 0 -10 10t10 10t10 -10t-10 -10zM219 6q-10 0 -10 10t10 10t10 -10t-10 -10zM254 6q-10 0 -10 10t10 10t10 -10t-10 -10zM291 6q-10 0 -10 10t10 10t10 -10t-10 -10zM329 6q-10 0 -10 10t10 10
t10 -10t-10 -10zM367 7q-10 0 -10 10t10 10t10 -10t-10 -10zM406 12q-10 0 -10 10t10 10t10 -10t-10 -10zM448 22q-10 0 -10 10t10 10t10 -10t-10 -10zM149 683q-10 0 -10 10t10 10t10 -10t-10 -10zM184 683q-10 0 -10 10t10 10t10 -10t-10 -10zM219 683q-10 0 -10 10t10 10
t10 -10t-10 -10zM254 683q-10 0 -10 10t10 10t10 -10t-10 -10zM289 683q-10 0 -10 10t10 10t10 -10t-10 -10zM324 683q-10 0 -10 10t10 10t10 -10t-10 -10zM359 682q-10 0 -10 10t10 10t10 -10t-10 -10zM394 679q-10 0 -10 10t10 10t10 -10t-10 -10zM429 673q-10 0 -10 10
t10 10t10 -10t-10 -10zM486 38q-10 0 -10 10t10 10t10 -10t-10 -10zM463 661q-10 0 -10 10t10 10t10 -10t-10 -10zM494 646q-10 0 -10 10t10 10t10 -10t-10 -10zM525 627q-10 0 -10 10t10 10t10 -10t-10 -10zM552 603q-10 0 -10 10t10 10t10 -10t-10 -10zM576 575
q-10 0 -10 10t10 10t10 -10t-10 -10zM598 546q-10 0 -10 10t10 10t10 -10t-10 -10zM614 513q-10 0 -10 10t10 10t10 -10t-10 -10zM626 478q-10 0 -10 10t10 10t10 -10t-10 -10zM636 443q-10 0 -10 10t10 10t10 -10t-10 -10zM644 408q-10 0 -10 10t10 10t10 -10t-10 -10z
M648 371q-10 0 -10 10t10 10t10 -10t-10 -10zM649 332q-10 0 -10 10t10 10t10 -10t-10 -10zM648 295q-10 0 -10 10t10 10t10 -10t-10 -10zM643 260q-10 0 -10 10t10 10t10 -10t-10 -10zM634 223q-10 0 -10 10t10 10t10 -10t-10 -10zM620 186q-10 0 -10 10t10 10t10 -10
t-10 -10zM602 152q-10 0 -10 10t10 10t10 -10t-10 -10zM581 115q-10 0 -10 10t10 10t10 -10t-10 -10zM553 84q-10 0 -10 10t10 10t10 -10t-10 -10zM521 59q-10 0 -10 10t10 10t10 -10t-10 -10z" />
    <glyph glyph-name="D.sc" horiz-adv-x="612" 
d="M105 -2q-10 0 -10 10t10 10t10 -10t-10 -10zM105 35q-10 0 -10 10t10 10t10 -10t-10 -10zM105 72q-10 0 -10 10t10 10t10 -10t-10 -10zM105 109q-10 0 -10 10t10 10t10 -10t-10 -10zM105 146q-10 0 -10 10t10 10t10 -10t-10 -10zM105 183q-10 0 -10 10t10 10t10 -10
t-10 -10zM105 220q-10 0 -10 10t10 10t10 -10t-10 -10zM105 257q-10 0 -10 10t10 10t10 -10t-10 -10zM105 294q-10 0 -10 10t10 10t10 -10t-10 -10zM105 331q-10 0 -10 10t10 10t10 -10t-10 -10zM105 368q-10 0 -10 10t10 10t10 -10t-10 -10zM105 405q-10 0 -10 10t10 10
t10 -10t-10 -10zM105 442q-10 0 -10 10t10 10t10 -10t-10 -10zM105 479q-10 0 -10 10t10 10t10 -10t-10 -10zM105 516q-10 0 -10 10t10 10t10 -10t-10 -10zM105 257q-10 0 -10 10t10 10t10 -10t-10 -10zM543 257q-10 0 -10 10t10 10t10 -10t-10 -10zM541 294q-10 0 -10 10
t10 10t10 -10t-10 -10zM535 331q-10 0 -10 10t10 10t10 -10t-10 -10zM524 368q-10 0 -10 10t10 10t10 -10t-10 -10zM508 402q-10 0 -10 10t10 10t10 -10t-10 -10zM485 435q-10 0 -10 10t10 10t10 -10t-10 -10zM455 463q-10 0 -10 10t10 10t10 -10t-10 -10zM421 486
q-10 0 -10 10t10 10t10 -10t-10 -10zM144 516q-10 0 -10 10t10 10t10 -10t-10 -10zM183 516q-10 0 -10 10t10 10t10 -10t-10 -10zM222 516q-10 0 -10 10t10 10t10 -10t-10 -10zM261 516q-10 0 -10 10t10 10t10 -10t-10 -10zM300 516q-10 0 -10 10t10 10t10 -10t-10 -10z
M340 512q-10 0 -10 10t10 10t10 -10t-10 -10zM381 503q-10 0 -10 10t10 10t10 -10t-10 -10zM541 240q10 0 10 -10t-10 -10t-10 10t10 10zM535 203q10 0 10 -10t-10 -10t-10 10t10 10zM524 166q10 0 10 -10t-10 -10t-10 10t10 10zM508 132q10 0 10 -10t-10 -10t-10 10t10 10z
M485 99q10 0 10 -10t-10 -10t-10 10t10 10zM455 71q10 0 10 -10t-10 -10t-10 10t10 10zM421 48q10 0 10 -10t-10 -10t-10 10t10 10zM144 18q10 0 10 -10t-10 -10t-10 10t10 10zM183 18q10 0 10 -10t-10 -10t-10 10t10 10zM222 18q10 0 10 -10t-10 -10t-10 10t10 10zM261 18
q10 0 10 -10t-10 -10t-10 10t10 10zM300 18q10 0 10 -10t-10 -10t-10 10t10 10zM340 22q10 0 10 -10t-10 -10t-10 10t10 10zM381 31q10 0 10 -10t-10 -10t-10 10t10 10z" />
    <glyph glyph-name="Dcaron" unicode="&#x10e;" horiz-adv-x="718" 
d="M352 848q10 0 10 -10t-10 -10t-10 10t10 10zM380 868q10 0 10 -10t-10 -10t-10 10t10 10zM406 889q10 0 10 -10t-10 -10t-10 10t10 10zM432 909q10 0 10 -10t-10 -10t-10 10t10 10zM324 868q10 0 10 -10t-10 -10t-10 10t10 10zM298 889q10 0 10 -10t-10 -10t-10 10t10 10
zM272 909q10 0 10 -10t-10 -10t-10 10t10 10zM116 211q-10 0 -10 10t10 10t10 -10t-10 -10zM116 170q-10 0 -10 10t10 10t10 -10t-10 -10zM116 129q-10 0 -10 10t10 10t10 -10t-10 -10zM116 88q-10 0 -10 10t10 10t10 -10t-10 -10zM116 529q-10 0 -10 10t10 10t10 -10
t-10 -10zM116 490q-10 0 -10 10t10 10t10 -10t-10 -10zM116 447q-10 0 -10 10t10 10t10 -10t-10 -10zM116 367q-10 0 -10 10t10 10t10 -10t-10 -10zM116 330q-10 0 -10 10t10 10t10 -10t-10 -10zM116 290q-10 0 -10 10t10 10t10 -10t-10 -10zM116 250q-10 0 -10 10t10 10
t10 -10t-10 -10zM116 680q-10 0 -10 10t10 10t10 -10t-10 -10zM116 643q-10 0 -10 10t10 10t10 -10t-10 -10zM116 605q-10 0 -10 10t10 10t10 -10t-10 -10zM116 569q-10 0 -10 10t10 10t10 -10t-10 -10zM116 407q-10 0 -10 10t10 10t10 -10t-10 -10zM116 48q-10 0 -10 10
t10 10t10 -10t-10 -10zM116 8q-10 0 -10 10t10 10t10 -10t-10 -10zM149 6q-10 0 -10 10t10 10t10 -10t-10 -10zM184 6q-10 0 -10 10t10 10t10 -10t-10 -10zM219 6q-10 0 -10 10t10 10t10 -10t-10 -10zM254 6q-10 0 -10 10t10 10t10 -10t-10 -10zM291 6q-10 0 -10 10t10 10
t10 -10t-10 -10zM329 6q-10 0 -10 10t10 10t10 -10t-10 -10zM367 7q-10 0 -10 10t10 10t10 -10t-10 -10zM406 12q-10 0 -10 10t10 10t10 -10t-10 -10zM448 22q-10 0 -10 10t10 10t10 -10t-10 -10zM149 683q-10 0 -10 10t10 10t10 -10t-10 -10zM184 683q-10 0 -10 10t10 10
t10 -10t-10 -10zM219 683q-10 0 -10 10t10 10t10 -10t-10 -10zM254 683q-10 0 -10 10t10 10t10 -10t-10 -10zM289 683q-10 0 -10 10t10 10t10 -10t-10 -10zM324 683q-10 0 -10 10t10 10t10 -10t-10 -10zM359 682q-10 0 -10 10t10 10t10 -10t-10 -10zM394 679q-10 0 -10 10
t10 10t10 -10t-10 -10zM429 673q-10 0 -10 10t10 10t10 -10t-10 -10zM486 38q-10 0 -10 10t10 10t10 -10t-10 -10zM463 661q-10 0 -10 10t10 10t10 -10t-10 -10zM494 646q-10 0 -10 10t10 10t10 -10t-10 -10zM525 627q-10 0 -10 10t10 10t10 -10t-10 -10zM552 603
q-10 0 -10 10t10 10t10 -10t-10 -10zM576 575q-10 0 -10 10t10 10t10 -10t-10 -10zM598 546q-10 0 -10 10t10 10t10 -10t-10 -10zM614 513q-10 0 -10 10t10 10t10 -10t-10 -10zM626 478q-10 0 -10 10t10 10t10 -10t-10 -10zM636 443q-10 0 -10 10t10 10t10 -10t-10 -10z
M644 408q-10 0 -10 10t10 10t10 -10t-10 -10zM648 371q-10 0 -10 10t10 10t10 -10t-10 -10zM649 332q-10 0 -10 10t10 10t10 -10t-10 -10zM648 295q-10 0 -10 10t10 10t10 -10t-10 -10zM643 260q-10 0 -10 10t10 10t10 -10t-10 -10zM634 223q-10 0 -10 10t10 10t10 -10
t-10 -10zM620 186q-10 0 -10 10t10 10t10 -10t-10 -10zM602 152q-10 0 -10 10t10 10t10 -10t-10 -10zM581 115q-10 0 -10 10t10 10t10 -10t-10 -10zM553 84q-10 0 -10 10t10 10t10 -10t-10 -10zM521 59q-10 0 -10 10t10 10t10 -10t-10 -10z" />
    <glyph glyph-name="Dcroat" unicode="&#x110;" horiz-adv-x="724" 
d="M159 387q10 0 10 -10t-10 -10t-10 10t10 10zM196 387q10 0 10 -10t-10 -10t-10 10t10 10zM233 387q10 0 10 -10t-10 -10t-10 10t10 10zM270 387q10 0 10 -10t-10 -10t-10 10t10 10zM307 387q10 0 10 -10t-10 -10t-10 10t10 10zM85 387q10 0 10 -10t-10 -10t-10 10t10 10z
M48 387q10 0 10 -10t-10 -10t-10 10t10 10zM122 211q-10 0 -10 10t10 10t10 -10t-10 -10zM122 170q-10 0 -10 10t10 10t10 -10t-10 -10zM122 129q-10 0 -10 10t10 10t10 -10t-10 -10zM122 88q-10 0 -10 10t10 10t10 -10t-10 -10zM122 529q-10 0 -10 10t10 10t10 -10t-10 -10
zM122 490q-10 0 -10 10t10 10t10 -10t-10 -10zM122 447q-10 0 -10 10t10 10t10 -10t-10 -10zM122 367q-10 0 -10 10t10 10t10 -10t-10 -10zM122 330q-10 0 -10 10t10 10t10 -10t-10 -10zM122 290q-10 0 -10 10t10 10t10 -10t-10 -10zM122 250q-10 0 -10 10t10 10t10 -10
t-10 -10zM122 680q-10 0 -10 10t10 10t10 -10t-10 -10zM122 643q-10 0 -10 10t10 10t10 -10t-10 -10zM122 605q-10 0 -10 10t10 10t10 -10t-10 -10zM122 569q-10 0 -10 10t10 10t10 -10t-10 -10zM122 407q-10 0 -10 10t10 10t10 -10t-10 -10zM122 48q-10 0 -10 10t10 10
t10 -10t-10 -10zM122 8q-10 0 -10 10t10 10t10 -10t-10 -10zM155 6q-10 0 -10 10t10 10t10 -10t-10 -10zM190 6q-10 0 -10 10t10 10t10 -10t-10 -10zM225 6q-10 0 -10 10t10 10t10 -10t-10 -10zM260 6q-10 0 -10 10t10 10t10 -10t-10 -10zM297 6q-10 0 -10 10t10 10t10 -10
t-10 -10zM335 6q-10 0 -10 10t10 10t10 -10t-10 -10zM373 7q-10 0 -10 10t10 10t10 -10t-10 -10zM412 12q-10 0 -10 10t10 10t10 -10t-10 -10zM454 22q-10 0 -10 10t10 10t10 -10t-10 -10zM155 683q-10 0 -10 10t10 10t10 -10t-10 -10zM190 683q-10 0 -10 10t10 10t10 -10
t-10 -10zM225 683q-10 0 -10 10t10 10t10 -10t-10 -10zM260 683q-10 0 -10 10t10 10t10 -10t-10 -10zM295 683q-10 0 -10 10t10 10t10 -10t-10 -10zM330 683q-10 0 -10 10t10 10t10 -10t-10 -10zM365 682q-10 0 -10 10t10 10t10 -10t-10 -10zM400 679q-10 0 -10 10t10 10
t10 -10t-10 -10zM435 673q-10 0 -10 10t10 10t10 -10t-10 -10zM492 38q-10 0 -10 10t10 10t10 -10t-10 -10zM469 661q-10 0 -10 10t10 10t10 -10t-10 -10zM500 646q-10 0 -10 10t10 10t10 -10t-10 -10zM531 627q-10 0 -10 10t10 10t10 -10t-10 -10zM558 603q-10 0 -10 10
t10 10t10 -10t-10 -10zM582 575q-10 0 -10 10t10 10t10 -10t-10 -10zM604 546q-10 0 -10 10t10 10t10 -10t-10 -10zM620 513q-10 0 -10 10t10 10t10 -10t-10 -10zM632 478q-10 0 -10 10t10 10t10 -10t-10 -10zM642 443q-10 0 -10 10t10 10t10 -10t-10 -10zM650 408
q-10 0 -10 10t10 10t10 -10t-10 -10zM654 371q-10 0 -10 10t10 10t10 -10t-10 -10zM655 332q-10 0 -10 10t10 10t10 -10t-10 -10zM654 295q-10 0 -10 10t10 10t10 -10t-10 -10zM649 260q-10 0 -10 10t10 10t10 -10t-10 -10zM640 223q-10 0 -10 10t10 10t10 -10t-10 -10z
M626 186q-10 0 -10 10t10 10t10 -10t-10 -10zM608 152q-10 0 -10 10t10 10t10 -10t-10 -10zM587 115q-10 0 -10 10t10 10t10 -10t-10 -10zM559 84q-10 0 -10 10t10 10t10 -10t-10 -10zM527 59q-10 0 -10 10t10 10t10 -10t-10 -10z" />
    <glyph glyph-name="E" unicode="E" horiz-adv-x="617" 
d="M116 211q-10 0 -10 10t10 10t10 -10t-10 -10zM116 170q-10 0 -10 10t10 10t10 -10t-10 -10zM116 129q-10 0 -10 10t10 10t10 -10t-10 -10zM116 88q-10 0 -10 10t10 10t10 -10t-10 -10zM116 529q-10 0 -10 10t10 10t10 -10t-10 -10zM116 490q-10 0 -10 10t10 10t10 -10
t-10 -10zM116 447q-10 0 -10 10t10 10t10 -10t-10 -10zM116 367q-10 0 -10 10t10 10t10 -10t-10 -10zM116 330q-10 0 -10 10t10 10t10 -10t-10 -10zM116 290q-10 0 -10 10t10 10t10 -10t-10 -10zM116 250q-10 0 -10 10t10 10t10 -10t-10 -10zM116 680q-10 0 -10 10t10 10
t10 -10t-10 -10zM116 643q-10 0 -10 10t10 10t10 -10t-10 -10zM116 605q-10 0 -10 10t10 10t10 -10t-10 -10zM116 569q-10 0 -10 10t10 10t10 -10t-10 -10zM116 407q-10 0 -10 10t10 10t10 -10t-10 -10zM116 48q-10 0 -10 10t10 10t10 -10t-10 -10zM116 8q-10 0 -10 10
t10 10t10 -10t-10 -10zM153 681q-10 0 -10 10t10 10t10 -10t-10 -10zM188 681q-10 0 -10 10t10 10t10 -10t-10 -10zM223 681q-10 0 -10 10t10 10t10 -10t-10 -10zM259 681q-10 0 -10 10t10 10t10 -10t-10 -10zM295 681q-10 0 -10 10t10 10t10 -10t-10 -10zM330 681
q-10 0 -10 10t10 10t10 -10t-10 -10zM365 681q-10 0 -10 10t10 10t10 -10t-10 -10zM401 681q-10 0 -10 10t10 10t10 -10t-10 -10zM436 681q-10 0 -10 10t10 10t10 -10t-10 -10zM472 681q-10 0 -10 10t10 10t10 -10t-10 -10zM508 681q-10 0 -10 10t10 10t10 -10t-10 -10z
M543 681q-10 0 -10 10t10 10t10 -10t-10 -10zM149 350q-10 0 -10 10t10 10t10 -10t-10 -10zM184 350q-10 0 -10 10t10 10t10 -10t-10 -10zM219 350q-10 0 -10 10t10 10t10 -10t-10 -10zM255 350q-10 0 -10 10t10 10t10 -10t-10 -10zM291 350q-10 0 -10 10t10 10t10 -10
t-10 -10zM326 350q-10 0 -10 10t10 10t10 -10t-10 -10zM361 350q-10 0 -10 10t10 10t10 -10t-10 -10zM397 350q-10 0 -10 10t10 10t10 -10t-10 -10zM432 350q-10 0 -10 10t10 10t10 -10t-10 -10zM468 350q-10 0 -10 10t10 10t10 -10t-10 -10zM504 350q-10 0 -10 10t10 10
t10 -10t-10 -10zM151 7q-10 0 -10 10t10 10t10 -10t-10 -10zM186 7q-10 0 -10 10t10 10t10 -10t-10 -10zM221 7q-10 0 -10 10t10 10t10 -10t-10 -10zM257 7q-10 0 -10 10t10 10t10 -10t-10 -10zM293 7q-10 0 -10 10t10 10t10 -10t-10 -10zM328 7q-10 0 -10 10t10 10t10 -10
t-10 -10zM363 7q-10 0 -10 10t10 10t10 -10t-10 -10zM399 7q-10 0 -10 10t10 10t10 -10t-10 -10zM434 7q-10 0 -10 10t10 10t10 -10t-10 -10zM470 7q-10 0 -10 10t10 10t10 -10t-10 -10zM506 7q-10 0 -10 10t10 10t10 -10t-10 -10zM541 7q-10 0 -10 10t10 10t10 -10t-10 -10
z" />
    <glyph glyph-name="E.sc" horiz-adv-x="530" 
d="M105 -2q-10 0 -10 10t10 10t10 -10t-10 -10zM105 35q-10 0 -10 10t10 10t10 -10t-10 -10zM105 72q-10 0 -10 10t10 10t10 -10t-10 -10zM105 109q-10 0 -10 10t10 10t10 -10t-10 -10zM105 146q-10 0 -10 10t10 10t10 -10t-10 -10zM105 183q-10 0 -10 10t10 10t10 -10
t-10 -10zM105 220q-10 0 -10 10t10 10t10 -10t-10 -10zM105 257q-10 0 -10 10t10 10t10 -10t-10 -10zM105 294q-10 0 -10 10t10 10t10 -10t-10 -10zM105 331q-10 0 -10 10t10 10t10 -10t-10 -10zM105 368q-10 0 -10 10t10 10t10 -10t-10 -10zM105 405q-10 0 -10 10t10 10
t10 -10t-10 -10zM105 442q-10 0 -10 10t10 10t10 -10t-10 -10zM105 479q-10 0 -10 10t10 10t10 -10t-10 -10zM105 516q-10 0 -10 10t10 10t10 -10t-10 -10zM144 516q-10 0 -10 10t10 10t10 -10t-10 -10zM183 516q-10 0 -10 10t10 10t10 -10t-10 -10zM222 516q-10 0 -10 10
t10 10t10 -10t-10 -10zM261 516q-10 0 -10 10t10 10t10 -10t-10 -10zM300 516q-10 0 -10 10t10 10t10 -10t-10 -10zM144 18q10 0 10 -10t-10 -10t-10 10t10 10zM183 18q10 0 10 -10t-10 -10t-10 10t10 10zM222 18q10 0 10 -10t-10 -10t-10 10t10 10zM261 18q10 0 10 -10
t-10 -10t-10 10t10 10zM300 18q10 0 10 -10t-10 -10t-10 10t10 10zM339 516q-10 0 -10 10t10 10t10 -10t-10 -10zM378 516q-10 0 -10 10t10 10t10 -10t-10 -10zM417 516q-10 0 -10 10t10 10t10 -10t-10 -10zM456 516q-10 0 -10 10t10 10t10 -10t-10 -10zM339 18q10 0 10 -10
t-10 -10t-10 10t10 10zM378 18q10 0 10 -10t-10 -10t-10 10t10 10zM417 18q10 0 10 -10t-10 -10t-10 10t10 10zM456 18q10 0 10 -10t-10 -10t-10 10t10 10zM143 278q10 0 10 -10t-10 -10t-10 10t10 10zM182 278q10 0 10 -10t-10 -10t-10 10t10 10zM221 278q10 0 10 -10
t-10 -10t-10 10t10 10zM260 278q10 0 10 -10t-10 -10t-10 10t10 10zM299 278q10 0 10 -10t-10 -10t-10 10t10 10zM338 278q10 0 10 -10t-10 -10t-10 10t10 10zM377 278q10 0 10 -10t-10 -10t-10 10t10 10zM416 278q10 0 10 -10t-10 -10t-10 10t10 10z" />
    <glyph glyph-name="Eacute" unicode="&#xc9;" horiz-adv-x="617" 
d="M326 826q-10 0 -10 10t10 10t10 -10t-10 -10zM347 850q-10 0 -10 10t10 10t10 -10t-10 -10zM368 875q-10 0 -10 10t10 10t10 -10t-10 -10zM389 900q-10 0 -10 10t10 10t10 -10t-10 -10zM116 211q-10 0 -10 10t10 10t10 -10t-10 -10zM116 170q-10 0 -10 10t10 10t10 -10
t-10 -10zM116 129q-10 0 -10 10t10 10t10 -10t-10 -10zM116 88q-10 0 -10 10t10 10t10 -10t-10 -10zM116 529q-10 0 -10 10t10 10t10 -10t-10 -10zM116 490q-10 0 -10 10t10 10t10 -10t-10 -10zM116 447q-10 0 -10 10t10 10t10 -10t-10 -10zM116 367q-10 0 -10 10t10 10
t10 -10t-10 -10zM116 330q-10 0 -10 10t10 10t10 -10t-10 -10zM116 290q-10 0 -10 10t10 10t10 -10t-10 -10zM116 250q-10 0 -10 10t10 10t10 -10t-10 -10zM116 680q-10 0 -10 10t10 10t10 -10t-10 -10zM116 643q-10 0 -10 10t10 10t10 -10t-10 -10zM116 605q-10 0 -10 10
t10 10t10 -10t-10 -10zM116 569q-10 0 -10 10t10 10t10 -10t-10 -10zM116 407q-10 0 -10 10t10 10t10 -10t-10 -10zM116 48q-10 0 -10 10t10 10t10 -10t-10 -10zM116 8q-10 0 -10 10t10 10t10 -10t-10 -10zM153 681q-10 0 -10 10t10 10t10 -10t-10 -10zM188 681
q-10 0 -10 10t10 10t10 -10t-10 -10zM223 681q-10 0 -10 10t10 10t10 -10t-10 -10zM259 681q-10 0 -10 10t10 10t10 -10t-10 -10zM295 681q-10 0 -10 10t10 10t10 -10t-10 -10zM330 681q-10 0 -10 10t10 10t10 -10t-10 -10zM365 681q-10 0 -10 10t10 10t10 -10t-10 -10z
M401 681q-10 0 -10 10t10 10t10 -10t-10 -10zM436 681q-10 0 -10 10t10 10t10 -10t-10 -10zM472 681q-10 0 -10 10t10 10t10 -10t-10 -10zM508 681q-10 0 -10 10t10 10t10 -10t-10 -10zM543 681q-10 0 -10 10t10 10t10 -10t-10 -10zM149 350q-10 0 -10 10t10 10t10 -10
t-10 -10zM184 350q-10 0 -10 10t10 10t10 -10t-10 -10zM219 350q-10 0 -10 10t10 10t10 -10t-10 -10zM255 350q-10 0 -10 10t10 10t10 -10t-10 -10zM291 350q-10 0 -10 10t10 10t10 -10t-10 -10zM326 350q-10 0 -10 10t10 10t10 -10t-10 -10zM361 350q-10 0 -10 10t10 10
t10 -10t-10 -10zM397 350q-10 0 -10 10t10 10t10 -10t-10 -10zM432 350q-10 0 -10 10t10 10t10 -10t-10 -10zM468 350q-10 0 -10 10t10 10t10 -10t-10 -10zM504 350q-10 0 -10 10t10 10t10 -10t-10 -10zM151 7q-10 0 -10 10t10 10t10 -10t-10 -10zM186 7q-10 0 -10 10t10 10
t10 -10t-10 -10zM221 7q-10 0 -10 10t10 10t10 -10t-10 -10zM257 7q-10 0 -10 10t10 10t10 -10t-10 -10zM293 7q-10 0 -10 10t10 10t10 -10t-10 -10zM328 7q-10 0 -10 10t10 10t10 -10t-10 -10zM363 7q-10 0 -10 10t10 10t10 -10t-10 -10zM399 7q-10 0 -10 10t10 10t10 -10
t-10 -10zM434 7q-10 0 -10 10t10 10t10 -10t-10 -10zM470 7q-10 0 -10 10t10 10t10 -10t-10 -10zM506 7q-10 0 -10 10t10 10t10 -10t-10 -10zM541 7q-10 0 -10 10t10 10t10 -10t-10 -10z" />
    <glyph glyph-name="Ebreve" unicode="&#x114;" horiz-adv-x="617" 
d="M116 211q-10 0 -10 10t10 10t10 -10t-10 -10zM116 170q-10 0 -10 10t10 10t10 -10t-10 -10zM116 129q-10 0 -10 10t10 10t10 -10t-10 -10zM116 88q-10 0 -10 10t10 10t10 -10t-10 -10zM116 529q-10 0 -10 10t10 10t10 -10t-10 -10zM116 490q-10 0 -10 10t10 10t10 -10
t-10 -10zM116 447q-10 0 -10 10t10 10t10 -10t-10 -10zM116 367q-10 0 -10 10t10 10t10 -10t-10 -10zM116 330q-10 0 -10 10t10 10t10 -10t-10 -10zM116 290q-10 0 -10 10t10 10t10 -10t-10 -10zM116 250q-10 0 -10 10t10 10t10 -10t-10 -10zM116 680q-10 0 -10 10t10 10
t10 -10t-10 -10zM116 643q-10 0 -10 10t10 10t10 -10t-10 -10zM116 605q-10 0 -10 10t10 10t10 -10t-10 -10zM116 569q-10 0 -10 10t10 10t10 -10t-10 -10zM116 407q-10 0 -10 10t10 10t10 -10t-10 -10zM116 48q-10 0 -10 10t10 10t10 -10t-10 -10zM116 8q-10 0 -10 10
t10 10t10 -10t-10 -10zM153 681q-10 0 -10 10t10 10t10 -10t-10 -10zM188 681q-10 0 -10 10t10 10t10 -10t-10 -10zM223 681q-10 0 -10 10t10 10t10 -10t-10 -10zM259 681q-10 0 -10 10t10 10t10 -10t-10 -10zM295 681q-10 0 -10 10t10 10t10 -10t-10 -10zM330 681
q-10 0 -10 10t10 10t10 -10t-10 -10zM365 681q-10 0 -10 10t10 10t10 -10t-10 -10zM401 681q-10 0 -10 10t10 10t10 -10t-10 -10zM436 681q-10 0 -10 10t10 10t10 -10t-10 -10zM472 681q-10 0 -10 10t10 10t10 -10t-10 -10zM508 681q-10 0 -10 10t10 10t10 -10t-10 -10z
M543 681q-10 0 -10 10t10 10t10 -10t-10 -10zM149 350q-10 0 -10 10t10 10t10 -10t-10 -10zM184 350q-10 0 -10 10t10 10t10 -10t-10 -10zM219 350q-10 0 -10 10t10 10t10 -10t-10 -10zM255 350q-10 0 -10 10t10 10t10 -10t-10 -10zM291 350q-10 0 -10 10t10 10t10 -10
t-10 -10zM326 350q-10 0 -10 10t10 10t10 -10t-10 -10zM361 350q-10 0 -10 10t10 10t10 -10t-10 -10zM397 350q-10 0 -10 10t10 10t10 -10t-10 -10zM432 350q-10 0 -10 10t10 10t10 -10t-10 -10zM468 350q-10 0 -10 10t10 10t10 -10t-10 -10zM504 350q-10 0 -10 10t10 10
t10 -10t-10 -10zM151 7q-10 0 -10 10t10 10t10 -10t-10 -10zM186 7q-10 0 -10 10t10 10t10 -10t-10 -10zM221 7q-10 0 -10 10t10 10t10 -10t-10 -10zM257 7q-10 0 -10 10t10 10t10 -10t-10 -10zM293 7q-10 0 -10 10t10 10t10 -10t-10 -10zM328 7q-10 0 -10 10t10 10t10 -10
t-10 -10zM363 7q-10 0 -10 10t10 10t10 -10t-10 -10zM399 7q-10 0 -10 10t10 10t10 -10t-10 -10zM434 7q-10 0 -10 10t10 10t10 -10t-10 -10zM470 7q-10 0 -10 10t10 10t10 -10t-10 -10zM506 7q-10 0 -10 10t10 10t10 -10t-10 -10zM541 7q-10 0 -10 10t10 10t10 -10t-10 -10
zM277 900q-10 0 -10 10t10 10t10 -10t-10 -10zM288 868q-10 0 -10 10t10 10t10 -10t-10 -10zM311 845q-10 0 -10 10t10 10t10 -10t-10 -10zM345 835q-10 0 -10 10t10 10t10 -10t-10 -10zM413 900q-10 0 -10 10t10 10t10 -10t-10 -10zM402 868q-10 0 -10 10t10 10t10 -10
t-10 -10zM379 845q-10 0 -10 10t10 10t10 -10t-10 -10z" />
    <glyph glyph-name="Ecaron" unicode="&#x11a;" horiz-adv-x="617" 
d="M343 848q10 0 10 -10t-10 -10t-10 10t10 10zM371 868q10 0 10 -10t-10 -10t-10 10t10 10zM397 889q10 0 10 -10t-10 -10t-10 10t10 10zM423 909q10 0 10 -10t-10 -10t-10 10t10 10zM315 868q10 0 10 -10t-10 -10t-10 10t10 10zM289 889q10 0 10 -10t-10 -10t-10 10t10 10
zM263 909q10 0 10 -10t-10 -10t-10 10t10 10zM116 211q-10 0 -10 10t10 10t10 -10t-10 -10zM116 170q-10 0 -10 10t10 10t10 -10t-10 -10zM116 129q-10 0 -10 10t10 10t10 -10t-10 -10zM116 88q-10 0 -10 10t10 10t10 -10t-10 -10zM116 529q-10 0 -10 10t10 10t10 -10
t-10 -10zM116 490q-10 0 -10 10t10 10t10 -10t-10 -10zM116 447q-10 0 -10 10t10 10t10 -10t-10 -10zM116 367q-10 0 -10 10t10 10t10 -10t-10 -10zM116 330q-10 0 -10 10t10 10t10 -10t-10 -10zM116 290q-10 0 -10 10t10 10t10 -10t-10 -10zM116 250q-10 0 -10 10t10 10
t10 -10t-10 -10zM116 680q-10 0 -10 10t10 10t10 -10t-10 -10zM116 643q-10 0 -10 10t10 10t10 -10t-10 -10zM116 605q-10 0 -10 10t10 10t10 -10t-10 -10zM116 569q-10 0 -10 10t10 10t10 -10t-10 -10zM116 407q-10 0 -10 10t10 10t10 -10t-10 -10zM116 48q-10 0 -10 10
t10 10t10 -10t-10 -10zM116 8q-10 0 -10 10t10 10t10 -10t-10 -10zM153 681q-10 0 -10 10t10 10t10 -10t-10 -10zM188 681q-10 0 -10 10t10 10t10 -10t-10 -10zM223 681q-10 0 -10 10t10 10t10 -10t-10 -10zM259 681q-10 0 -10 10t10 10t10 -10t-10 -10zM295 681
q-10 0 -10 10t10 10t10 -10t-10 -10zM330 681q-10 0 -10 10t10 10t10 -10t-10 -10zM365 681q-10 0 -10 10t10 10t10 -10t-10 -10zM401 681q-10 0 -10 10t10 10t10 -10t-10 -10zM436 681q-10 0 -10 10t10 10t10 -10t-10 -10zM472 681q-10 0 -10 10t10 10t10 -10t-10 -10z
M508 681q-10 0 -10 10t10 10t10 -10t-10 -10zM543 681q-10 0 -10 10t10 10t10 -10t-10 -10zM149 350q-10 0 -10 10t10 10t10 -10t-10 -10zM184 350q-10 0 -10 10t10 10t10 -10t-10 -10zM219 350q-10 0 -10 10t10 10t10 -10t-10 -10zM255 350q-10 0 -10 10t10 10t10 -10
t-10 -10zM291 350q-10 0 -10 10t10 10t10 -10t-10 -10zM326 350q-10 0 -10 10t10 10t10 -10t-10 -10zM361 350q-10 0 -10 10t10 10t10 -10t-10 -10zM397 350q-10 0 -10 10t10 10t10 -10t-10 -10zM432 350q-10 0 -10 10t10 10t10 -10t-10 -10zM468 350q-10 0 -10 10t10 10
t10 -10t-10 -10zM504 350q-10 0 -10 10t10 10t10 -10t-10 -10zM151 7q-10 0 -10 10t10 10t10 -10t-10 -10zM186 7q-10 0 -10 10t10 10t10 -10t-10 -10zM221 7q-10 0 -10 10t10 10t10 -10t-10 -10zM257 7q-10 0 -10 10t10 10t10 -10t-10 -10zM293 7q-10 0 -10 10t10 10
t10 -10t-10 -10zM328 7q-10 0 -10 10t10 10t10 -10t-10 -10zM363 7q-10 0 -10 10t10 10t10 -10t-10 -10zM399 7q-10 0 -10 10t10 10t10 -10t-10 -10zM434 7q-10 0 -10 10t10 10t10 -10t-10 -10zM470 7q-10 0 -10 10t10 10t10 -10t-10 -10zM506 7q-10 0 -10 10t10 10t10 -10
t-10 -10zM541 7q-10 0 -10 10t10 10t10 -10t-10 -10z" />
    <glyph glyph-name="Ecircumflex" unicode="&#xca;" horiz-adv-x="617" 
d="M343 898q-10 0 -10 10t10 10t10 -10t-10 -10zM371 878q-10 0 -10 10t10 10t10 -10t-10 -10zM397 857q-10 0 -10 10t10 10t10 -10t-10 -10zM423 837q-10 0 -10 10t10 10t10 -10t-10 -10zM315 878q-10 0 -10 10t10 10t10 -10t-10 -10zM289 857q-10 0 -10 10t10 10t10 -10
t-10 -10zM263 837q-10 0 -10 10t10 10t10 -10t-10 -10zM116 211q-10 0 -10 10t10 10t10 -10t-10 -10zM116 170q-10 0 -10 10t10 10t10 -10t-10 -10zM116 129q-10 0 -10 10t10 10t10 -10t-10 -10zM116 88q-10 0 -10 10t10 10t10 -10t-10 -10zM116 529q-10 0 -10 10t10 10
t10 -10t-10 -10zM116 490q-10 0 -10 10t10 10t10 -10t-10 -10zM116 447q-10 0 -10 10t10 10t10 -10t-10 -10zM116 367q-10 0 -10 10t10 10t10 -10t-10 -10zM116 330q-10 0 -10 10t10 10t10 -10t-10 -10zM116 290q-10 0 -10 10t10 10t10 -10t-10 -10zM116 250q-10 0 -10 10
t10 10t10 -10t-10 -10zM116 680q-10 0 -10 10t10 10t10 -10t-10 -10zM116 643q-10 0 -10 10t10 10t10 -10t-10 -10zM116 605q-10 0 -10 10t10 10t10 -10t-10 -10zM116 569q-10 0 -10 10t10 10t10 -10t-10 -10zM116 407q-10 0 -10 10t10 10t10 -10t-10 -10zM116 48
q-10 0 -10 10t10 10t10 -10t-10 -10zM116 8q-10 0 -10 10t10 10t10 -10t-10 -10zM153 681q-10 0 -10 10t10 10t10 -10t-10 -10zM188 681q-10 0 -10 10t10 10t10 -10t-10 -10zM223 681q-10 0 -10 10t10 10t10 -10t-10 -10zM259 681q-10 0 -10 10t10 10t10 -10t-10 -10z
M295 681q-10 0 -10 10t10 10t10 -10t-10 -10zM330 681q-10 0 -10 10t10 10t10 -10t-10 -10zM365 681q-10 0 -10 10t10 10t10 -10t-10 -10zM401 681q-10 0 -10 10t10 10t10 -10t-10 -10zM436 681q-10 0 -10 10t10 10t10 -10t-10 -10zM472 681q-10 0 -10 10t10 10t10 -10
t-10 -10zM508 681q-10 0 -10 10t10 10t10 -10t-10 -10zM543 681q-10 0 -10 10t10 10t10 -10t-10 -10zM149 350q-10 0 -10 10t10 10t10 -10t-10 -10zM184 350q-10 0 -10 10t10 10t10 -10t-10 -10zM219 350q-10 0 -10 10t10 10t10 -10t-10 -10zM255 350q-10 0 -10 10t10 10
t10 -10t-10 -10zM291 350q-10 0 -10 10t10 10t10 -10t-10 -10zM326 350q-10 0 -10 10t10 10t10 -10t-10 -10zM361 350q-10 0 -10 10t10 10t10 -10t-10 -10zM397 350q-10 0 -10 10t10 10t10 -10t-10 -10zM432 350q-10 0 -10 10t10 10t10 -10t-10 -10zM468 350q-10 0 -10 10
t10 10t10 -10t-10 -10zM504 350q-10 0 -10 10t10 10t10 -10t-10 -10zM151 7q-10 0 -10 10t10 10t10 -10t-10 -10zM186 7q-10 0 -10 10t10 10t10 -10t-10 -10zM221 7q-10 0 -10 10t10 10t10 -10t-10 -10zM257 7q-10 0 -10 10t10 10t10 -10t-10 -10zM293 7q-10 0 -10 10t10 10
t10 -10t-10 -10zM328 7q-10 0 -10 10t10 10t10 -10t-10 -10zM363 7q-10 0 -10 10t10 10t10 -10t-10 -10zM399 7q-10 0 -10 10t10 10t10 -10t-10 -10zM434 7q-10 0 -10 10t10 10t10 -10t-10 -10zM470 7q-10 0 -10 10t10 10t10 -10t-10 -10zM506 7q-10 0 -10 10t10 10t10 -10
t-10 -10zM541 7q-10 0 -10 10t10 10t10 -10t-10 -10z" />
    <glyph glyph-name="Edieresis" unicode="&#xcb;" horiz-adv-x="617" 
d="M281 834q-10 0 -10 10t10 10t10 -10t-10 -10zM281 867q-10 0 -10 10t10 10t10 -10t-10 -10zM281 900q-10 0 -10 10t10 10t10 -10t-10 -10zM407 834q-10 0 -10 10t10 10t10 -10t-10 -10zM407 867q-10 0 -10 10t10 10t10 -10t-10 -10zM407 900q-10 0 -10 10t10 10t10 -10
t-10 -10zM116 211q-10 0 -10 10t10 10t10 -10t-10 -10zM116 170q-10 0 -10 10t10 10t10 -10t-10 -10zM116 129q-10 0 -10 10t10 10t10 -10t-10 -10zM116 88q-10 0 -10 10t10 10t10 -10t-10 -10zM116 529q-10 0 -10 10t10 10t10 -10t-10 -10zM116 490q-10 0 -10 10t10 10
t10 -10t-10 -10zM116 447q-10 0 -10 10t10 10t10 -10t-10 -10zM116 367q-10 0 -10 10t10 10t10 -10t-10 -10zM116 330q-10 0 -10 10t10 10t10 -10t-10 -10zM116 290q-10 0 -10 10t10 10t10 -10t-10 -10zM116 250q-10 0 -10 10t10 10t10 -10t-10 -10zM116 680q-10 0 -10 10
t10 10t10 -10t-10 -10zM116 643q-10 0 -10 10t10 10t10 -10t-10 -10zM116 605q-10 0 -10 10t10 10t10 -10t-10 -10zM116 569q-10 0 -10 10t10 10t10 -10t-10 -10zM116 407q-10 0 -10 10t10 10t10 -10t-10 -10zM116 48q-10 0 -10 10t10 10t10 -10t-10 -10zM116 8
q-10 0 -10 10t10 10t10 -10t-10 -10zM153 681q-10 0 -10 10t10 10t10 -10t-10 -10zM188 681q-10 0 -10 10t10 10t10 -10t-10 -10zM223 681q-10 0 -10 10t10 10t10 -10t-10 -10zM259 681q-10 0 -10 10t10 10t10 -10t-10 -10zM295 681q-10 0 -10 10t10 10t10 -10t-10 -10z
M330 681q-10 0 -10 10t10 10t10 -10t-10 -10zM365 681q-10 0 -10 10t10 10t10 -10t-10 -10zM401 681q-10 0 -10 10t10 10t10 -10t-10 -10zM436 681q-10 0 -10 10t10 10t10 -10t-10 -10zM472 681q-10 0 -10 10t10 10t10 -10t-10 -10zM508 681q-10 0 -10 10t10 10t10 -10
t-10 -10zM543 681q-10 0 -10 10t10 10t10 -10t-10 -10zM149 350q-10 0 -10 10t10 10t10 -10t-10 -10zM184 350q-10 0 -10 10t10 10t10 -10t-10 -10zM219 350q-10 0 -10 10t10 10t10 -10t-10 -10zM255 350q-10 0 -10 10t10 10t10 -10t-10 -10zM291 350q-10 0 -10 10t10 10
t10 -10t-10 -10zM326 350q-10 0 -10 10t10 10t10 -10t-10 -10zM361 350q-10 0 -10 10t10 10t10 -10t-10 -10zM397 350q-10 0 -10 10t10 10t10 -10t-10 -10zM432 350q-10 0 -10 10t10 10t10 -10t-10 -10zM468 350q-10 0 -10 10t10 10t10 -10t-10 -10zM504 350q-10 0 -10 10
t10 10t10 -10t-10 -10zM151 7q-10 0 -10 10t10 10t10 -10t-10 -10zM186 7q-10 0 -10 10t10 10t10 -10t-10 -10zM221 7q-10 0 -10 10t10 10t10 -10t-10 -10zM257 7q-10 0 -10 10t10 10t10 -10t-10 -10zM293 7q-10 0 -10 10t10 10t10 -10t-10 -10zM328 7q-10 0 -10 10t10 10
t10 -10t-10 -10zM363 7q-10 0 -10 10t10 10t10 -10t-10 -10zM399 7q-10 0 -10 10t10 10t10 -10t-10 -10zM434 7q-10 0 -10 10t10 10t10 -10t-10 -10zM470 7q-10 0 -10 10t10 10t10 -10t-10 -10zM506 7q-10 0 -10 10t10 10t10 -10t-10 -10zM541 7q-10 0 -10 10t10 10t10 -10
t-10 -10z" />
    <glyph glyph-name="Edotaccent" unicode="&#x116;" horiz-adv-x="617" 
d="M116 211q-10 0 -10 10t10 10t10 -10t-10 -10zM116 170q-10 0 -10 10t10 10t10 -10t-10 -10zM116 129q-10 0 -10 10t10 10t10 -10t-10 -10zM116 88q-10 0 -10 10t10 10t10 -10t-10 -10zM116 529q-10 0 -10 10t10 10t10 -10t-10 -10zM116 490q-10 0 -10 10t10 10t10 -10
t-10 -10zM116 447q-10 0 -10 10t10 10t10 -10t-10 -10zM116 367q-10 0 -10 10t10 10t10 -10t-10 -10zM116 330q-10 0 -10 10t10 10t10 -10t-10 -10zM116 290q-10 0 -10 10t10 10t10 -10t-10 -10zM116 250q-10 0 -10 10t10 10t10 -10t-10 -10zM116 680q-10 0 -10 10t10 10
t10 -10t-10 -10zM116 643q-10 0 -10 10t10 10t10 -10t-10 -10zM116 605q-10 0 -10 10t10 10t10 -10t-10 -10zM116 569q-10 0 -10 10t10 10t10 -10t-10 -10zM116 407q-10 0 -10 10t10 10t10 -10t-10 -10zM116 48q-10 0 -10 10t10 10t10 -10t-10 -10zM116 8q-10 0 -10 10
t10 10t10 -10t-10 -10zM153 681q-10 0 -10 10t10 10t10 -10t-10 -10zM188 681q-10 0 -10 10t10 10t10 -10t-10 -10zM223 681q-10 0 -10 10t10 10t10 -10t-10 -10zM259 681q-10 0 -10 10t10 10t10 -10t-10 -10zM295 681q-10 0 -10 10t10 10t10 -10t-10 -10zM330 681
q-10 0 -10 10t10 10t10 -10t-10 -10zM365 681q-10 0 -10 10t10 10t10 -10t-10 -10zM401 681q-10 0 -10 10t10 10t10 -10t-10 -10zM436 681q-10 0 -10 10t10 10t10 -10t-10 -10zM472 681q-10 0 -10 10t10 10t10 -10t-10 -10zM508 681q-10 0 -10 10t10 10t10 -10t-10 -10z
M543 681q-10 0 -10 10t10 10t10 -10t-10 -10zM149 350q-10 0 -10 10t10 10t10 -10t-10 -10zM184 350q-10 0 -10 10t10 10t10 -10t-10 -10zM219 350q-10 0 -10 10t10 10t10 -10t-10 -10zM255 350q-10 0 -10 10t10 10t10 -10t-10 -10zM291 350q-10 0 -10 10t10 10t10 -10
t-10 -10zM326 350q-10 0 -10 10t10 10t10 -10t-10 -10zM361 350q-10 0 -10 10t10 10t10 -10t-10 -10zM397 350q-10 0 -10 10t10 10t10 -10t-10 -10zM432 350q-10 0 -10 10t10 10t10 -10t-10 -10zM468 350q-10 0 -10 10t10 10t10 -10t-10 -10zM504 350q-10 0 -10 10t10 10
t10 -10t-10 -10zM151 7q-10 0 -10 10t10 10t10 -10t-10 -10zM186 7q-10 0 -10 10t10 10t10 -10t-10 -10zM221 7q-10 0 -10 10t10 10t10 -10t-10 -10zM257 7q-10 0 -10 10t10 10t10 -10t-10 -10zM293 7q-10 0 -10 10t10 10t10 -10t-10 -10zM328 7q-10 0 -10 10t10 10t10 -10
t-10 -10zM363 7q-10 0 -10 10t10 10t10 -10t-10 -10zM399 7q-10 0 -10 10t10 10t10 -10t-10 -10zM434 7q-10 0 -10 10t10 10t10 -10t-10 -10zM470 7q-10 0 -10 10t10 10t10 -10t-10 -10zM506 7q-10 0 -10 10t10 10t10 -10t-10 -10zM541 7q-10 0 -10 10t10 10t10 -10t-10 -10
zM343 834q-10 0 -10 10t10 10t10 -10t-10 -10zM343 867q-10 0 -10 10t10 10t10 -10t-10 -10zM343 900q-10 0 -10 10t10 10t10 -10t-10 -10z" />
    <glyph glyph-name="Egrave" unicode="&#xc8;" horiz-adv-x="617" 
d="M116 211q-10 0 -10 10t10 10t10 -10t-10 -10zM116 170q-10 0 -10 10t10 10t10 -10t-10 -10zM116 129q-10 0 -10 10t10 10t10 -10t-10 -10zM116 88q-10 0 -10 10t10 10t10 -10t-10 -10zM116 529q-10 0 -10 10t10 10t10 -10t-10 -10zM116 490q-10 0 -10 10t10 10t10 -10
t-10 -10zM116 447q-10 0 -10 10t10 10t10 -10t-10 -10zM116 367q-10 0 -10 10t10 10t10 -10t-10 -10zM116 330q-10 0 -10 10t10 10t10 -10t-10 -10zM116 290q-10 0 -10 10t10 10t10 -10t-10 -10zM116 250q-10 0 -10 10t10 10t10 -10t-10 -10zM116 680q-10 0 -10 10t10 10
t10 -10t-10 -10zM116 643q-10 0 -10 10t10 10t10 -10t-10 -10zM116 605q-10 0 -10 10t10 10t10 -10t-10 -10zM116 569q-10 0 -10 10t10 10t10 -10t-10 -10zM116 407q-10 0 -10 10t10 10t10 -10t-10 -10zM116 48q-10 0 -10 10t10 10t10 -10t-10 -10zM116 8q-10 0 -10 10
t10 10t10 -10t-10 -10zM153 681q-10 0 -10 10t10 10t10 -10t-10 -10zM188 681q-10 0 -10 10t10 10t10 -10t-10 -10zM223 681q-10 0 -10 10t10 10t10 -10t-10 -10zM259 681q-10 0 -10 10t10 10t10 -10t-10 -10zM295 681q-10 0 -10 10t10 10t10 -10t-10 -10zM330 681
q-10 0 -10 10t10 10t10 -10t-10 -10zM365 681q-10 0 -10 10t10 10t10 -10t-10 -10zM401 681q-10 0 -10 10t10 10t10 -10t-10 -10zM436 681q-10 0 -10 10t10 10t10 -10t-10 -10zM472 681q-10 0 -10 10t10 10t10 -10t-10 -10zM508 681q-10 0 -10 10t10 10t10 -10t-10 -10z
M543 681q-10 0 -10 10t10 10t10 -10t-10 -10zM149 350q-10 0 -10 10t10 10t10 -10t-10 -10zM184 350q-10 0 -10 10t10 10t10 -10t-10 -10zM219 350q-10 0 -10 10t10 10t10 -10t-10 -10zM255 350q-10 0 -10 10t10 10t10 -10t-10 -10zM291 350q-10 0 -10 10t10 10t10 -10
t-10 -10zM326 350q-10 0 -10 10t10 10t10 -10t-10 -10zM361 350q-10 0 -10 10t10 10t10 -10t-10 -10zM397 350q-10 0 -10 10t10 10t10 -10t-10 -10zM432 350q-10 0 -10 10t10 10t10 -10t-10 -10zM468 350q-10 0 -10 10t10 10t10 -10t-10 -10zM504 350q-10 0 -10 10t10 10
t10 -10t-10 -10zM151 7q-10 0 -10 10t10 10t10 -10t-10 -10zM186 7q-10 0 -10 10t10 10t10 -10t-10 -10zM221 7q-10 0 -10 10t10 10t10 -10t-10 -10zM257 7q-10 0 -10 10t10 10t10 -10t-10 -10zM293 7q-10 0 -10 10t10 10t10 -10t-10 -10zM328 7q-10 0 -10 10t10 10t10 -10
t-10 -10zM363 7q-10 0 -10 10t10 10t10 -10t-10 -10zM399 7q-10 0 -10 10t10 10t10 -10t-10 -10zM434 7q-10 0 -10 10t10 10t10 -10t-10 -10zM470 7q-10 0 -10 10t10 10t10 -10t-10 -10zM506 7q-10 0 -10 10t10 10t10 -10t-10 -10zM541 7q-10 0 -10 10t10 10t10 -10t-10 -10
zM359 828q-10 0 -10 10t10 10t10 -10t-10 -10zM338 852q-10 0 -10 10t10 10t10 -10t-10 -10zM317 877q-10 0 -10 10t10 10t10 -10t-10 -10zM296 902q-10 0 -10 10t10 10t10 -10t-10 -10z" />
    <glyph glyph-name="Emacron" unicode="&#x112;" horiz-adv-x="617" 
d="M116 211q-10 0 -10 10t10 10t10 -10t-10 -10zM116 170q-10 0 -10 10t10 10t10 -10t-10 -10zM116 129q-10 0 -10 10t10 10t10 -10t-10 -10zM116 88q-10 0 -10 10t10 10t10 -10t-10 -10zM116 529q-10 0 -10 10t10 10t10 -10t-10 -10zM116 490q-10 0 -10 10t10 10t10 -10
t-10 -10zM116 447q-10 0 -10 10t10 10t10 -10t-10 -10zM116 367q-10 0 -10 10t10 10t10 -10t-10 -10zM116 330q-10 0 -10 10t10 10t10 -10t-10 -10zM116 290q-10 0 -10 10t10 10t10 -10t-10 -10zM116 250q-10 0 -10 10t10 10t10 -10t-10 -10zM116 680q-10 0 -10 10t10 10
t10 -10t-10 -10zM116 643q-10 0 -10 10t10 10t10 -10t-10 -10zM116 605q-10 0 -10 10t10 10t10 -10t-10 -10zM116 569q-10 0 -10 10t10 10t10 -10t-10 -10zM116 407q-10 0 -10 10t10 10t10 -10t-10 -10zM116 48q-10 0 -10 10t10 10t10 -10t-10 -10zM116 8q-10 0 -10 10
t10 10t10 -10t-10 -10zM153 681q-10 0 -10 10t10 10t10 -10t-10 -10zM188 681q-10 0 -10 10t10 10t10 -10t-10 -10zM223 681q-10 0 -10 10t10 10t10 -10t-10 -10zM259 681q-10 0 -10 10t10 10t10 -10t-10 -10zM295 681q-10 0 -10 10t10 10t10 -10t-10 -10zM330 681
q-10 0 -10 10t10 10t10 -10t-10 -10zM365 681q-10 0 -10 10t10 10t10 -10t-10 -10zM401 681q-10 0 -10 10t10 10t10 -10t-10 -10zM436 681q-10 0 -10 10t10 10t10 -10t-10 -10zM472 681q-10 0 -10 10t10 10t10 -10t-10 -10zM508 681q-10 0 -10 10t10 10t10 -10t-10 -10z
M543 681q-10 0 -10 10t10 10t10 -10t-10 -10zM149 350q-10 0 -10 10t10 10t10 -10t-10 -10zM184 350q-10 0 -10 10t10 10t10 -10t-10 -10zM219 350q-10 0 -10 10t10 10t10 -10t-10 -10zM255 350q-10 0 -10 10t10 10t10 -10t-10 -10zM291 350q-10 0 -10 10t10 10t10 -10
t-10 -10zM326 350q-10 0 -10 10t10 10t10 -10t-10 -10zM361 350q-10 0 -10 10t10 10t10 -10t-10 -10zM397 350q-10 0 -10 10t10 10t10 -10t-10 -10zM432 350q-10 0 -10 10t10 10t10 -10t-10 -10zM468 350q-10 0 -10 10t10 10t10 -10t-10 -10zM504 350q-10 0 -10 10t10 10
t10 -10t-10 -10zM151 7q-10 0 -10 10t10 10t10 -10t-10 -10zM186 7q-10 0 -10 10t10 10t10 -10t-10 -10zM221 7q-10 0 -10 10t10 10t10 -10t-10 -10zM257 7q-10 0 -10 10t10 10t10 -10t-10 -10zM293 7q-10 0 -10 10t10 10t10 -10t-10 -10zM328 7q-10 0 -10 10t10 10t10 -10
t-10 -10zM363 7q-10 0 -10 10t10 10t10 -10t-10 -10zM399 7q-10 0 -10 10t10 10t10 -10t-10 -10zM434 7q-10 0 -10 10t10 10t10 -10t-10 -10zM470 7q-10 0 -10 10t10 10t10 -10t-10 -10zM506 7q-10 0 -10 10t10 10t10 -10t-10 -10zM541 7q-10 0 -10 10t10 10t10 -10t-10 -10
zM214 872q-10 0 -10 10t10 10t10 -10t-10 -10zM251 872q-10 0 -10 10t10 10t10 -10t-10 -10zM288 872q-10 0 -10 10t10 10t10 -10t-10 -10zM325 872q-10 0 -10 10t10 10t10 -10t-10 -10zM362 872q-10 0 -10 10t10 10t10 -10t-10 -10zM399 872q-10 0 -10 10t10 10t10 -10
t-10 -10zM436 872q-10 0 -10 10t10 10t10 -10t-10 -10zM473 872q-10 0 -10 10t10 10t10 -10t-10 -10z" />
    <glyph glyph-name="Eng" unicode="&#x14a;" horiz-adv-x="776" 
d="M112 208q-10 0 -10 10t10 10t10 -10t-10 -10zM112 167q-10 0 -10 10t10 10t10 -10t-10 -10zM112 126q-10 0 -10 10t10 10t10 -10t-10 -10zM112 85q-10 0 -10 10t10 10t10 -10t-10 -10zM112 526q-10 0 -10 10t10 10t10 -10t-10 -10zM112 487q-10 0 -10 10t10 10t10 -10
t-10 -10zM112 444q-10 0 -10 10t10 10t10 -10t-10 -10zM112 364q-10 0 -10 10t10 10t10 -10t-10 -10zM112 327q-10 0 -10 10t10 10t10 -10t-10 -10zM112 287q-10 0 -10 10t10 10t10 -10t-10 -10zM112 247q-10 0 -10 10t10 10t10 -10t-10 -10zM112 680q-10 0 -10 10t10 10
t10 -10t-10 -10zM112 640q-10 0 -10 10t10 10t10 -10t-10 -10zM112 602q-10 0 -10 10t10 10t10 -10t-10 -10zM112 566q-10 0 -10 10t10 10t10 -10t-10 -10zM112 404q-10 0 -10 10t10 10t10 -10t-10 -10zM112 45q-10 0 -10 10t10 10t10 -10t-10 -10zM112 5q-10 0 -10 10
t10 10t10 -10t-10 -10zM162 631q-10 0 -10 10t10 10t10 -10t-10 -10zM138 661q-10 0 -10 10t10 10t10 -10t-10 -10zM186 601q-10 0 -10 10t10 10t10 -10t-10 -10zM210 571q-10 0 -10 10t10 10t10 -10t-10 -10zM234 541q-10 0 -10 10t10 10t10 -10t-10 -10zM258 511
q-10 0 -10 10t10 10t10 -10t-10 -10zM282 481q-10 0 -10 10t10 10t10 -10t-10 -10zM306 451q-10 0 -10 10t10 10t10 -10t-10 -10zM330 421q-10 0 -10 10t10 10t10 -10t-10 -10zM354 391q-10 0 -10 10t10 10t10 -10t-10 -10zM378 361q-10 0 -10 10t10 10t10 -10t-10 -10z
M402 331q-10 0 -10 10t10 10t10 -10t-10 -10zM426 301q-10 0 -10 10t10 10t10 -10t-10 -10zM450 271q-10 0 -10 10t10 10t10 -10t-10 -10zM474 241q-10 0 -10 10t10 10t10 -10t-10 -10zM498 211q-10 0 -10 10t10 10t10 -10t-10 -10zM522 181q-10 0 -10 10t10 10t10 -10
t-10 -10zM546 151q-10 0 -10 10t10 10t10 -10t-10 -10zM570 121q-10 0 -10 10t10 10t10 -10t-10 -10zM594 91q-10 0 -10 10t10 10t10 -10t-10 -10zM618 61q-10 0 -10 10t10 10t10 -10t-10 -10zM642 31q-10 0 -10 10t10 10t10 -10t-10 -10zM666 208q-10 0 -10 10t10 10
t10 -10t-10 -10zM666 167q-10 0 -10 10t10 10t10 -10t-10 -10zM666 126q-10 0 -10 10t10 10t10 -10t-10 -10zM666 85q-10 0 -10 10t10 10t10 -10t-10 -10zM666 526q-10 0 -10 10t10 10t10 -10t-10 -10zM666 487q-10 0 -10 10t10 10t10 -10t-10 -10zM666 444q-10 0 -10 10
t10 10t10 -10t-10 -10zM666 364q-10 0 -10 10t10 10t10 -10t-10 -10zM666 327q-10 0 -10 10t10 10t10 -10t-10 -10zM666 287q-10 0 -10 10t10 10t10 -10t-10 -10zM666 247q-10 0 -10 10t10 10t10 -10t-10 -10zM666 680q-10 0 -10 10t10 10t10 -10t-10 -10zM666 640
q-10 0 -10 10t10 10t10 -10t-10 -10zM666 602q-10 0 -10 10t10 10t10 -10t-10 -10zM666 566q-10 0 -10 10t10 10t10 -10t-10 -10zM666 404q-10 0 -10 10t10 10t10 -10t-10 -10zM666 45q-10 0 -10 10t10 10t10 -10t-10 -10zM666 5q-10 0 -10 10t10 10t10 -10t-10 -10z
M666 -34q-10 0 -10 10t10 10t10 -10t-10 -10zM660 -74q-10 0 -10 10t10 10t10 -10t-10 -10zM642 -112q-10 0 -10 10t10 10t10 -10t-10 -10zM614 -141q-10 0 -10 10t10 10t10 -10t-10 -10zM577 -161q-10 0 -10 10t10 10t10 -10t-10 -10zM457 -143q-10 0 -10 10t10 10t10 -10
t-10 -10zM494 -161q-10 0 -10 10t10 10t10 -10t-10 -10zM535 -167q-10 0 -10 10t10 10t10 -10t-10 -10z" />
    <glyph glyph-name="Eogonek" unicode="&#x118;" horiz-adv-x="617" 
d="M308 -27q-10 0 -10 10t10 10t10 -10t-10 -10zM284 -48q-10 0 -10 10t10 10t10 -10t-10 -10zM264 -74q-10 0 -10 10t10 10t10 -10t-10 -10zM255 -107q-10 0 -10 10t10 10t10 -10t-10 -10zM265 -140q-10 0 -10 10t10 10t10 -10t-10 -10zM293 -158q-10 0 -10 10t10 10
t10 -10t-10 -10zM116 211q-10 0 -10 10t10 10t10 -10t-10 -10zM116 170q-10 0 -10 10t10 10t10 -10t-10 -10zM116 129q-10 0 -10 10t10 10t10 -10t-10 -10zM116 88q-10 0 -10 10t10 10t10 -10t-10 -10zM116 529q-10 0 -10 10t10 10t10 -10t-10 -10zM116 490q-10 0 -10 10
t10 10t10 -10t-10 -10zM116 447q-10 0 -10 10t10 10t10 -10t-10 -10zM116 367q-10 0 -10 10t10 10t10 -10t-10 -10zM116 330q-10 0 -10 10t10 10t10 -10t-10 -10zM116 290q-10 0 -10 10t10 10t10 -10t-10 -10zM116 250q-10 0 -10 10t10 10t10 -10t-10 -10zM116 680
q-10 0 -10 10t10 10t10 -10t-10 -10zM116 643q-10 0 -10 10t10 10t10 -10t-10 -10zM116 605q-10 0 -10 10t10 10t10 -10t-10 -10zM116 569q-10 0 -10 10t10 10t10 -10t-10 -10zM116 407q-10 0 -10 10t10 10t10 -10t-10 -10zM116 48q-10 0 -10 10t10 10t10 -10t-10 -10z
M116 8q-10 0 -10 10t10 10t10 -10t-10 -10zM153 681q-10 0 -10 10t10 10t10 -10t-10 -10zM188 681q-10 0 -10 10t10 10t10 -10t-10 -10zM223 681q-10 0 -10 10t10 10t10 -10t-10 -10zM259 681q-10 0 -10 10t10 10t10 -10t-10 -10zM295 681q-10 0 -10 10t10 10t10 -10
t-10 -10zM330 681q-10 0 -10 10t10 10t10 -10t-10 -10zM365 681q-10 0 -10 10t10 10t10 -10t-10 -10zM401 681q-10 0 -10 10t10 10t10 -10t-10 -10zM436 681q-10 0 -10 10t10 10t10 -10t-10 -10zM472 681q-10 0 -10 10t10 10t10 -10t-10 -10zM508 681q-10 0 -10 10t10 10
t10 -10t-10 -10zM543 681q-10 0 -10 10t10 10t10 -10t-10 -10zM149 350q-10 0 -10 10t10 10t10 -10t-10 -10zM184 350q-10 0 -10 10t10 10t10 -10t-10 -10zM219 350q-10 0 -10 10t10 10t10 -10t-10 -10zM255 350q-10 0 -10 10t10 10t10 -10t-10 -10zM291 350q-10 0 -10 10
t10 10t10 -10t-10 -10zM326 350q-10 0 -10 10t10 10t10 -10t-10 -10zM361 350q-10 0 -10 10t10 10t10 -10t-10 -10zM397 350q-10 0 -10 10t10 10t10 -10t-10 -10zM432 350q-10 0 -10 10t10 10t10 -10t-10 -10zM468 350q-10 0 -10 10t10 10t10 -10t-10 -10zM504 350
q-10 0 -10 10t10 10t10 -10t-10 -10zM151 7q-10 0 -10 10t10 10t10 -10t-10 -10zM186 7q-10 0 -10 10t10 10t10 -10t-10 -10zM221 7q-10 0 -10 10t10 10t10 -10t-10 -10zM257 7q-10 0 -10 10t10 10t10 -10t-10 -10zM293 7q-10 0 -10 10t10 10t10 -10t-10 -10zM328 7
q-10 0 -10 10t10 10t10 -10t-10 -10zM363 7q-10 0 -10 10t10 10t10 -10t-10 -10zM399 7q-10 0 -10 10t10 10t10 -10t-10 -10zM434 7q-10 0 -10 10t10 10t10 -10t-10 -10zM470 7q-10 0 -10 10t10 10t10 -10t-10 -10zM506 7q-10 0 -10 10t10 10t10 -10t-10 -10zM541 7
q-10 0 -10 10t10 10t10 -10t-10 -10z" />
    <glyph glyph-name="Eth" unicode="&#xd0;" horiz-adv-x="724" 
d="M159 387q10 0 10 -10t-10 -10t-10 10t10 10zM196 387q10 0 10 -10t-10 -10t-10 10t10 10zM233 387q10 0 10 -10t-10 -10t-10 10t10 10zM270 387q10 0 10 -10t-10 -10t-10 10t10 10zM307 387q10 0 10 -10t-10 -10t-10 10t10 10zM85 387q10 0 10 -10t-10 -10t-10 10t10 10z
M48 387q10 0 10 -10t-10 -10t-10 10t10 10zM122 211q-10 0 -10 10t10 10t10 -10t-10 -10zM122 170q-10 0 -10 10t10 10t10 -10t-10 -10zM122 129q-10 0 -10 10t10 10t10 -10t-10 -10zM122 88q-10 0 -10 10t10 10t10 -10t-10 -10zM122 529q-10 0 -10 10t10 10t10 -10t-10 -10
zM122 490q-10 0 -10 10t10 10t10 -10t-10 -10zM122 447q-10 0 -10 10t10 10t10 -10t-10 -10zM122 367q-10 0 -10 10t10 10t10 -10t-10 -10zM122 330q-10 0 -10 10t10 10t10 -10t-10 -10zM122 290q-10 0 -10 10t10 10t10 -10t-10 -10zM122 250q-10 0 -10 10t10 10t10 -10
t-10 -10zM122 680q-10 0 -10 10t10 10t10 -10t-10 -10zM122 643q-10 0 -10 10t10 10t10 -10t-10 -10zM122 605q-10 0 -10 10t10 10t10 -10t-10 -10zM122 569q-10 0 -10 10t10 10t10 -10t-10 -10zM122 407q-10 0 -10 10t10 10t10 -10t-10 -10zM122 48q-10 0 -10 10t10 10
t10 -10t-10 -10zM122 8q-10 0 -10 10t10 10t10 -10t-10 -10zM155 6q-10 0 -10 10t10 10t10 -10t-10 -10zM190 6q-10 0 -10 10t10 10t10 -10t-10 -10zM225 6q-10 0 -10 10t10 10t10 -10t-10 -10zM260 6q-10 0 -10 10t10 10t10 -10t-10 -10zM297 6q-10 0 -10 10t10 10t10 -10
t-10 -10zM335 6q-10 0 -10 10t10 10t10 -10t-10 -10zM373 7q-10 0 -10 10t10 10t10 -10t-10 -10zM412 12q-10 0 -10 10t10 10t10 -10t-10 -10zM454 22q-10 0 -10 10t10 10t10 -10t-10 -10zM155 683q-10 0 -10 10t10 10t10 -10t-10 -10zM190 683q-10 0 -10 10t10 10t10 -10
t-10 -10zM225 683q-10 0 -10 10t10 10t10 -10t-10 -10zM260 683q-10 0 -10 10t10 10t10 -10t-10 -10zM295 683q-10 0 -10 10t10 10t10 -10t-10 -10zM330 683q-10 0 -10 10t10 10t10 -10t-10 -10zM365 682q-10 0 -10 10t10 10t10 -10t-10 -10zM400 679q-10 0 -10 10t10 10
t10 -10t-10 -10zM435 673q-10 0 -10 10t10 10t10 -10t-10 -10zM492 38q-10 0 -10 10t10 10t10 -10t-10 -10zM469 661q-10 0 -10 10t10 10t10 -10t-10 -10zM500 646q-10 0 -10 10t10 10t10 -10t-10 -10zM531 627q-10 0 -10 10t10 10t10 -10t-10 -10zM558 603q-10 0 -10 10
t10 10t10 -10t-10 -10zM582 575q-10 0 -10 10t10 10t10 -10t-10 -10zM604 546q-10 0 -10 10t10 10t10 -10t-10 -10zM620 513q-10 0 -10 10t10 10t10 -10t-10 -10zM632 478q-10 0 -10 10t10 10t10 -10t-10 -10zM642 443q-10 0 -10 10t10 10t10 -10t-10 -10zM650 408
q-10 0 -10 10t10 10t10 -10t-10 -10zM654 371q-10 0 -10 10t10 10t10 -10t-10 -10zM655 332q-10 0 -10 10t10 10t10 -10t-10 -10zM654 295q-10 0 -10 10t10 10t10 -10t-10 -10zM649 260q-10 0 -10 10t10 10t10 -10t-10 -10zM640 223q-10 0 -10 10t10 10t10 -10t-10 -10z
M626 186q-10 0 -10 10t10 10t10 -10t-10 -10zM608 152q-10 0 -10 10t10 10t10 -10t-10 -10zM587 115q-10 0 -10 10t10 10t10 -10t-10 -10zM559 84q-10 0 -10 10t10 10t10 -10t-10 -10zM527 59q-10 0 -10 10t10 10t10 -10t-10 -10z" />
    <glyph glyph-name="Etilde" unicode="&#x1ebc;" horiz-adv-x="617" 
d="M116 211q-10 0 -10 10t10 10t10 -10t-10 -10zM116 170q-10 0 -10 10t10 10t10 -10t-10 -10zM116 129q-10 0 -10 10t10 10t10 -10t-10 -10zM116 88q-10 0 -10 10t10 10t10 -10t-10 -10zM116 529q-10 0 -10 10t10 10t10 -10t-10 -10zM116 490q-10 0 -10 10t10 10t10 -10
t-10 -10zM116 447q-10 0 -10 10t10 10t10 -10t-10 -10zM116 367q-10 0 -10 10t10 10t10 -10t-10 -10zM116 330q-10 0 -10 10t10 10t10 -10t-10 -10zM116 290q-10 0 -10 10t10 10t10 -10t-10 -10zM116 250q-10 0 -10 10t10 10t10 -10t-10 -10zM116 680q-10 0 -10 10t10 10
t10 -10t-10 -10zM116 643q-10 0 -10 10t10 10t10 -10t-10 -10zM116 605q-10 0 -10 10t10 10t10 -10t-10 -10zM116 569q-10 0 -10 10t10 10t10 -10t-10 -10zM116 407q-10 0 -10 10t10 10t10 -10t-10 -10zM116 48q-10 0 -10 10t10 10t10 -10t-10 -10zM116 8q-10 0 -10 10
t10 10t10 -10t-10 -10zM153 681q-10 0 -10 10t10 10t10 -10t-10 -10zM188 681q-10 0 -10 10t10 10t10 -10t-10 -10zM223 681q-10 0 -10 10t10 10t10 -10t-10 -10zM259 681q-10 0 -10 10t10 10t10 -10t-10 -10zM295 681q-10 0 -10 10t10 10t10 -10t-10 -10zM330 681
q-10 0 -10 10t10 10t10 -10t-10 -10zM365 681q-10 0 -10 10t10 10t10 -10t-10 -10zM401 681q-10 0 -10 10t10 10t10 -10t-10 -10zM436 681q-10 0 -10 10t10 10t10 -10t-10 -10zM472 681q-10 0 -10 10t10 10t10 -10t-10 -10zM508 681q-10 0 -10 10t10 10t10 -10t-10 -10z
M543 681q-10 0 -10 10t10 10t10 -10t-10 -10zM149 350q-10 0 -10 10t10 10t10 -10t-10 -10zM184 350q-10 0 -10 10t10 10t10 -10t-10 -10zM219 350q-10 0 -10 10t10 10t10 -10t-10 -10zM255 350q-10 0 -10 10t10 10t10 -10t-10 -10zM291 350q-10 0 -10 10t10 10t10 -10
t-10 -10zM326 350q-10 0 -10 10t10 10t10 -10t-10 -10zM361 350q-10 0 -10 10t10 10t10 -10t-10 -10zM397 350q-10 0 -10 10t10 10t10 -10t-10 -10zM432 350q-10 0 -10 10t10 10t10 -10t-10 -10zM468 350q-10 0 -10 10t10 10t10 -10t-10 -10zM504 350q-10 0 -10 10t10 10
t10 -10t-10 -10zM151 7q-10 0 -10 10t10 10t10 -10t-10 -10zM186 7q-10 0 -10 10t10 10t10 -10t-10 -10zM221 7q-10 0 -10 10t10 10t10 -10t-10 -10zM257 7q-10 0 -10 10t10 10t10 -10t-10 -10zM293 7q-10 0 -10 10t10 10t10 -10t-10 -10zM328 7q-10 0 -10 10t10 10t10 -10
t-10 -10zM363 7q-10 0 -10 10t10 10t10 -10t-10 -10zM399 7q-10 0 -10 10t10 10t10 -10t-10 -10zM434 7q-10 0 -10 10t10 10t10 -10t-10 -10zM470 7q-10 0 -10 10t10 10t10 -10t-10 -10zM506 7q-10 0 -10 10t10 10t10 -10t-10 -10zM541 7q-10 0 -10 10t10 10t10 -10t-10 -10
zM216 831q-10 0 -10 10t10 10t10 -10t-10 -10zM230 863q-10 0 -10 10t10 10t10 -10t-10 -10zM257 884q-10 0 -10 10t10 10t10 -10t-10 -10zM292 884q-10 0 -10 10t10 10t10 -10t-10 -10zM326 873q-10 0 -10 10t10 10t10 -10t-10 -10zM359 857q-10 0 -10 10t10 10t10 -10
t-10 -10zM394 847q-10 0 -10 10t10 10t10 -10t-10 -10zM430 850q-10 0 -10 10t10 10t10 -10t-10 -10zM460 868q-10 0 -10 10t10 10t10 -10t-10 -10zM476 900q-10 0 -10 10t10 10t10 -10t-10 -10z" />
    <glyph glyph-name="Euro" unicode="&#x20ac;" horiz-adv-x="814" 
d="M85 382q-10 0 -10 10t10 10t10 -10t-10 -10zM122 382q-10 0 -10 10t10 10t10 -10t-10 -10zM196 382q-10 0 -10 10t10 10t10 -10t-10 -10zM233 382q-10 0 -10 10t10 10t10 -10t-10 -10zM270 382q-10 0 -10 10t10 10t10 -10t-10 -10zM307 382q-10 0 -10 10t10 10t10 -10
t-10 -10zM344 382q-10 0 -10 10t10 10t10 -10t-10 -10zM379 382q-10 0 -10 10t10 10t10 -10t-10 -10zM416 382q-10 0 -10 10t10 10t10 -10t-10 -10zM453 382q-10 0 -10 10t10 10t10 -10t-10 -10zM490 382q-10 0 -10 10t10 10t10 -10t-10 -10zM527 382q-10 0 -10 10t10 10
t10 -10t-10 -10zM59 256q-10 0 -10 10t10 10t10 -10t-10 -10zM96 256q-10 0 -10 10t10 10t10 -10t-10 -10zM207 256q-10 0 -10 10t10 10t10 -10t-10 -10zM244 256q-10 0 -10 10t10 10t10 -10t-10 -10zM281 256q-10 0 -10 10t10 10t10 -10t-10 -10zM318 256q-10 0 -10 10
t10 10t10 -10t-10 -10zM353 256q-10 0 -10 10t10 10t10 -10t-10 -10zM390 256q-10 0 -10 10t10 10t10 -10t-10 -10zM427 256q-10 0 -10 10t10 10t10 -10t-10 -10zM464 256q-10 0 -10 10t10 10t10 -10t-10 -10zM501 256q-10 0 -10 10t10 10t10 -10t-10 -10zM133 256
q-10 0 -10 10t10 10t10 -10t-10 -10zM743 144q-10 0 -10 10t10 10t10 -10t-10 -10zM720 109q-10 0 -10 10t10 10t10 -10t-10 -10zM693 80q-10 0 -10 10t10 10t10 -10t-10 -10zM662 52q-10 0 -10 10t10 10t10 -10t-10 -10zM627 30q-10 0 -10 10t10 10t10 -10t-10 -10zM588 13
q-10 0 -10 10t10 10t10 -10t-10 -10zM547 1q-10 0 -10 10t10 10t10 -10t-10 -10zM505 -5q-10 0 -10 10t10 10t10 -10t-10 -10zM463 -6q-10 0 -10 10t10 10t10 -10t-10 -10zM421 0q-10 0 -10 10t10 10t10 -10t-10 -10zM381 13q-10 0 -10 10t10 10t10 -10t-10 -10zM342 32
q-10 0 -10 10t10 10t10 -10t-10 -10zM158 339q-10 0 -10 10t10 10t10 -10t-10 -10zM161 297q-10 0 -10 10t10 10t10 -10t-10 -10zM170 256q-10 0 -10 10t10 10t10 -10t-10 -10zM183 214q-10 0 -10 10t10 10t10 -10t-10 -10zM201 177q-10 0 -10 10t10 10t10 -10t-10 -10z
M219 143q-10 0 -10 10t10 10t10 -10t-10 -10zM246 110q-10 0 -10 10t10 10t10 -10t-10 -10zM275 81q-10 0 -10 10t10 10t10 -10t-10 -10zM308 55q-10 0 -10 10t10 10t10 -10t-10 -10zM729 564q10 0 10 -10t-10 -10t-10 10t10 10zM707 598q10 0 10 -10t-10 -10t-10 10t10 10z
M680 630q10 0 10 -10t-10 -10t-10 10t10 10zM649 658q10 0 10 -10t-10 -10t-10 10t10 10zM612 679q10 0 10 -10t-10 -10t-10 10t10 10zM574 695q10 0 10 -10t-10 -10t-10 10t10 10zM535 707q10 0 10 -10t-10 -10t-10 10t10 10zM495 712q10 0 10 -10t-10 -10t-10 10t10 10z
M454 712q10 0 10 -10t-10 -10t-10 10t10 10zM414 706q10 0 10 -10t-10 -10t-10 10t10 10zM373 694q10 0 10 -10t-10 -10t-10 10t10 10zM335 678q10 0 10 -10t-10 -10t-10 10t10 10zM159 402q10 0 10 -10t-10 -10t-10 10t10 10zM165 443q10 0 10 -10t-10 -10t-10 10t10 10z
M176 483q10 0 10 -10t-10 -10t-10 10t10 10zM191 523q10 0 10 -10t-10 -10t-10 10t10 10zM211 559q10 0 10 -10t-10 -10t-10 10t10 10zM235 593q10 0 10 -10t-10 -10t-10 10t10 10zM265 627q10 0 10 -10t-10 -10t-10 10t10 10zM298 655q10 0 10 -10t-10 -10t-10 10t10 10z
" />
    <glyph glyph-name="F" unicode="F" horiz-adv-x="593" 
d="M116 211q-10 0 -10 10t10 10t10 -10t-10 -10zM116 170q-10 0 -10 10t10 10t10 -10t-10 -10zM116 129q-10 0 -10 10t10 10t10 -10t-10 -10zM116 88q-10 0 -10 10t10 10t10 -10t-10 -10zM116 529q-10 0 -10 10t10 10t10 -10t-10 -10zM116 490q-10 0 -10 10t10 10t10 -10
t-10 -10zM116 447q-10 0 -10 10t10 10t10 -10t-10 -10zM116 367q-10 0 -10 10t10 10t10 -10t-10 -10zM116 330q-10 0 -10 10t10 10t10 -10t-10 -10zM116 290q-10 0 -10 10t10 10t10 -10t-10 -10zM116 250q-10 0 -10 10t10 10t10 -10t-10 -10zM116 680q-10 0 -10 10t10 10
t10 -10t-10 -10zM116 643q-10 0 -10 10t10 10t10 -10t-10 -10zM116 605q-10 0 -10 10t10 10t10 -10t-10 -10zM116 569q-10 0 -10 10t10 10t10 -10t-10 -10zM116 407q-10 0 -10 10t10 10t10 -10t-10 -10zM116 48q-10 0 -10 10t10 10t10 -10t-10 -10zM116 8q-10 0 -10 10
t10 10t10 -10t-10 -10zM153 681q-10 0 -10 10t10 10t10 -10t-10 -10zM188 681q-10 0 -10 10t10 10t10 -10t-10 -10zM223 681q-10 0 -10 10t10 10t10 -10t-10 -10zM259 681q-10 0 -10 10t10 10t10 -10t-10 -10zM295 681q-10 0 -10 10t10 10t10 -10t-10 -10zM330 681
q-10 0 -10 10t10 10t10 -10t-10 -10zM365 681q-10 0 -10 10t10 10t10 -10t-10 -10zM401 681q-10 0 -10 10t10 10t10 -10t-10 -10zM436 681q-10 0 -10 10t10 10t10 -10t-10 -10zM472 681q-10 0 -10 10t10 10t10 -10t-10 -10zM508 681q-10 0 -10 10t10 10t10 -10t-10 -10z
M543 681q-10 0 -10 10t10 10t10 -10t-10 -10zM149 350q-10 0 -10 10t10 10t10 -10t-10 -10zM184 350q-10 0 -10 10t10 10t10 -10t-10 -10zM219 350q-10 0 -10 10t10 10t10 -10t-10 -10zM255 350q-10 0 -10 10t10 10t10 -10t-10 -10zM291 350q-10 0 -10 10t10 10t10 -10
t-10 -10zM326 350q-10 0 -10 10t10 10t10 -10t-10 -10zM361 350q-10 0 -10 10t10 10t10 -10t-10 -10zM397 350q-10 0 -10 10t10 10t10 -10t-10 -10zM432 350q-10 0 -10 10t10 10t10 -10t-10 -10zM468 350q-10 0 -10 10t10 10t10 -10t-10 -10zM504 350q-10 0 -10 10t10 10
t10 -10t-10 -10z" />
    <glyph glyph-name="F.sc" horiz-adv-x="508" 
d="M105 -2q-10 0 -10 10t10 10t10 -10t-10 -10zM105 35q-10 0 -10 10t10 10t10 -10t-10 -10zM105 72q-10 0 -10 10t10 10t10 -10t-10 -10zM105 109q-10 0 -10 10t10 10t10 -10t-10 -10zM105 146q-10 0 -10 10t10 10t10 -10t-10 -10zM105 183q-10 0 -10 10t10 10t10 -10
t-10 -10zM105 220q-10 0 -10 10t10 10t10 -10t-10 -10zM105 257q-10 0 -10 10t10 10t10 -10t-10 -10zM105 294q-10 0 -10 10t10 10t10 -10t-10 -10zM105 331q-10 0 -10 10t10 10t10 -10t-10 -10zM105 368q-10 0 -10 10t10 10t10 -10t-10 -10zM105 405q-10 0 -10 10t10 10
t10 -10t-10 -10zM105 442q-10 0 -10 10t10 10t10 -10t-10 -10zM105 479q-10 0 -10 10t10 10t10 -10t-10 -10zM105 516q-10 0 -10 10t10 10t10 -10t-10 -10zM144 516q-10 0 -10 10t10 10t10 -10t-10 -10zM183 516q-10 0 -10 10t10 10t10 -10t-10 -10zM222 516q-10 0 -10 10
t10 10t10 -10t-10 -10zM261 516q-10 0 -10 10t10 10t10 -10t-10 -10zM300 516q-10 0 -10 10t10 10t10 -10t-10 -10zM339 516q-10 0 -10 10t10 10t10 -10t-10 -10zM378 516q-10 0 -10 10t10 10t10 -10t-10 -10zM417 516q-10 0 -10 10t10 10t10 -10t-10 -10zM456 516
q-10 0 -10 10t10 10t10 -10t-10 -10zM143 278q10 0 10 -10t-10 -10t-10 10t10 10zM182 278q10 0 10 -10t-10 -10t-10 10t10 10zM221 278q10 0 10 -10t-10 -10t-10 10t10 10zM260 278q10 0 10 -10t-10 -10t-10 10t10 10zM299 278q10 0 10 -10t-10 -10t-10 10t10 10zM338 278
q10 0 10 -10t-10 -10t-10 10t10 10zM377 278q10 0 10 -10t-10 -10t-10 10t10 10zM416 278q10 0 10 -10t-10 -10t-10 10t10 10z" />
    <glyph glyph-name="G" unicode="G" horiz-adv-x="728" 
d="M621 109q-10 0 -10 10t10 10t10 -10t-10 -10zM596 80q-10 0 -10 10t10 10t10 -10t-10 -10zM565 52q-10 0 -10 10t10 10t10 -10t-10 -10zM530 30q-10 0 -10 10t10 10t10 -10t-10 -10zM491 13q-10 0 -10 10t10 10t10 -10t-10 -10zM450 1q-10 0 -10 10t10 10t10 -10t-10 -10
zM408 -5q-10 0 -10 10t10 10t10 -10t-10 -10zM366 -6q-10 0 -10 10t10 10t10 -10t-10 -10zM324 0q-10 0 -10 10t10 10t10 -10t-10 -10zM284 13q-10 0 -10 10t10 10t10 -10t-10 -10zM245 32q-10 0 -10 10t10 10t10 -10t-10 -10zM61 339q-10 0 -10 10t10 10t10 -10t-10 -10z
M64 297q-10 0 -10 10t10 10t10 -10t-10 -10zM73 256q-10 0 -10 10t10 10t10 -10t-10 -10zM86 214q-10 0 -10 10t10 10t10 -10t-10 -10zM104 177q-10 0 -10 10t10 10t10 -10t-10 -10zM122 143q-10 0 -10 10t10 10t10 -10t-10 -10zM149 110q-10 0 -10 10t10 10t10 -10t-10 -10
zM178 81q-10 0 -10 10t10 10t10 -10t-10 -10zM211 55q-10 0 -10 10t10 10t10 -10t-10 -10zM632 564q10 0 10 -10t-10 -10t-10 10t10 10zM610 598q10 0 10 -10t-10 -10t-10 10t10 10zM583 630q10 0 10 -10t-10 -10t-10 10t10 10zM552 658q10 0 10 -10t-10 -10t-10 10t10 10z
M515 679q10 0 10 -10t-10 -10t-10 10t10 10zM477 695q10 0 10 -10t-10 -10t-10 10t10 10zM438 707q10 0 10 -10t-10 -10t-10 10t10 10zM398 712q10 0 10 -10t-10 -10t-10 10t10 10zM357 712q10 0 10 -10t-10 -10t-10 10t10 10zM317 706q10 0 10 -10t-10 -10t-10 10t10 10z
M276 694q10 0 10 -10t-10 -10t-10 10t10 10zM238 678q10 0 10 -10t-10 -10t-10 10t10 10zM62 402q10 0 10 -10t-10 -10t-10 10t10 10zM68 443q10 0 10 -10t-10 -10t-10 10t10 10zM79 483q10 0 10 -10t-10 -10t-10 10t10 10zM94 523q10 0 10 -10t-10 -10t-10 10t10 10z
M114 559q10 0 10 -10t-10 -10t-10 10t10 10zM138 593q10 0 10 -10t-10 -10t-10 10t10 10zM168 627q10 0 10 -10t-10 -10t-10 10t10 10zM201 655q10 0 10 -10t-10 -10t-10 10t10 10zM648 194q-10 0 -10 10t10 10t10 -10t-10 -10zM648 153q-10 0 -10 10t10 10t10 -10t-10 -10z
M649 115q-10 0 -10 10t10 10t10 -10t-10 -10zM648 77q-10 0 -10 10t10 10t10 -10t-10 -10zM648 313q-10 0 -10 10t10 10t10 -10t-10 -10zM648 273q-10 0 -10 10t10 10t10 -10t-10 -10zM648 233q-10 0 -10 10t10 10t10 -10t-10 -10zM648 37q-10 0 -10 10t10 10t10 -10
t-10 -10zM648 -3q-10 0 -10 10t10 10t10 -10t-10 -10zM472 314q-10 0 -10 10t10 10t10 -10t-10 -10zM507 314q-10 0 -10 10t10 10t10 -10t-10 -10zM542 314q-10 0 -10 10t10 10t10 -10t-10 -10zM577 314q-10 0 -10 10t10 10t10 -10t-10 -10zM612 314q-10 0 -10 10t10 10
t10 -10t-10 -10z" />
    <glyph glyph-name="G.alt" horiz-adv-x="742" 
d="M621 109q-10 0 -10 10t10 10t10 -10t-10 -10zM596 80q-10 0 -10 10t10 10t10 -10t-10 -10zM565 52q-10 0 -10 10t10 10t10 -10t-10 -10zM530 30q-10 0 -10 10t10 10t10 -10t-10 -10zM491 13q-10 0 -10 10t10 10t10 -10t-10 -10zM450 1q-10 0 -10 10t10 10t10 -10t-10 -10
zM408 -5q-10 0 -10 10t10 10t10 -10t-10 -10zM366 -6q-10 0 -10 10t10 10t10 -10t-10 -10zM324 0q-10 0 -10 10t10 10t10 -10t-10 -10zM284 13q-10 0 -10 10t10 10t10 -10t-10 -10zM245 32q-10 0 -10 10t10 10t10 -10t-10 -10zM61 339q-10 0 -10 10t10 10t10 -10t-10 -10z
M64 297q-10 0 -10 10t10 10t10 -10t-10 -10zM73 256q-10 0 -10 10t10 10t10 -10t-10 -10zM86 214q-10 0 -10 10t10 10t10 -10t-10 -10zM104 177q-10 0 -10 10t10 10t10 -10t-10 -10zM122 143q-10 0 -10 10t10 10t10 -10t-10 -10zM149 110q-10 0 -10 10t10 10t10 -10t-10 -10
zM178 81q-10 0 -10 10t10 10t10 -10t-10 -10zM211 55q-10 0 -10 10t10 10t10 -10t-10 -10zM632 564q10 0 10 -10t-10 -10t-10 10t10 10zM610 598q10 0 10 -10t-10 -10t-10 10t10 10zM583 630q10 0 10 -10t-10 -10t-10 10t10 10zM552 658q10 0 10 -10t-10 -10t-10 10t10 10z
M515 679q10 0 10 -10t-10 -10t-10 10t10 10zM477 695q10 0 10 -10t-10 -10t-10 10t10 10zM438 707q10 0 10 -10t-10 -10t-10 10t10 10zM398 712q10 0 10 -10t-10 -10t-10 10t10 10zM357 712q10 0 10 -10t-10 -10t-10 10t10 10zM317 706q10 0 10 -10t-10 -10t-10 10t10 10z
M276 694q10 0 10 -10t-10 -10t-10 10t10 10zM238 678q10 0 10 -10t-10 -10t-10 10t10 10zM62 402q10 0 10 -10t-10 -10t-10 10t10 10zM68 443q10 0 10 -10t-10 -10t-10 10t10 10zM79 483q10 0 10 -10t-10 -10t-10 10t10 10zM94 523q10 0 10 -10t-10 -10t-10 10t10 10z
M114 559q10 0 10 -10t-10 -10t-10 10t10 10zM138 593q10 0 10 -10t-10 -10t-10 10t10 10zM168 627q10 0 10 -10t-10 -10t-10 10t10 10zM201 655q10 0 10 -10t-10 -10t-10 10t10 10zM660 177q-10 0 -10 10t10 10t10 -10t-10 -10zM641 142q-10 0 -10 10t10 10t10 -10t-10 -10z
M656 313q-10 0 -10 10t10 10t10 -10t-10 -10zM688 243q-10 0 -10 10t10 10t10 -10t-10 -10zM676 209q-10 0 -10 10t10 10t10 -10t-10 -10zM471 314q-10 0 -10 10t10 10t10 -10t-10 -10zM508 314q-10 0 -10 10t10 10t10 -10t-10 -10zM545 314q-10 0 -10 10t10 10t10 -10
t-10 -10zM582 314q-10 0 -10 10t10 10t10 -10t-10 -10zM619 314q-10 0 -10 10t10 10t10 -10t-10 -10zM694 279q-10 0 -10 10t10 10t10 -10t-10 -10zM694 313q-10 0 -10 10t10 10t10 -10t-10 -10z" />
    <glyph glyph-name="G.sc" horiz-adv-x="619" 
d="M325 -2q-10 0 -10 10t10 10t10 -10t-10 -10zM325 519q-10 0 -10 10t10 10t10 -10t-10 -10zM282 514q-10 0 -10 10t10 10t10 -10t-10 -10zM239 504q-10 0 -10 10t10 10t10 -10t-10 -10zM199 486q-10 0 -10 10t10 10t10 -10t-10 -10zM162 460q-10 0 -10 10t10 10t10 -10
t-10 -10zM130 429q-10 0 -10 10t10 10t10 -10t-10 -10zM104 391q-10 0 -10 10t10 10t10 -10t-10 -10zM85 351q-10 0 -10 10t10 10t10 -10t-10 -10zM74 306q-10 0 -10 10t10 10t10 -10t-10 -10zM69 262q-10 0 -10 10t10 10t10 -10t-10 -10zM282 25q10 0 10 -10t-10 -10
t-10 10t10 10zM239 36q10 0 10 -10t-10 -10t-10 10t10 10zM199 56q10 0 10 -10t-10 -10t-10 10t10 10zM162 82q10 0 10 -10t-10 -10t-10 10t10 10zM130 115q10 0 10 -10t-10 -10t-10 10t10 10zM104 153q10 0 10 -10t-10 -10t-10 10t10 10zM85 193q10 0 10 -10t-10 -10
t-10 10t10 10zM74 238q10 0 10 -10t-10 -10t-10 10t10 10zM368 514q-10 0 -10 10t10 10t10 -10t-10 -10zM411 504q-10 0 -10 10t10 10t10 -10t-10 -10zM451 486q-10 0 -10 10t10 10t10 -10t-10 -10zM488 460q-10 0 -10 10t10 10t10 -10t-10 -10zM520 429q-10 0 -10 10t10 10
t10 -10t-10 -10zM369 23q10 0 10 -10t-10 -10t-10 10t10 10zM411 34q10 0 10 -10t-10 -10t-10 10t10 10zM451 52q10 0 10 -10t-10 -10t-10 10t10 10zM487 75q10 0 10 -10t-10 -10t-10 10t10 10zM513 104q10 0 10 -10t-10 -10t-10 10t10 10zM543 138q10 0 10 -10t-10 -10
t-10 10t10 10zM543 176q10 0 10 -10t-10 -10t-10 10t10 10zM543 214q10 0 10 -10t-10 -10t-10 10t10 10zM543 254q10 0 10 -10t-10 -10t-10 10t10 10zM505 254q10 0 10 -10t-10 -10t-10 10t10 10zM467 254q10 0 10 -10t-10 -10t-10 10t10 10zM429 254q10 0 10 -10t-10 -10
t-10 10t10 10zM391 254q10 0 10 -10t-10 -10t-10 10t10 10zM543 100q10 0 10 -10t-10 -10t-10 10t10 10zM543 61q10 0 10 -10t-10 -10t-10 10t10 10zM543 21q10 0 10 -10t-10 -10t-10 10t10 10z" />
    <glyph glyph-name="Gbreve" unicode="&#x11e;" horiz-adv-x="728" 
d="M621 109q-10 0 -10 10t10 10t10 -10t-10 -10zM596 80q-10 0 -10 10t10 10t10 -10t-10 -10zM565 52q-10 0 -10 10t10 10t10 -10t-10 -10zM530 30q-10 0 -10 10t10 10t10 -10t-10 -10zM491 13q-10 0 -10 10t10 10t10 -10t-10 -10zM450 1q-10 0 -10 10t10 10t10 -10t-10 -10
zM408 -5q-10 0 -10 10t10 10t10 -10t-10 -10zM366 -6q-10 0 -10 10t10 10t10 -10t-10 -10zM324 0q-10 0 -10 10t10 10t10 -10t-10 -10zM284 13q-10 0 -10 10t10 10t10 -10t-10 -10zM245 32q-10 0 -10 10t10 10t10 -10t-10 -10zM61 339q-10 0 -10 10t10 10t10 -10t-10 -10z
M64 297q-10 0 -10 10t10 10t10 -10t-10 -10zM73 256q-10 0 -10 10t10 10t10 -10t-10 -10zM86 214q-10 0 -10 10t10 10t10 -10t-10 -10zM104 177q-10 0 -10 10t10 10t10 -10t-10 -10zM122 143q-10 0 -10 10t10 10t10 -10t-10 -10zM149 110q-10 0 -10 10t10 10t10 -10t-10 -10
zM178 81q-10 0 -10 10t10 10t10 -10t-10 -10zM211 55q-10 0 -10 10t10 10t10 -10t-10 -10zM632 564q10 0 10 -10t-10 -10t-10 10t10 10zM610 598q10 0 10 -10t-10 -10t-10 10t10 10zM583 630q10 0 10 -10t-10 -10t-10 10t10 10zM552 658q10 0 10 -10t-10 -10t-10 10t10 10z
M515 679q10 0 10 -10t-10 -10t-10 10t10 10zM477 695q10 0 10 -10t-10 -10t-10 10t10 10zM438 707q10 0 10 -10t-10 -10t-10 10t10 10zM398 712q10 0 10 -10t-10 -10t-10 10t10 10zM357 712q10 0 10 -10t-10 -10t-10 10t10 10zM317 706q10 0 10 -10t-10 -10t-10 10t10 10z
M276 694q10 0 10 -10t-10 -10t-10 10t10 10zM238 678q10 0 10 -10t-10 -10t-10 10t10 10zM62 402q10 0 10 -10t-10 -10t-10 10t10 10zM68 443q10 0 10 -10t-10 -10t-10 10t10 10zM79 483q10 0 10 -10t-10 -10t-10 10t10 10zM94 523q10 0 10 -10t-10 -10t-10 10t10 10z
M114 559q10 0 10 -10t-10 -10t-10 10t10 10zM138 593q10 0 10 -10t-10 -10t-10 10t10 10zM168 627q10 0 10 -10t-10 -10t-10 10t10 10zM201 655q10 0 10 -10t-10 -10t-10 10t10 10zM648 194q-10 0 -10 10t10 10t10 -10t-10 -10zM648 153q-10 0 -10 10t10 10t10 -10t-10 -10z
M649 115q-10 0 -10 10t10 10t10 -10t-10 -10zM648 77q-10 0 -10 10t10 10t10 -10t-10 -10zM648 313q-10 0 -10 10t10 10t10 -10t-10 -10zM648 273q-10 0 -10 10t10 10t10 -10t-10 -10zM648 233q-10 0 -10 10t10 10t10 -10t-10 -10zM648 37q-10 0 -10 10t10 10t10 -10
t-10 -10zM648 -3q-10 0 -10 10t10 10t10 -10t-10 -10zM472 314q-10 0 -10 10t10 10t10 -10t-10 -10zM507 314q-10 0 -10 10t10 10t10 -10t-10 -10zM542 314q-10 0 -10 10t10 10t10 -10t-10 -10zM577 314q-10 0 -10 10t10 10t10 -10t-10 -10zM612 314q-10 0 -10 10t10 10
t10 -10t-10 -10zM307 900q-10 0 -10 10t10 10t10 -10t-10 -10zM318 868q-10 0 -10 10t10 10t10 -10t-10 -10zM341 845q-10 0 -10 10t10 10t10 -10t-10 -10zM375 835q-10 0 -10 10t10 10t10 -10t-10 -10zM443 900q-10 0 -10 10t10 10t10 -10t-10 -10zM432 868q-10 0 -10 10
t10 10t10 -10t-10 -10zM409 845q-10 0 -10 10t10 10t10 -10t-10 -10z" />
    <glyph glyph-name="Gcircumflex" unicode="&#x11c;" horiz-adv-x="728" 
d="M374 898q-10 0 -10 10t10 10t10 -10t-10 -10zM402 878q-10 0 -10 10t10 10t10 -10t-10 -10zM428 857q-10 0 -10 10t10 10t10 -10t-10 -10zM454 837q-10 0 -10 10t10 10t10 -10t-10 -10zM346 878q-10 0 -10 10t10 10t10 -10t-10 -10zM320 857q-10 0 -10 10t10 10t10 -10
t-10 -10zM294 837q-10 0 -10 10t10 10t10 -10t-10 -10zM621 109q-10 0 -10 10t10 10t10 -10t-10 -10zM596 80q-10 0 -10 10t10 10t10 -10t-10 -10zM565 52q-10 0 -10 10t10 10t10 -10t-10 -10zM530 30q-10 0 -10 10t10 10t10 -10t-10 -10zM491 13q-10 0 -10 10t10 10t10 -10
t-10 -10zM450 1q-10 0 -10 10t10 10t10 -10t-10 -10zM408 -5q-10 0 -10 10t10 10t10 -10t-10 -10zM366 -6q-10 0 -10 10t10 10t10 -10t-10 -10zM324 0q-10 0 -10 10t10 10t10 -10t-10 -10zM284 13q-10 0 -10 10t10 10t10 -10t-10 -10zM245 32q-10 0 -10 10t10 10t10 -10
t-10 -10zM61 339q-10 0 -10 10t10 10t10 -10t-10 -10zM64 297q-10 0 -10 10t10 10t10 -10t-10 -10zM73 256q-10 0 -10 10t10 10t10 -10t-10 -10zM86 214q-10 0 -10 10t10 10t10 -10t-10 -10zM104 177q-10 0 -10 10t10 10t10 -10t-10 -10zM122 143q-10 0 -10 10t10 10t10 -10
t-10 -10zM149 110q-10 0 -10 10t10 10t10 -10t-10 -10zM178 81q-10 0 -10 10t10 10t10 -10t-10 -10zM211 55q-10 0 -10 10t10 10t10 -10t-10 -10zM632 564q10 0 10 -10t-10 -10t-10 10t10 10zM610 598q10 0 10 -10t-10 -10t-10 10t10 10zM583 630q10 0 10 -10t-10 -10
t-10 10t10 10zM552 658q10 0 10 -10t-10 -10t-10 10t10 10zM515 679q10 0 10 -10t-10 -10t-10 10t10 10zM477 695q10 0 10 -10t-10 -10t-10 10t10 10zM438 707q10 0 10 -10t-10 -10t-10 10t10 10zM398 712q10 0 10 -10t-10 -10t-10 10t10 10zM357 712q10 0 10 -10t-10 -10
t-10 10t10 10zM317 706q10 0 10 -10t-10 -10t-10 10t10 10zM276 694q10 0 10 -10t-10 -10t-10 10t10 10zM238 678q10 0 10 -10t-10 -10t-10 10t10 10zM62 402q10 0 10 -10t-10 -10t-10 10t10 10zM68 443q10 0 10 -10t-10 -10t-10 10t10 10zM79 483q10 0 10 -10t-10 -10
t-10 10t10 10zM94 523q10 0 10 -10t-10 -10t-10 10t10 10zM114 559q10 0 10 -10t-10 -10t-10 10t10 10zM138 593q10 0 10 -10t-10 -10t-10 10t10 10zM168 627q10 0 10 -10t-10 -10t-10 10t10 10zM201 655q10 0 10 -10t-10 -10t-10 10t10 10zM648 194q-10 0 -10 10t10 10
t10 -10t-10 -10zM648 153q-10 0 -10 10t10 10t10 -10t-10 -10zM649 115q-10 0 -10 10t10 10t10 -10t-10 -10zM648 77q-10 0 -10 10t10 10t10 -10t-10 -10zM648 313q-10 0 -10 10t10 10t10 -10t-10 -10zM648 273q-10 0 -10 10t10 10t10 -10t-10 -10zM648 233q-10 0 -10 10
t10 10t10 -10t-10 -10zM648 37q-10 0 -10 10t10 10t10 -10t-10 -10zM648 -3q-10 0 -10 10t10 10t10 -10t-10 -10zM472 314q-10 0 -10 10t10 10t10 -10t-10 -10zM507 314q-10 0 -10 10t10 10t10 -10t-10 -10zM542 314q-10 0 -10 10t10 10t10 -10t-10 -10zM577 314
q-10 0 -10 10t10 10t10 -10t-10 -10zM612 314q-10 0 -10 10t10 10t10 -10t-10 -10z" />
    <glyph glyph-name="Gcommaaccent" unicode="&#x122;" horiz-adv-x="728" 
d="M386 -68q-10 0 -10 10t10 10t10 -10t-10 -10zM386 -101q-10 0 -10 10t10 10t10 -10t-10 -10zM386 -134q-10 0 -10 10t10 10t10 -10t-10 -10zM361 -154q-10 0 -10 10t10 10t10 -10t-10 -10zM621 109q-10 0 -10 10t10 10t10 -10t-10 -10zM596 80q-10 0 -10 10t10 10t10 -10
t-10 -10zM565 52q-10 0 -10 10t10 10t10 -10t-10 -10zM530 30q-10 0 -10 10t10 10t10 -10t-10 -10zM491 13q-10 0 -10 10t10 10t10 -10t-10 -10zM450 1q-10 0 -10 10t10 10t10 -10t-10 -10zM408 -5q-10 0 -10 10t10 10t10 -10t-10 -10zM366 -6q-10 0 -10 10t10 10t10 -10
t-10 -10zM324 0q-10 0 -10 10t10 10t10 -10t-10 -10zM284 13q-10 0 -10 10t10 10t10 -10t-10 -10zM245 32q-10 0 -10 10t10 10t10 -10t-10 -10zM61 339q-10 0 -10 10t10 10t10 -10t-10 -10zM64 297q-10 0 -10 10t10 10t10 -10t-10 -10zM73 256q-10 0 -10 10t10 10t10 -10
t-10 -10zM86 214q-10 0 -10 10t10 10t10 -10t-10 -10zM104 177q-10 0 -10 10t10 10t10 -10t-10 -10zM122 143q-10 0 -10 10t10 10t10 -10t-10 -10zM149 110q-10 0 -10 10t10 10t10 -10t-10 -10zM178 81q-10 0 -10 10t10 10t10 -10t-10 -10zM211 55q-10 0 -10 10t10 10
t10 -10t-10 -10zM632 564q10 0 10 -10t-10 -10t-10 10t10 10zM610 598q10 0 10 -10t-10 -10t-10 10t10 10zM583 630q10 0 10 -10t-10 -10t-10 10t10 10zM552 658q10 0 10 -10t-10 -10t-10 10t10 10zM515 679q10 0 10 -10t-10 -10t-10 10t10 10zM477 695q10 0 10 -10t-10 -10
t-10 10t10 10zM438 707q10 0 10 -10t-10 -10t-10 10t10 10zM398 712q10 0 10 -10t-10 -10t-10 10t10 10zM357 712q10 0 10 -10t-10 -10t-10 10t10 10zM317 706q10 0 10 -10t-10 -10t-10 10t10 10zM276 694q10 0 10 -10t-10 -10t-10 10t10 10zM238 678q10 0 10 -10t-10 -10
t-10 10t10 10zM62 402q10 0 10 -10t-10 -10t-10 10t10 10zM68 443q10 0 10 -10t-10 -10t-10 10t10 10zM79 483q10 0 10 -10t-10 -10t-10 10t10 10zM94 523q10 0 10 -10t-10 -10t-10 10t10 10zM114 559q10 0 10 -10t-10 -10t-10 10t10 10zM138 593q10 0 10 -10t-10 -10
t-10 10t10 10zM168 627q10 0 10 -10t-10 -10t-10 10t10 10zM201 655q10 0 10 -10t-10 -10t-10 10t10 10zM648 194q-10 0 -10 10t10 10t10 -10t-10 -10zM648 153q-10 0 -10 10t10 10t10 -10t-10 -10zM649 115q-10 0 -10 10t10 10t10 -10t-10 -10zM648 77q-10 0 -10 10t10 10
t10 -10t-10 -10zM648 313q-10 0 -10 10t10 10t10 -10t-10 -10zM648 273q-10 0 -10 10t10 10t10 -10t-10 -10zM648 233q-10 0 -10 10t10 10t10 -10t-10 -10zM648 37q-10 0 -10 10t10 10t10 -10t-10 -10zM648 -3q-10 0 -10 10t10 10t10 -10t-10 -10zM472 314q-10 0 -10 10
t10 10t10 -10t-10 -10zM507 314q-10 0 -10 10t10 10t10 -10t-10 -10zM542 314q-10 0 -10 10t10 10t10 -10t-10 -10zM577 314q-10 0 -10 10t10 10t10 -10t-10 -10zM612 314q-10 0 -10 10t10 10t10 -10t-10 -10z" />
    <glyph glyph-name="commaaccent" unicode="&#xf6c3;" horiz-adv-x="130" 
d="M77 -68q-10 0 -10 10t10 10t10 -10t-10 -10zM77 -101q-10 0 -10 10t10 10t10 -10t-10 -10zM77 -134q-10 0 -10 10t10 10t10 -10t-10 -10zM52 -154q-10 0 -10 10t10 10t10 -10t-10 -10z" />
    <glyph glyph-name="Gdotaccent" unicode="&#x120;" horiz-adv-x="728" 
d="M621 109q-10 0 -10 10t10 10t10 -10t-10 -10zM596 80q-10 0 -10 10t10 10t10 -10t-10 -10zM565 52q-10 0 -10 10t10 10t10 -10t-10 -10zM530 30q-10 0 -10 10t10 10t10 -10t-10 -10zM491 13q-10 0 -10 10t10 10t10 -10t-10 -10zM450 1q-10 0 -10 10t10 10t10 -10t-10 -10
zM408 -5q-10 0 -10 10t10 10t10 -10t-10 -10zM366 -6q-10 0 -10 10t10 10t10 -10t-10 -10zM324 0q-10 0 -10 10t10 10t10 -10t-10 -10zM284 13q-10 0 -10 10t10 10t10 -10t-10 -10zM245 32q-10 0 -10 10t10 10t10 -10t-10 -10zM61 339q-10 0 -10 10t10 10t10 -10t-10 -10z
M64 297q-10 0 -10 10t10 10t10 -10t-10 -10zM73 256q-10 0 -10 10t10 10t10 -10t-10 -10zM86 214q-10 0 -10 10t10 10t10 -10t-10 -10zM104 177q-10 0 -10 10t10 10t10 -10t-10 -10zM122 143q-10 0 -10 10t10 10t10 -10t-10 -10zM149 110q-10 0 -10 10t10 10t10 -10t-10 -10
zM178 81q-10 0 -10 10t10 10t10 -10t-10 -10zM211 55q-10 0 -10 10t10 10t10 -10t-10 -10zM632 564q10 0 10 -10t-10 -10t-10 10t10 10zM610 598q10 0 10 -10t-10 -10t-10 10t10 10zM583 630q10 0 10 -10t-10 -10t-10 10t10 10zM552 658q10 0 10 -10t-10 -10t-10 10t10 10z
M515 679q10 0 10 -10t-10 -10t-10 10t10 10zM477 695q10 0 10 -10t-10 -10t-10 10t10 10zM438 707q10 0 10 -10t-10 -10t-10 10t10 10zM398 712q10 0 10 -10t-10 -10t-10 10t10 10zM357 712q10 0 10 -10t-10 -10t-10 10t10 10zM317 706q10 0 10 -10t-10 -10t-10 10t10 10z
M276 694q10 0 10 -10t-10 -10t-10 10t10 10zM238 678q10 0 10 -10t-10 -10t-10 10t10 10zM62 402q10 0 10 -10t-10 -10t-10 10t10 10zM68 443q10 0 10 -10t-10 -10t-10 10t10 10zM79 483q10 0 10 -10t-10 -10t-10 10t10 10zM94 523q10 0 10 -10t-10 -10t-10 10t10 10z
M114 559q10 0 10 -10t-10 -10t-10 10t10 10zM138 593q10 0 10 -10t-10 -10t-10 10t10 10zM168 627q10 0 10 -10t-10 -10t-10 10t10 10zM201 655q10 0 10 -10t-10 -10t-10 10t10 10zM648 194q-10 0 -10 10t10 10t10 -10t-10 -10zM648 153q-10 0 -10 10t10 10t10 -10t-10 -10z
M649 115q-10 0 -10 10t10 10t10 -10t-10 -10zM648 77q-10 0 -10 10t10 10t10 -10t-10 -10zM648 313q-10 0 -10 10t10 10t10 -10t-10 -10zM648 273q-10 0 -10 10t10 10t10 -10t-10 -10zM648 233q-10 0 -10 10t10 10t10 -10t-10 -10zM648 37q-10 0 -10 10t10 10t10 -10
t-10 -10zM648 -3q-10 0 -10 10t10 10t10 -10t-10 -10zM472 314q-10 0 -10 10t10 10t10 -10t-10 -10zM507 314q-10 0 -10 10t10 10t10 -10t-10 -10zM542 314q-10 0 -10 10t10 10t10 -10t-10 -10zM577 314q-10 0 -10 10t10 10t10 -10t-10 -10zM612 314q-10 0 -10 10t10 10
t10 -10t-10 -10zM374 834q-10 0 -10 10t10 10t10 -10t-10 -10zM374 867q-10 0 -10 10t10 10t10 -10t-10 -10zM374 900q-10 0 -10 10t10 10t10 -10t-10 -10z" />
    <glyph glyph-name="H" unicode="H" horiz-adv-x="736" 
d="M116 211q-10 0 -10 10t10 10t10 -10t-10 -10zM116 170q-10 0 -10 10t10 10t10 -10t-10 -10zM116 129q-10 0 -10 10t10 10t10 -10t-10 -10zM116 88q-10 0 -10 10t10 10t10 -10t-10 -10zM116 529q-10 0 -10 10t10 10t10 -10t-10 -10zM116 490q-10 0 -10 10t10 10t10 -10
t-10 -10zM116 447q-10 0 -10 10t10 10t10 -10t-10 -10zM116 367q-10 0 -10 10t10 10t10 -10t-10 -10zM116 330q-10 0 -10 10t10 10t10 -10t-10 -10zM116 290q-10 0 -10 10t10 10t10 -10t-10 -10zM116 250q-10 0 -10 10t10 10t10 -10t-10 -10zM116 680q-10 0 -10 10t10 10
t10 -10t-10 -10zM116 643q-10 0 -10 10t10 10t10 -10t-10 -10zM116 605q-10 0 -10 10t10 10t10 -10t-10 -10zM116 569q-10 0 -10 10t10 10t10 -10t-10 -10zM116 407q-10 0 -10 10t10 10t10 -10t-10 -10zM116 48q-10 0 -10 10t10 10t10 -10t-10 -10zM116 8q-10 0 -10 10
t10 10t10 -10t-10 -10zM146 353q-10 0 -10 10t10 10t10 -10t-10 -10zM183 353q-10 0 -10 10t10 10t10 -10t-10 -10zM220 353q-10 0 -10 10t10 10t10 -10t-10 -10zM257 353q-10 0 -10 10t10 10t10 -10t-10 -10zM294 353q-10 0 -10 10t10 10t10 -10t-10 -10zM331 353
q-10 0 -10 10t10 10t10 -10t-10 -10zM368 353q-10 0 -10 10t10 10t10 -10t-10 -10zM405 353q-10 0 -10 10t10 10t10 -10t-10 -10zM442 353q-10 0 -10 10t10 10t10 -10t-10 -10zM479 353q-10 0 -10 10t10 10t10 -10t-10 -10zM516 353q-10 0 -10 10t10 10t10 -10t-10 -10z
M622 211q-10 0 -10 10t10 10t10 -10t-10 -10zM622 170q-10 0 -10 10t10 10t10 -10t-10 -10zM622 129q-10 0 -10 10t10 10t10 -10t-10 -10zM622 88q-10 0 -10 10t10 10t10 -10t-10 -10zM622 529q-10 0 -10 10t10 10t10 -10t-10 -10zM622 490q-10 0 -10 10t10 10t10 -10
t-10 -10zM622 447q-10 0 -10 10t10 10t10 -10t-10 -10zM622 367q-10 0 -10 10t10 10t10 -10t-10 -10zM622 330q-10 0 -10 10t10 10t10 -10t-10 -10zM622 290q-10 0 -10 10t10 10t10 -10t-10 -10zM622 250q-10 0 -10 10t10 10t10 -10t-10 -10zM622 680q-10 0 -10 10t10 10
t10 -10t-10 -10zM622 643q-10 0 -10 10t10 10t10 -10t-10 -10zM622 605q-10 0 -10 10t10 10t10 -10t-10 -10zM622 569q-10 0 -10 10t10 10t10 -10t-10 -10zM622 407q-10 0 -10 10t10 10t10 -10t-10 -10zM622 48q-10 0 -10 10t10 10t10 -10t-10 -10zM622 8q-10 0 -10 10
t10 10t10 -10t-10 -10zM555 353q-10 0 -10 10t10 10t10 -10t-10 -10zM592 353q-10 0 -10 10t10 10t10 -10t-10 -10z" />
    <glyph glyph-name="H.sc" horiz-adv-x="627" 
d="M105 -2q-10 0 -10 10t10 10t10 -10t-10 -10zM105 35q-10 0 -10 10t10 10t10 -10t-10 -10zM105 72q-10 0 -10 10t10 10t10 -10t-10 -10zM105 109q-10 0 -10 10t10 10t10 -10t-10 -10zM105 146q-10 0 -10 10t10 10t10 -10t-10 -10zM105 183q-10 0 -10 10t10 10t10 -10
t-10 -10zM105 220q-10 0 -10 10t10 10t10 -10t-10 -10zM105 257q-10 0 -10 10t10 10t10 -10t-10 -10zM105 294q-10 0 -10 10t10 10t10 -10t-10 -10zM105 331q-10 0 -10 10t10 10t10 -10t-10 -10zM105 368q-10 0 -10 10t10 10t10 -10t-10 -10zM105 405q-10 0 -10 10t10 10
t10 -10t-10 -10zM105 442q-10 0 -10 10t10 10t10 -10t-10 -10zM105 479q-10 0 -10 10t10 10t10 -10t-10 -10zM105 516q-10 0 -10 10t10 10t10 -10t-10 -10zM522 -2q-10 0 -10 10t10 10t10 -10t-10 -10zM522 35q-10 0 -10 10t10 10t10 -10t-10 -10zM522 72q-10 0 -10 10
t10 10t10 -10t-10 -10zM522 109q-10 0 -10 10t10 10t10 -10t-10 -10zM522 146q-10 0 -10 10t10 10t10 -10t-10 -10zM522 183q-10 0 -10 10t10 10t10 -10t-10 -10zM522 220q-10 0 -10 10t10 10t10 -10t-10 -10zM522 257q-10 0 -10 10t10 10t10 -10t-10 -10zM522 294
q-10 0 -10 10t10 10t10 -10t-10 -10zM522 331q-10 0 -10 10t10 10t10 -10t-10 -10zM522 368q-10 0 -10 10t10 10t10 -10t-10 -10zM522 405q-10 0 -10 10t10 10t10 -10t-10 -10zM522 442q-10 0 -10 10t10 10t10 -10t-10 -10zM522 479q-10 0 -10 10t10 10t10 -10t-10 -10z
M522 516q-10 0 -10 10t10 10t10 -10t-10 -10zM484 257q-10 0 -10 10t10 10t10 -10t-10 -10zM446 257q-10 0 -10 10t10 10t10 -10t-10 -10zM408 257q-10 0 -10 10t10 10t10 -10t-10 -10zM370 257q-10 0 -10 10t10 10t10 -10t-10 -10zM332 257q-10 0 -10 10t10 10t10 -10
t-10 -10zM294 257q-10 0 -10 10t10 10t10 -10t-10 -10zM256 257q-10 0 -10 10t10 10t10 -10t-10 -10zM218 257q-10 0 -10 10t10 10t10 -10t-10 -10zM180 257q-10 0 -10 10t10 10t10 -10t-10 -10zM180 257q-10 0 -10 10t10 10t10 -10t-10 -10zM143 257q-10 0 -10 10t10 10
t10 -10t-10 -10t-10 10t10 10t10 -10t-10 -10z" />
    <glyph glyph-name="Hbar" unicode="&#x126;" horiz-adv-x="744" 
d="M146 549q-10 0 -10 10t10 10t10 -10t-10 -10zM183 549q-10 0 -10 10t10 10t10 -10t-10 -10zM220 549q-10 0 -10 10t10 10t10 -10t-10 -10zM257 549q-10 0 -10 10t10 10t10 -10t-10 -10zM294 549q-10 0 -10 10t10 10t10 -10t-10 -10zM331 549q-10 0 -10 10t10 10t10 -10
t-10 -10zM368 549q-10 0 -10 10t10 10t10 -10t-10 -10zM405 549q-10 0 -10 10t10 10t10 -10t-10 -10zM442 549q-10 0 -10 10t10 10t10 -10t-10 -10zM479 549q-10 0 -10 10t10 10t10 -10t-10 -10zM516 549q-10 0 -10 10t10 10t10 -10t-10 -10zM555 549q-10 0 -10 10t10 10
t10 -10t-10 -10zM592 549q-10 0 -10 10t10 10t10 -10t-10 -10zM657 549q-10 0 -10 10t10 10t10 -10t-10 -10zM695 549q-10 0 -10 10t10 10t10 -10t-10 -10zM93 549q-10 0 -10 10t10 10t10 -10t-10 -10zM55 549q-10 0 -10 10t10 10t10 -10t-10 -10zM120 211q-10 0 -10 10
t10 10t10 -10t-10 -10zM120 170q-10 0 -10 10t10 10t10 -10t-10 -10zM120 129q-10 0 -10 10t10 10t10 -10t-10 -10zM120 88q-10 0 -10 10t10 10t10 -10t-10 -10zM120 529q-10 0 -10 10t10 10t10 -10t-10 -10zM120 490q-10 0 -10 10t10 10t10 -10t-10 -10zM120 447
q-10 0 -10 10t10 10t10 -10t-10 -10zM120 367q-10 0 -10 10t10 10t10 -10t-10 -10zM120 330q-10 0 -10 10t10 10t10 -10t-10 -10zM120 290q-10 0 -10 10t10 10t10 -10t-10 -10zM120 250q-10 0 -10 10t10 10t10 -10t-10 -10zM120 680q-10 0 -10 10t10 10t10 -10t-10 -10z
M120 643q-10 0 -10 10t10 10t10 -10t-10 -10zM120 605q-10 0 -10 10t10 10t10 -10t-10 -10zM120 569q-10 0 -10 10t10 10t10 -10t-10 -10zM120 407q-10 0 -10 10t10 10t10 -10t-10 -10zM120 48q-10 0 -10 10t10 10t10 -10t-10 -10zM120 8q-10 0 -10 10t10 10t10 -10t-10 -10
zM150 353q-10 0 -10 10t10 10t10 -10t-10 -10zM187 353q-10 0 -10 10t10 10t10 -10t-10 -10zM224 353q-10 0 -10 10t10 10t10 -10t-10 -10zM261 353q-10 0 -10 10t10 10t10 -10t-10 -10zM298 353q-10 0 -10 10t10 10t10 -10t-10 -10zM335 353q-10 0 -10 10t10 10t10 -10
t-10 -10zM372 353q-10 0 -10 10t10 10t10 -10t-10 -10zM409 353q-10 0 -10 10t10 10t10 -10t-10 -10zM446 353q-10 0 -10 10t10 10t10 -10t-10 -10zM483 353q-10 0 -10 10t10 10t10 -10t-10 -10zM520 353q-10 0 -10 10t10 10t10 -10t-10 -10zM626 211q-10 0 -10 10t10 10
t10 -10t-10 -10zM626 170q-10 0 -10 10t10 10t10 -10t-10 -10zM626 129q-10 0 -10 10t10 10t10 -10t-10 -10zM626 88q-10 0 -10 10t10 10t10 -10t-10 -10zM626 529q-10 0 -10 10t10 10t10 -10t-10 -10zM626 490q-10 0 -10 10t10 10t10 -10t-10 -10zM626 447q-10 0 -10 10
t10 10t10 -10t-10 -10zM626 367q-10 0 -10 10t10 10t10 -10t-10 -10zM626 330q-10 0 -10 10t10 10t10 -10t-10 -10zM626 290q-10 0 -10 10t10 10t10 -10t-10 -10zM626 250q-10 0 -10 10t10 10t10 -10t-10 -10zM626 680q-10 0 -10 10t10 10t10 -10t-10 -10zM626 643
q-10 0 -10 10t10 10t10 -10t-10 -10zM626 605q-10 0 -10 10t10 10t10 -10t-10 -10zM626 569q-10 0 -10 10t10 10t10 -10t-10 -10zM626 407q-10 0 -10 10t10 10t10 -10t-10 -10zM626 48q-10 0 -10 10t10 10t10 -10t-10 -10zM626 8q-10 0 -10 10t10 10t10 -10t-10 -10z
M559 353q-10 0 -10 10t10 10t10 -10t-10 -10zM596 353q-10 0 -10 10t10 10t10 -10t-10 -10z" />
    <glyph glyph-name="Hcircumflex" unicode="&#x124;" horiz-adv-x="736" 
d="M370 898q-10 0 -10 10t10 10t10 -10t-10 -10zM398 878q-10 0 -10 10t10 10t10 -10t-10 -10zM424 857q-10 0 -10 10t10 10t10 -10t-10 -10zM450 837q-10 0 -10 10t10 10t10 -10t-10 -10zM342 878q-10 0 -10 10t10 10t10 -10t-10 -10zM316 857q-10 0 -10 10t10 10t10 -10
t-10 -10zM290 837q-10 0 -10 10t10 10t10 -10t-10 -10zM116 211q-10 0 -10 10t10 10t10 -10t-10 -10zM116 170q-10 0 -10 10t10 10t10 -10t-10 -10zM116 129q-10 0 -10 10t10 10t10 -10t-10 -10zM116 88q-10 0 -10 10t10 10t10 -10t-10 -10zM116 529q-10 0 -10 10t10 10
t10 -10t-10 -10zM116 490q-10 0 -10 10t10 10t10 -10t-10 -10zM116 447q-10 0 -10 10t10 10t10 -10t-10 -10zM116 367q-10 0 -10 10t10 10t10 -10t-10 -10zM116 330q-10 0 -10 10t10 10t10 -10t-10 -10zM116 290q-10 0 -10 10t10 10t10 -10t-10 -10zM116 250q-10 0 -10 10
t10 10t10 -10t-10 -10zM116 680q-10 0 -10 10t10 10t10 -10t-10 -10zM116 643q-10 0 -10 10t10 10t10 -10t-10 -10zM116 605q-10 0 -10 10t10 10t10 -10t-10 -10zM116 569q-10 0 -10 10t10 10t10 -10t-10 -10zM116 407q-10 0 -10 10t10 10t10 -10t-10 -10zM116 48
q-10 0 -10 10t10 10t10 -10t-10 -10zM116 8q-10 0 -10 10t10 10t10 -10t-10 -10zM146 353q-10 0 -10 10t10 10t10 -10t-10 -10zM183 353q-10 0 -10 10t10 10t10 -10t-10 -10zM220 353q-10 0 -10 10t10 10t10 -10t-10 -10zM257 353q-10 0 -10 10t10 10t10 -10t-10 -10z
M294 353q-10 0 -10 10t10 10t10 -10t-10 -10zM331 353q-10 0 -10 10t10 10t10 -10t-10 -10zM368 353q-10 0 -10 10t10 10t10 -10t-10 -10zM405 353q-10 0 -10 10t10 10t10 -10t-10 -10zM442 353q-10 0 -10 10t10 10t10 -10t-10 -10zM479 353q-10 0 -10 10t10 10t10 -10
t-10 -10zM516 353q-10 0 -10 10t10 10t10 -10t-10 -10zM622 211q-10 0 -10 10t10 10t10 -10t-10 -10zM622 170q-10 0 -10 10t10 10t10 -10t-10 -10zM622 129q-10 0 -10 10t10 10t10 -10t-10 -10zM622 88q-10 0 -10 10t10 10t10 -10t-10 -10zM622 529q-10 0 -10 10t10 10
t10 -10t-10 -10zM622 490q-10 0 -10 10t10 10t10 -10t-10 -10zM622 447q-10 0 -10 10t10 10t10 -10t-10 -10zM622 367q-10 0 -10 10t10 10t10 -10t-10 -10zM622 330q-10 0 -10 10t10 10t10 -10t-10 -10zM622 290q-10 0 -10 10t10 10t10 -10t-10 -10zM622 250q-10 0 -10 10
t10 10t10 -10t-10 -10zM622 680q-10 0 -10 10t10 10t10 -10t-10 -10zM622 643q-10 0 -10 10t10 10t10 -10t-10 -10zM622 605q-10 0 -10 10t10 10t10 -10t-10 -10zM622 569q-10 0 -10 10t10 10t10 -10t-10 -10zM622 407q-10 0 -10 10t10 10t10 -10t-10 -10zM622 48
q-10 0 -10 10t10 10t10 -10t-10 -10zM622 8q-10 0 -10 10t10 10t10 -10t-10 -10zM555 353q-10 0 -10 10t10 10t10 -10t-10 -10zM592 353q-10 0 -10 10t10 10t10 -10t-10 -10z" />
    <glyph glyph-name="I" unicode="I" horiz-adv-x="230" 
d="M116 706q-10 0 -10 10t10 10t10 -10t-10 -10zM116 672q-10 0 -10 10t10 10t10 -10t-10 -10zM116 637q-10 0 -10 10t10 10t10 -10t-10 -10zM116 602q-10 0 -10 10t10 10t10 -10t-10 -10zM116 567q-10 0 -10 10t10 10t10 -10t-10 -10zM116 532q-10 0 -10 10t10 10t10 -10
t-10 -10zM116 497q-10 0 -10 10t10 10t10 -10t-10 -10zM116 462q-10 0 -10 10t10 10t10 -10t-10 -10zM116 426q-10 0 -10 10t10 10t10 -10t-10 -10zM116 391q-10 0 -10 10t10 10t10 -10t-10 -10zM116 356q-10 0 -10 10t10 10t10 -10t-10 -10zM116 321q-10 0 -10 10t10 10
t10 -10t-10 -10zM116 286q-10 0 -10 10t10 10t10 -10t-10 -10zM116 251q-10 0 -10 10t10 10t10 -10t-10 -10zM116 216q-10 0 -10 10t10 10t10 -10t-10 -10zM116 181q-10 0 -10 10t10 10t10 -10t-10 -10zM116 144q-10 0 -10 10t10 10t10 -10t-10 -10zM116 109q-10 0 -10 10
t10 10t10 -10t-10 -10zM116 74q-10 0 -10 10t10 10t10 -10t-10 -10zM116 39q-10 0 -10 10t10 10t10 -10t-10 -10zM116 4q-10 0 -10 10t10 10t10 -10t-10 -10z" />
    <glyph glyph-name="I.sc" horiz-adv-x="210" 
d="M104 -2q-10 0 -10 10t10 10t10 -10t-10 -10zM104 35q-10 0 -10 10t10 10t10 -10t-10 -10zM104 72q-10 0 -10 10t10 10t10 -10t-10 -10zM104 109q-10 0 -10 10t10 10t10 -10t-10 -10zM104 146q-10 0 -10 10t10 10t10 -10t-10 -10zM104 183q-10 0 -10 10t10 10t10 -10
t-10 -10zM104 220q-10 0 -10 10t10 10t10 -10t-10 -10zM104 257q-10 0 -10 10t10 10t10 -10t-10 -10zM104 294q-10 0 -10 10t10 10t10 -10t-10 -10zM104 331q-10 0 -10 10t10 10t10 -10t-10 -10zM104 368q-10 0 -10 10t10 10t10 -10t-10 -10zM104 405q-10 0 -10 10t10 10
t10 -10t-10 -10zM104 442q-10 0 -10 10t10 10t10 -10t-10 -10zM104 479q-10 0 -10 10t10 10t10 -10t-10 -10zM104 516q-10 0 -10 10t10 10t10 -10t-10 -10z" />
    <glyph glyph-name="IJ" unicode="&#x132;" horiz-adv-x="712" 
d="M116 706q-10 0 -10 10t10 10t10 -10t-10 -10zM116 672q-10 0 -10 10t10 10t10 -10t-10 -10zM116 637q-10 0 -10 10t10 10t10 -10t-10 -10zM116 602q-10 0 -10 10t10 10t10 -10t-10 -10zM116 567q-10 0 -10 10t10 10t10 -10t-10 -10zM116 532q-10 0 -10 10t10 10t10 -10
t-10 -10zM116 497q-10 0 -10 10t10 10t10 -10t-10 -10zM116 462q-10 0 -10 10t10 10t10 -10t-10 -10zM116 426q-10 0 -10 10t10 10t10 -10t-10 -10zM116 391q-10 0 -10 10t10 10t10 -10t-10 -10zM116 356q-10 0 -10 10t10 10t10 -10t-10 -10zM116 321q-10 0 -10 10t10 10
t10 -10t-10 -10zM116 286q-10 0 -10 10t10 10t10 -10t-10 -10zM116 251q-10 0 -10 10t10 10t10 -10t-10 -10zM116 216q-10 0 -10 10t10 10t10 -10t-10 -10zM116 181q-10 0 -10 10t10 10t10 -10t-10 -10zM116 144q-10 0 -10 10t10 10t10 -10t-10 -10zM116 109q-10 0 -10 10
t10 10t10 -10t-10 -10zM116 74q-10 0 -10 10t10 10t10 -10t-10 -10zM116 39q-10 0 -10 10t10 10t10 -10t-10 -10zM116 4q-10 0 -10 10t10 10t10 -10t-10 -10zM605 680q-10 0 -10 10t10 10t10 -10t-10 -10zM605 643q-10 0 -10 10t10 10t10 -10t-10 -10zM605 605q-10 0 -10 10
t10 10t10 -10t-10 -10zM605 567q-10 0 -10 10t10 10t10 -10t-10 -10zM605 530q-10 0 -10 10t10 10t10 -10t-10 -10zM605 491q-10 0 -10 10t10 10t10 -10t-10 -10zM605 447q-10 0 -10 10t10 10t10 -10t-10 -10zM605 410q-10 0 -10 10t10 10t10 -10t-10 -10zM605 369
q-10 0 -10 10t10 10t10 -10t-10 -10zM605 330q-10 0 -10 10t10 10t10 -10t-10 -10zM605 291q-10 0 -10 10t10 10t10 -10t-10 -10zM604 251q-10 0 -10 10t10 10t10 -10t-10 -10zM601 209q-10 0 -10 10t10 10t10 -10t-10 -10zM596 169q-10 0 -10 10t10 10t10 -10t-10 -10z
M587 128q-10 0 -10 10t10 10t10 -10t-10 -10zM574 90q-10 0 -10 10t10 10t10 -10t-10 -10zM551 54q-10 0 -10 10t10 10t10 -10t-10 -10zM520 24q-10 0 -10 10t10 10t10 -10t-10 -10zM481 5q-10 0 -10 10t10 10t10 -10t-10 -10zM439 -5q-10 0 -10 10t10 10t10 -10t-10 -10z
M396 -6q-10 0 -10 10t10 10t10 -10t-10 -10zM351 0q-10 0 -10 10t10 10t10 -10t-10 -10zM307 12q-10 0 -10 10t10 10t10 -10t-10 -10zM269 31q-10 0 -10 10t10 10t10 -10t-10 -10z" />
    <glyph glyph-name="J" unicode="J" horiz-adv-x="482" 
d="M375 680q-10 0 -10 10t10 10t10 -10t-10 -10zM375 643q-10 0 -10 10t10 10t10 -10t-10 -10zM375 605q-10 0 -10 10t10 10t10 -10t-10 -10zM375 567q-10 0 -10 10t10 10t10 -10t-10 -10zM375 530q-10 0 -10 10t10 10t10 -10t-10 -10zM375 491q-10 0 -10 10t10 10t10 -10
t-10 -10zM375 447q-10 0 -10 10t10 10t10 -10t-10 -10zM375 410q-10 0 -10 10t10 10t10 -10t-10 -10zM375 369q-10 0 -10 10t10 10t10 -10t-10 -10zM375 330q-10 0 -10 10t10 10t10 -10t-10 -10zM375 291q-10 0 -10 10t10 10t10 -10t-10 -10zM374 251q-10 0 -10 10t10 10
t10 -10t-10 -10zM371 209q-10 0 -10 10t10 10t10 -10t-10 -10zM366 169q-10 0 -10 10t10 10t10 -10t-10 -10zM357 128q-10 0 -10 10t10 10t10 -10t-10 -10zM344 90q-10 0 -10 10t10 10t10 -10t-10 -10zM321 54q-10 0 -10 10t10 10t10 -10t-10 -10zM290 24q-10 0 -10 10
t10 10t10 -10t-10 -10zM251 5q-10 0 -10 10t10 10t10 -10t-10 -10zM209 -5q-10 0 -10 10t10 10t10 -10t-10 -10zM166 -6q-10 0 -10 10t10 10t10 -10t-10 -10zM121 0q-10 0 -10 10t10 10t10 -10t-10 -10zM77 12q-10 0 -10 10t10 10t10 -10t-10 -10zM39 31q-10 0 -10 10t10 10
t10 -10t-10 -10z" />
    <glyph glyph-name="Iacute" unicode="&#xcd;" horiz-adv-x="230" 
d="M116 706q-10 0 -10 10t10 10t10 -10t-10 -10zM116 672q-10 0 -10 10t10 10t10 -10t-10 -10zM116 637q-10 0 -10 10t10 10t10 -10t-10 -10zM116 602q-10 0 -10 10t10 10t10 -10t-10 -10zM116 567q-10 0 -10 10t10 10t10 -10t-10 -10zM116 532q-10 0 -10 10t10 10t10 -10
t-10 -10zM116 497q-10 0 -10 10t10 10t10 -10t-10 -10zM116 462q-10 0 -10 10t10 10t10 -10t-10 -10zM116 426q-10 0 -10 10t10 10t10 -10t-10 -10zM116 391q-10 0 -10 10t10 10t10 -10t-10 -10zM116 356q-10 0 -10 10t10 10t10 -10t-10 -10zM116 321q-10 0 -10 10t10 10
t10 -10t-10 -10zM116 286q-10 0 -10 10t10 10t10 -10t-10 -10zM116 251q-10 0 -10 10t10 10t10 -10t-10 -10zM116 216q-10 0 -10 10t10 10t10 -10t-10 -10zM116 181q-10 0 -10 10t10 10t10 -10t-10 -10zM116 144q-10 0 -10 10t10 10t10 -10t-10 -10zM116 109q-10 0 -10 10
t10 10t10 -10t-10 -10zM116 74q-10 0 -10 10t10 10t10 -10t-10 -10zM116 39q-10 0 -10 10t10 10t10 -10t-10 -10zM116 4q-10 0 -10 10t10 10t10 -10t-10 -10zM98 826q-10 0 -10 10t10 10t10 -10t-10 -10zM119 850q-10 0 -10 10t10 10t10 -10t-10 -10zM140 875q-10 0 -10 10
t10 10t10 -10t-10 -10zM161 900q-10 0 -10 10t10 10t10 -10t-10 -10z" />
    <glyph glyph-name="Ibreve" unicode="&#x12c;" horiz-adv-x="230" 
d="M116 706q-10 0 -10 10t10 10t10 -10t-10 -10zM116 672q-10 0 -10 10t10 10t10 -10t-10 -10zM116 637q-10 0 -10 10t10 10t10 -10t-10 -10zM116 602q-10 0 -10 10t10 10t10 -10t-10 -10zM116 567q-10 0 -10 10t10 10t10 -10t-10 -10zM116 532q-10 0 -10 10t10 10t10 -10
t-10 -10zM116 497q-10 0 -10 10t10 10t10 -10t-10 -10zM116 462q-10 0 -10 10t10 10t10 -10t-10 -10zM116 426q-10 0 -10 10t10 10t10 -10t-10 -10zM116 391q-10 0 -10 10t10 10t10 -10t-10 -10zM116 356q-10 0 -10 10t10 10t10 -10t-10 -10zM116 321q-10 0 -10 10t10 10
t10 -10t-10 -10zM116 286q-10 0 -10 10t10 10t10 -10t-10 -10zM116 251q-10 0 -10 10t10 10t10 -10t-10 -10zM116 216q-10 0 -10 10t10 10t10 -10t-10 -10zM116 181q-10 0 -10 10t10 10t10 -10t-10 -10zM116 144q-10 0 -10 10t10 10t10 -10t-10 -10zM116 109q-10 0 -10 10
t10 10t10 -10t-10 -10zM116 74q-10 0 -10 10t10 10t10 -10t-10 -10zM116 39q-10 0 -10 10t10 10t10 -10t-10 -10zM116 4q-10 0 -10 10t10 10t10 -10t-10 -10zM49 900q-10 0 -10 10t10 10t10 -10t-10 -10zM60 868q-10 0 -10 10t10 10t10 -10t-10 -10zM83 845q-10 0 -10 10
t10 10t10 -10t-10 -10zM117 835q-10 0 -10 10t10 10t10 -10t-10 -10zM185 900q-10 0 -10 10t10 10t10 -10t-10 -10zM174 868q-10 0 -10 10t10 10t10 -10t-10 -10zM151 845q-10 0 -10 10t10 10t10 -10t-10 -10z" />
    <glyph glyph-name="Icircumflex" unicode="&#xce;" horiz-adv-x="230" 
d="M116 706q-10 0 -10 10t10 10t10 -10t-10 -10zM116 672q-10 0 -10 10t10 10t10 -10t-10 -10zM116 637q-10 0 -10 10t10 10t10 -10t-10 -10zM116 602q-10 0 -10 10t10 10t10 -10t-10 -10zM116 567q-10 0 -10 10t10 10t10 -10t-10 -10zM116 532q-10 0 -10 10t10 10t10 -10
t-10 -10zM116 497q-10 0 -10 10t10 10t10 -10t-10 -10zM116 462q-10 0 -10 10t10 10t10 -10t-10 -10zM116 426q-10 0 -10 10t10 10t10 -10t-10 -10zM116 391q-10 0 -10 10t10 10t10 -10t-10 -10zM116 356q-10 0 -10 10t10 10t10 -10t-10 -10zM116 321q-10 0 -10 10t10 10
t10 -10t-10 -10zM116 286q-10 0 -10 10t10 10t10 -10t-10 -10zM116 251q-10 0 -10 10t10 10t10 -10t-10 -10zM116 216q-10 0 -10 10t10 10t10 -10t-10 -10zM116 181q-10 0 -10 10t10 10t10 -10t-10 -10zM116 144q-10 0 -10 10t10 10t10 -10t-10 -10zM116 109q-10 0 -10 10
t10 10t10 -10t-10 -10zM116 74q-10 0 -10 10t10 10t10 -10t-10 -10zM116 39q-10 0 -10 10t10 10t10 -10t-10 -10zM116 4q-10 0 -10 10t10 10t10 -10t-10 -10zM116 898q-10 0 -10 10t10 10t10 -10t-10 -10zM144 878q-10 0 -10 10t10 10t10 -10t-10 -10zM170 857q-10 0 -10 10
t10 10t10 -10t-10 -10zM196 837q-10 0 -10 10t10 10t10 -10t-10 -10zM88 878q-10 0 -10 10t10 10t10 -10t-10 -10zM62 857q-10 0 -10 10t10 10t10 -10t-10 -10zM36 837q-10 0 -10 10t10 10t10 -10t-10 -10z" />
    <glyph glyph-name="Idieresis" unicode="&#xcf;" horiz-adv-x="230" 
d="M116 706q-10 0 -10 10t10 10t10 -10t-10 -10zM116 672q-10 0 -10 10t10 10t10 -10t-10 -10zM116 637q-10 0 -10 10t10 10t10 -10t-10 -10zM116 602q-10 0 -10 10t10 10t10 -10t-10 -10zM116 567q-10 0 -10 10t10 10t10 -10t-10 -10zM116 532q-10 0 -10 10t10 10t10 -10
t-10 -10zM116 497q-10 0 -10 10t10 10t10 -10t-10 -10zM116 462q-10 0 -10 10t10 10t10 -10t-10 -10zM116 426q-10 0 -10 10t10 10t10 -10t-10 -10zM116 391q-10 0 -10 10t10 10t10 -10t-10 -10zM116 356q-10 0 -10 10t10 10t10 -10t-10 -10zM116 321q-10 0 -10 10t10 10
t10 -10t-10 -10zM116 286q-10 0 -10 10t10 10t10 -10t-10 -10zM116 251q-10 0 -10 10t10 10t10 -10t-10 -10zM116 216q-10 0 -10 10t10 10t10 -10t-10 -10zM116 181q-10 0 -10 10t10 10t10 -10t-10 -10zM116 144q-10 0 -10 10t10 10t10 -10t-10 -10zM116 109q-10 0 -10 10
t10 10t10 -10t-10 -10zM116 74q-10 0 -10 10t10 10t10 -10t-10 -10zM116 39q-10 0 -10 10t10 10t10 -10t-10 -10zM116 4q-10 0 -10 10t10 10t10 -10t-10 -10zM53 834q-10 0 -10 10t10 10t10 -10t-10 -10zM53 867q-10 0 -10 10t10 10t10 -10t-10 -10zM53 900q-10 0 -10 10
t10 10t10 -10t-10 -10zM179 834q-10 0 -10 10t10 10t10 -10t-10 -10zM179 867q-10 0 -10 10t10 10t10 -10t-10 -10zM179 900q-10 0 -10 10t10 10t10 -10t-10 -10z" />
    <glyph glyph-name="Idotaccent" unicode="&#x130;" horiz-adv-x="230" 
d="M116 706q-10 0 -10 10t10 10t10 -10t-10 -10zM116 672q-10 0 -10 10t10 10t10 -10t-10 -10zM116 637q-10 0 -10 10t10 10t10 -10t-10 -10zM116 602q-10 0 -10 10t10 10t10 -10t-10 -10zM116 567q-10 0 -10 10t10 10t10 -10t-10 -10zM116 532q-10 0 -10 10t10 10t10 -10
t-10 -10zM116 497q-10 0 -10 10t10 10t10 -10t-10 -10zM116 462q-10 0 -10 10t10 10t10 -10t-10 -10zM116 426q-10 0 -10 10t10 10t10 -10t-10 -10zM116 391q-10 0 -10 10t10 10t10 -10t-10 -10zM116 356q-10 0 -10 10t10 10t10 -10t-10 -10zM116 321q-10 0 -10 10t10 10
t10 -10t-10 -10zM116 286q-10 0 -10 10t10 10t10 -10t-10 -10zM116 251q-10 0 -10 10t10 10t10 -10t-10 -10zM116 216q-10 0 -10 10t10 10t10 -10t-10 -10zM116 181q-10 0 -10 10t10 10t10 -10t-10 -10zM116 144q-10 0 -10 10t10 10t10 -10t-10 -10zM116 109q-10 0 -10 10
t10 10t10 -10t-10 -10zM116 74q-10 0 -10 10t10 10t10 -10t-10 -10zM116 39q-10 0 -10 10t10 10t10 -10t-10 -10zM116 4q-10 0 -10 10t10 10t10 -10t-10 -10zM115 834q-10 0 -10 10t10 10t10 -10t-10 -10zM115 867q-10 0 -10 10t10 10t10 -10t-10 -10zM115 900q-10 0 -10 10
t10 10t10 -10t-10 -10z" />
    <glyph glyph-name="Igrave" unicode="&#xcc;" horiz-adv-x="230" 
d="M116 706q-10 0 -10 10t10 10t10 -10t-10 -10zM116 672q-10 0 -10 10t10 10t10 -10t-10 -10zM116 637q-10 0 -10 10t10 10t10 -10t-10 -10zM116 602q-10 0 -10 10t10 10t10 -10t-10 -10zM116 567q-10 0 -10 10t10 10t10 -10t-10 -10zM116 532q-10 0 -10 10t10 10t10 -10
t-10 -10zM116 497q-10 0 -10 10t10 10t10 -10t-10 -10zM116 462q-10 0 -10 10t10 10t10 -10t-10 -10zM116 426q-10 0 -10 10t10 10t10 -10t-10 -10zM116 391q-10 0 -10 10t10 10t10 -10t-10 -10zM116 356q-10 0 -10 10t10 10t10 -10t-10 -10zM116 321q-10 0 -10 10t10 10
t10 -10t-10 -10zM116 286q-10 0 -10 10t10 10t10 -10t-10 -10zM116 251q-10 0 -10 10t10 10t10 -10t-10 -10zM116 216q-10 0 -10 10t10 10t10 -10t-10 -10zM116 181q-10 0 -10 10t10 10t10 -10t-10 -10zM116 144q-10 0 -10 10t10 10t10 -10t-10 -10zM116 109q-10 0 -10 10
t10 10t10 -10t-10 -10zM116 74q-10 0 -10 10t10 10t10 -10t-10 -10zM116 39q-10 0 -10 10t10 10t10 -10t-10 -10zM116 4q-10 0 -10 10t10 10t10 -10t-10 -10zM131 828q-10 0 -10 10t10 10t10 -10t-10 -10zM110 852q-10 0 -10 10t10 10t10 -10t-10 -10zM89 877q-10 0 -10 10
t10 10t10 -10t-10 -10zM68 902q-10 0 -10 10t10 10t10 -10t-10 -10z" />
    <glyph glyph-name="Imacron" unicode="&#x12a;" horiz-adv-x="230" 
d="M116 706q-10 0 -10 10t10 10t10 -10t-10 -10zM116 672q-10 0 -10 10t10 10t10 -10t-10 -10zM116 637q-10 0 -10 10t10 10t10 -10t-10 -10zM116 602q-10 0 -10 10t10 10t10 -10t-10 -10zM116 567q-10 0 -10 10t10 10t10 -10t-10 -10zM116 532q-10 0 -10 10t10 10t10 -10
t-10 -10zM116 497q-10 0 -10 10t10 10t10 -10t-10 -10zM116 462q-10 0 -10 10t10 10t10 -10t-10 -10zM116 426q-10 0 -10 10t10 10t10 -10t-10 -10zM116 391q-10 0 -10 10t10 10t10 -10t-10 -10zM116 356q-10 0 -10 10t10 10t10 -10t-10 -10zM116 321q-10 0 -10 10t10 10
t10 -10t-10 -10zM116 286q-10 0 -10 10t10 10t10 -10t-10 -10zM116 251q-10 0 -10 10t10 10t10 -10t-10 -10zM116 216q-10 0 -10 10t10 10t10 -10t-10 -10zM116 181q-10 0 -10 10t10 10t10 -10t-10 -10zM116 144q-10 0 -10 10t10 10t10 -10t-10 -10zM116 109q-10 0 -10 10
t10 10t10 -10t-10 -10zM116 74q-10 0 -10 10t10 10t10 -10t-10 -10zM116 39q-10 0 -10 10t10 10t10 -10t-10 -10zM116 4q-10 0 -10 10t10 10t10 -10t-10 -10zM-13 872q-10 0 -10 10t10 10t10 -10t-10 -10zM24 872q-10 0 -10 10t10 10t10 -10t-10 -10zM61 872q-10 0 -10 10
t10 10t10 -10t-10 -10zM98 872q-10 0 -10 10t10 10t10 -10t-10 -10zM135 872q-10 0 -10 10t10 10t10 -10t-10 -10zM172 872q-10 0 -10 10t10 10t10 -10t-10 -10zM209 872q-10 0 -10 10t10 10t10 -10t-10 -10zM246 872q-10 0 -10 10t10 10t10 -10t-10 -10z" />
    <glyph glyph-name="Iogonek" unicode="&#x12e;" horiz-adv-x="230" 
d="M91 -15q-10 0 -10 10t10 10t10 -10t-10 -10zM67 -36q-10 0 -10 10t10 10t10 -10t-10 -10zM47 -62q-10 0 -10 10t10 10t10 -10t-10 -10zM38 -95q-10 0 -10 10t10 10t10 -10t-10 -10zM48 -128q-10 0 -10 10t10 10t10 -10t-10 -10zM76 -146q-10 0 -10 10t10 10t10 -10
t-10 -10zM116 706q-10 0 -10 10t10 10t10 -10t-10 -10zM116 672q-10 0 -10 10t10 10t10 -10t-10 -10zM116 637q-10 0 -10 10t10 10t10 -10t-10 -10zM116 602q-10 0 -10 10t10 10t10 -10t-10 -10zM116 567q-10 0 -10 10t10 10t10 -10t-10 -10zM116 532q-10 0 -10 10t10 10
t10 -10t-10 -10zM116 497q-10 0 -10 10t10 10t10 -10t-10 -10zM116 462q-10 0 -10 10t10 10t10 -10t-10 -10zM116 426q-10 0 -10 10t10 10t10 -10t-10 -10zM116 391q-10 0 -10 10t10 10t10 -10t-10 -10zM116 356q-10 0 -10 10t10 10t10 -10t-10 -10zM116 321q-10 0 -10 10
t10 10t10 -10t-10 -10zM116 286q-10 0 -10 10t10 10t10 -10t-10 -10zM116 251q-10 0 -10 10t10 10t10 -10t-10 -10zM116 216q-10 0 -10 10t10 10t10 -10t-10 -10zM116 181q-10 0 -10 10t10 10t10 -10t-10 -10zM116 144q-10 0 -10 10t10 10t10 -10t-10 -10zM116 109
q-10 0 -10 10t10 10t10 -10t-10 -10zM116 74q-10 0 -10 10t10 10t10 -10t-10 -10zM116 39q-10 0 -10 10t10 10t10 -10t-10 -10zM116 4q-10 0 -10 10t10 10t10 -10t-10 -10z" />
    <glyph glyph-name="Itilde" unicode="&#x128;" horiz-adv-x="230" 
d="M116 706q-10 0 -10 10t10 10t10 -10t-10 -10zM116 672q-10 0 -10 10t10 10t10 -10t-10 -10zM116 637q-10 0 -10 10t10 10t10 -10t-10 -10zM116 602q-10 0 -10 10t10 10t10 -10t-10 -10zM116 567q-10 0 -10 10t10 10t10 -10t-10 -10zM116 532q-10 0 -10 10t10 10t10 -10
t-10 -10zM116 497q-10 0 -10 10t10 10t10 -10t-10 -10zM116 462q-10 0 -10 10t10 10t10 -10t-10 -10zM116 426q-10 0 -10 10t10 10t10 -10t-10 -10zM116 391q-10 0 -10 10t10 10t10 -10t-10 -10zM116 356q-10 0 -10 10t10 10t10 -10t-10 -10zM116 321q-10 0 -10 10t10 10
t10 -10t-10 -10zM116 286q-10 0 -10 10t10 10t10 -10t-10 -10zM116 251q-10 0 -10 10t10 10t10 -10t-10 -10zM116 216q-10 0 -10 10t10 10t10 -10t-10 -10zM116 181q-10 0 -10 10t10 10t10 -10t-10 -10zM116 144q-10 0 -10 10t10 10t10 -10t-10 -10zM116 109q-10 0 -10 10
t10 10t10 -10t-10 -10zM116 74q-10 0 -10 10t10 10t10 -10t-10 -10zM116 39q-10 0 -10 10t10 10t10 -10t-10 -10zM116 4q-10 0 -10 10t10 10t10 -10t-10 -10zM-11 831q-10 0 -10 10t10 10t10 -10t-10 -10zM3 863q-10 0 -10 10t10 10t10 -10t-10 -10zM30 884q-10 0 -10 10
t10 10t10 -10t-10 -10zM65 884q-10 0 -10 10t10 10t10 -10t-10 -10zM99 873q-10 0 -10 10t10 10t10 -10t-10 -10zM132 857q-10 0 -10 10t10 10t10 -10t-10 -10zM167 847q-10 0 -10 10t10 10t10 -10t-10 -10zM203 850q-10 0 -10 10t10 10t10 -10t-10 -10zM233 868
q-10 0 -10 10t10 10t10 -10t-10 -10zM249 900q-10 0 -10 10t10 10t10 -10t-10 -10z" />
    <glyph glyph-name="J.sc" horiz-adv-x="418" 
d="M243 16q-10 0 -10 10t10 10t10 -10t-10 -10zM275 39q-10 0 -10 10t10 10t10 -10t-10 -10zM296 72q-10 0 -10 10t10 10t10 -10t-10 -10zM308 109q-10 0 -10 10t10 10t10 -10t-10 -10zM314 146q-10 0 -10 10t10 10t10 -10t-10 -10zM318 183q-10 0 -10 10t10 10t10 -10
t-10 -10zM320 220q-10 0 -10 10t10 10t10 -10t-10 -10zM320 257q-10 0 -10 10t10 10t10 -10t-10 -10zM320 294q-10 0 -10 10t10 10t10 -10t-10 -10zM320 331q-10 0 -10 10t10 10t10 -10t-10 -10zM320 368q-10 0 -10 10t10 10t10 -10t-10 -10zM320 405q-10 0 -10 10t10 10
t10 -10t-10 -10zM320 442q-10 0 -10 10t10 10t10 -10t-10 -10zM320 479q-10 0 -10 10t10 10t10 -10t-10 -10zM320 516q-10 0 -10 10t10 10t10 -10t-10 -10zM205 1q-10 0 -10 10t10 10t10 -10t-10 -10zM165 -5q-10 0 -10 10t10 10t10 -10t-10 -10zM125 -2q-10 0 -10 10t10 10
t10 -10t-10 -10zM85 7q-10 0 -10 10t10 10t10 -10t-10 -10zM47 21q-10 0 -10 10t10 10t10 -10t-10 -10z" />
    <glyph glyph-name="Jcircumflex" unicode="&#x134;" horiz-adv-x="482" 
d="M375 898q-10 0 -10 10t10 10t10 -10t-10 -10zM403 878q-10 0 -10 10t10 10t10 -10t-10 -10zM429 857q-10 0 -10 10t10 10t10 -10t-10 -10zM455 837q-10 0 -10 10t10 10t10 -10t-10 -10zM347 878q-10 0 -10 10t10 10t10 -10t-10 -10zM321 857q-10 0 -10 10t10 10t10 -10
t-10 -10zM295 837q-10 0 -10 10t10 10t10 -10t-10 -10zM375 680q-10 0 -10 10t10 10t10 -10t-10 -10zM375 643q-10 0 -10 10t10 10t10 -10t-10 -10zM375 605q-10 0 -10 10t10 10t10 -10t-10 -10zM375 567q-10 0 -10 10t10 10t10 -10t-10 -10zM375 530q-10 0 -10 10t10 10
t10 -10t-10 -10zM375 491q-10 0 -10 10t10 10t10 -10t-10 -10zM375 447q-10 0 -10 10t10 10t10 -10t-10 -10zM375 410q-10 0 -10 10t10 10t10 -10t-10 -10zM375 369q-10 0 -10 10t10 10t10 -10t-10 -10zM375 330q-10 0 -10 10t10 10t10 -10t-10 -10zM375 291q-10 0 -10 10
t10 10t10 -10t-10 -10zM374 251q-10 0 -10 10t10 10t10 -10t-10 -10zM371 209q-10 0 -10 10t10 10t10 -10t-10 -10zM366 169q-10 0 -10 10t10 10t10 -10t-10 -10zM357 128q-10 0 -10 10t10 10t10 -10t-10 -10zM344 90q-10 0 -10 10t10 10t10 -10t-10 -10zM321 54
q-10 0 -10 10t10 10t10 -10t-10 -10zM290 24q-10 0 -10 10t10 10t10 -10t-10 -10zM251 5q-10 0 -10 10t10 10t10 -10t-10 -10zM209 -5q-10 0 -10 10t10 10t10 -10t-10 -10zM166 -6q-10 0 -10 10t10 10t10 -10t-10 -10zM121 0q-10 0 -10 10t10 10t10 -10t-10 -10zM77 12
q-10 0 -10 10t10 10t10 -10t-10 -10zM39 31q-10 0 -10 10t10 10t10 -10t-10 -10z" />
    <glyph glyph-name="K" unicode="K" horiz-adv-x="628" 
d="M116 219q-10 0 -10 10t10 10t10 -10t-10 -10zM116 178q-10 0 -10 10t10 10t10 -10t-10 -10zM116 137q-10 0 -10 10t10 10t10 -10t-10 -10zM116 96q-10 0 -10 10t10 10t10 -10t-10 -10zM116 537q-10 0 -10 10t10 10t10 -10t-10 -10zM116 498q-10 0 -10 10t10 10t10 -10
t-10 -10zM116 455q-10 0 -10 10t10 10t10 -10t-10 -10zM116 375q-10 0 -10 10t10 10t10 -10t-10 -10zM116 338q-10 0 -10 10t10 10t10 -10t-10 -10zM116 298q-10 0 -10 10t10 10t10 -10t-10 -10zM116 258q-10 0 -10 10t10 10t10 -10t-10 -10zM116 688q-10 0 -10 10t10 10
t10 -10t-10 -10zM116 651q-10 0 -10 10t10 10t10 -10t-10 -10zM116 613q-10 0 -10 10t10 10t10 -10t-10 -10zM116 577q-10 0 -10 10t10 10t10 -10t-10 -10zM116 415q-10 0 -10 10t10 10t10 -10t-10 -10zM116 56q-10 0 -10 10t10 10t10 -10t-10 -10zM116 16q-10 0 -10 10
t10 10t10 -10t-10 -10zM515 624q-10 0 -10 10t10 10t10 -10t-10 -10zM569 679q-10 0 -10 10t10 10t10 -10t-10 -10zM541 652q-10 0 -10 10t10 10t10 -10t-10 -10zM435 542q-10 0 -10 10t10 10t10 -10t-10 -10zM489 597q-10 0 -10 10t10 10t10 -10t-10 -10zM461 570
q-10 0 -10 10t10 10t10 -10t-10 -10zM381 487q-10 0 -10 10t10 10t10 -10t-10 -10zM407 515q-10 0 -10 10t10 10t10 -10t-10 -10zM301 405q-10 0 -10 10t10 10t10 -10t-10 -10zM355 460q-10 0 -10 10t10 10t10 -10t-10 -10zM327 433q-10 0 -10 10t10 10t10 -10t-10 -10z
M275 377q-10 0 -10 10t10 10t10 -10t-10 -10zM221 322q-10 0 -10 10t10 10t10 -10t-10 -10zM247 350q-10 0 -10 10t10 10t10 -10t-10 -10zM141 240q-10 0 -10 10t10 10t10 -10t-10 -10zM167 268q-10 0 -10 10t10 10t10 -10t-10 -10zM194 296q-10 0 -10 10t10 10t10 -10
t-10 -10zM329 339q-10 0 -10 10t10 10t10 -10t-10 -10zM353 310q-10 0 -10 10t10 10t10 -10t-10 -10zM425 218q-10 0 -10 10t10 10t10 -10t-10 -10zM449 188q-10 0 -10 10t10 10t10 -10t-10 -10zM376 280q-10 0 -10 10t10 10t10 -10t-10 -10zM401 248q-10 0 -10 10t10 10
t10 -10t-10 -10zM472 157q-10 0 -10 10t10 10t10 -10t-10 -10zM497 126q-10 0 -10 10t10 10t10 -10t-10 -10zM307 368q-10 0 -10 10t10 10t10 -10t-10 -10zM521 96q-10 0 -10 10t10 10t10 -10t-10 -10zM545 66q-10 0 -10 10t10 10t10 -10t-10 -10zM568 35q-10 0 -10 10
t10 10t10 -10t-10 -10zM593 4q-10 0 -10 10t10 10t10 -10t-10 -10z" />
    <glyph glyph-name="K.sc" horiz-adv-x="543" 
d="M105 241q-10 0 -10 10t10 10t10 -10t-10 -10zM105 201q-10 0 -10 10t10 10t10 -10t-10 -10zM105 161q-10 0 -10 10t10 10t10 -10t-10 -10zM105 121q-10 0 -10 10t10 10t10 -10t-10 -10zM105 81q-10 0 -10 10t10 10t10 -10t-10 -10zM105 41q-10 0 -10 10t10 10t10 -10
t-10 -10zM105 1q-10 0 -10 10t10 10t10 -10t-10 -10zM105 465q-10 0 -10 10t10 10t10 -10t-10 -10zM105 391q-10 0 -10 10t10 10t10 -10t-10 -10zM105 354q-10 0 -10 10t10 10t10 -10t-10 -10zM105 316q-10 0 -10 10t10 10t10 -10t-10 -10zM105 280q-10 0 -10 10t10 10
t10 -10t-10 -10zM105 428q-10 0 -10 10t10 10t10 -10t-10 -10zM471 501q-10 0 -10 10t10 10t10 -10t-10 -10zM441 471q-10 0 -10 10t10 10t10 -10t-10 -10zM295 334q-10 0 -10 10t10 10t10 -10t-10 -10zM306 241q-10 0 -10 10t10 10t10 -10t-10 -10zM232 275q-10 0 -10 10
t10 10t10 -10t-10 -10zM261 304q-10 0 -10 10t10 10t10 -10t-10 -10zM201 246q-10 0 -10 10t10 10t10 -10t-10 -10zM282 270q-10 0 -10 10t10 10t10 -10t-10 -10zM169 219q-10 0 -10 10t10 10t10 -10t-10 -10zM402 127q-10 0 -10 10t10 10t10 -10t-10 -10zM138 190
q-10 0 -10 10t10 10t10 -10t-10 -10zM430 94q-10 0 -10 10t10 10t10 -10t-10 -10zM456 63q-10 0 -10 10t10 10t10 -10t-10 -10zM480 35q-10 0 -10 10t10 10t10 -10t-10 -10zM510 0q-10 0 -10 10t10 10t10 -10t-10 -10zM330 212q-10 0 -10 10t10 10t10 -10t-10 -10zM354 183
q-10 0 -10 10t10 10t10 -10t-10 -10zM378 155q-10 0 -10 10t10 10t10 -10t-10 -10zM327 362q-10 0 -10 10t10 10t10 -10t-10 -10zM356 391q-10 0 -10 10t10 10t10 -10t-10 -10zM383 417q-10 0 -10 10t10 10t10 -10t-10 -10zM412 443q-10 0 -10 10t10 10t10 -10t-10 -10z
M105 502q-10 0 -10 10t10 10t10 -10t-10 -10z" />
    <glyph glyph-name="Kcommaaccent" unicode="&#x136;" horiz-adv-x="628" 
d="M321 -68q-10 0 -10 10t10 10t10 -10t-10 -10zM321 -101q-10 0 -10 10t10 10t10 -10t-10 -10zM321 -134q-10 0 -10 10t10 10t10 -10t-10 -10zM296 -154q-10 0 -10 10t10 10t10 -10t-10 -10zM116 219q-10 0 -10 10t10 10t10 -10t-10 -10zM116 178q-10 0 -10 10t10 10
t10 -10t-10 -10zM116 137q-10 0 -10 10t10 10t10 -10t-10 -10zM116 96q-10 0 -10 10t10 10t10 -10t-10 -10zM116 537q-10 0 -10 10t10 10t10 -10t-10 -10zM116 498q-10 0 -10 10t10 10t10 -10t-10 -10zM116 455q-10 0 -10 10t10 10t10 -10t-10 -10zM116 375q-10 0 -10 10
t10 10t10 -10t-10 -10zM116 338q-10 0 -10 10t10 10t10 -10t-10 -10zM116 298q-10 0 -10 10t10 10t10 -10t-10 -10zM116 258q-10 0 -10 10t10 10t10 -10t-10 -10zM116 688q-10 0 -10 10t10 10t10 -10t-10 -10zM116 651q-10 0 -10 10t10 10t10 -10t-10 -10zM116 613
q-10 0 -10 10t10 10t10 -10t-10 -10zM116 577q-10 0 -10 10t10 10t10 -10t-10 -10zM116 415q-10 0 -10 10t10 10t10 -10t-10 -10zM116 56q-10 0 -10 10t10 10t10 -10t-10 -10zM116 16q-10 0 -10 10t10 10t10 -10t-10 -10zM515 624q-10 0 -10 10t10 10t10 -10t-10 -10z
M569 679q-10 0 -10 10t10 10t10 -10t-10 -10zM541 652q-10 0 -10 10t10 10t10 -10t-10 -10zM435 542q-10 0 -10 10t10 10t10 -10t-10 -10zM489 597q-10 0 -10 10t10 10t10 -10t-10 -10zM461 570q-10 0 -10 10t10 10t10 -10t-10 -10zM381 487q-10 0 -10 10t10 10t10 -10
t-10 -10zM407 515q-10 0 -10 10t10 10t10 -10t-10 -10zM301 405q-10 0 -10 10t10 10t10 -10t-10 -10zM355 460q-10 0 -10 10t10 10t10 -10t-10 -10zM327 433q-10 0 -10 10t10 10t10 -10t-10 -10zM275 377q-10 0 -10 10t10 10t10 -10t-10 -10zM221 322q-10 0 -10 10t10 10
t10 -10t-10 -10zM247 350q-10 0 -10 10t10 10t10 -10t-10 -10zM141 240q-10 0 -10 10t10 10t10 -10t-10 -10zM167 268q-10 0 -10 10t10 10t10 -10t-10 -10zM194 296q-10 0 -10 10t10 10t10 -10t-10 -10zM329 339q-10 0 -10 10t10 10t10 -10t-10 -10zM353 310q-10 0 -10 10
t10 10t10 -10t-10 -10zM425 218q-10 0 -10 10t10 10t10 -10t-10 -10zM449 188q-10 0 -10 10t10 10t10 -10t-10 -10zM376 280q-10 0 -10 10t10 10t10 -10t-10 -10zM401 248q-10 0 -10 10t10 10t10 -10t-10 -10zM472 157q-10 0 -10 10t10 10t10 -10t-10 -10zM497 126
q-10 0 -10 10t10 10t10 -10t-10 -10zM307 368q-10 0 -10 10t10 10t10 -10t-10 -10zM521 96q-10 0 -10 10t10 10t10 -10t-10 -10zM545 66q-10 0 -10 10t10 10t10 -10t-10 -10zM568 35q-10 0 -10 10t10 10t10 -10t-10 -10zM593 4q-10 0 -10 10t10 10t10 -10t-10 -10z" />
    <glyph glyph-name="L" unicode="L" horiz-adv-x="591" 
d="M113 706q-10 0 -10 10t10 10t10 -10t-10 -10zM113 672q-10 0 -10 10t10 10t10 -10t-10 -10zM113 637q-10 0 -10 10t10 10t10 -10t-10 -10zM113 602q-10 0 -10 10t10 10t10 -10t-10 -10zM113 567q-10 0 -10 10t10 10t10 -10t-10 -10zM113 532q-10 0 -10 10t10 10t10 -10
t-10 -10zM113 497q-10 0 -10 10t10 10t10 -10t-10 -10zM113 462q-10 0 -10 10t10 10t10 -10t-10 -10zM113 426q-10 0 -10 10t10 10t10 -10t-10 -10zM113 391q-10 0 -10 10t10 10t10 -10t-10 -10zM113 356q-10 0 -10 10t10 10t10 -10t-10 -10zM113 321q-10 0 -10 10t10 10
t10 -10t-10 -10zM113 286q-10 0 -10 10t10 10t10 -10t-10 -10zM113 251q-10 0 -10 10t10 10t10 -10t-10 -10zM113 216q-10 0 -10 10t10 10t10 -10t-10 -10zM113 181q-10 0 -10 10t10 10t10 -10t-10 -10zM113 144q-10 0 -10 10t10 10t10 -10t-10 -10zM113 109q-10 0 -10 10
t10 10t10 -10t-10 -10zM113 74q-10 0 -10 10t10 10t10 -10t-10 -10zM113 39q-10 0 -10 10t10 10t10 -10t-10 -10zM113 4q-10 0 -10 10t10 10t10 -10t-10 -10zM148 4q-10 0 -10 10t10 10t10 -10t-10 -10zM183 4q-10 0 -10 10t10 10t10 -10t-10 -10zM218 4q-10 0 -10 10t10 10
t10 -10t-10 -10zM253 4q-10 0 -10 10t10 10t10 -10t-10 -10zM288 4q-10 0 -10 10t10 10t10 -10t-10 -10zM323 4q-10 0 -10 10t10 10t10 -10t-10 -10zM358 4q-10 0 -10 10t10 10t10 -10t-10 -10zM393 4q-10 0 -10 10t10 10t10 -10t-10 -10zM428 4q-10 0 -10 10t10 10t10 -10
t-10 -10zM463 4q-10 0 -10 10t10 10t10 -10t-10 -10zM498 4q-10 0 -10 10t10 10t10 -10t-10 -10zM533 4q-10 0 -10 10t10 10t10 -10t-10 -10zM568 4q-10 0 -10 10t10 10t10 -10t-10 -10z" />
    <glyph glyph-name="L.sc" horiz-adv-x="505" 
d="M105 -2q-10 0 -10 10t10 10t10 -10t-10 -10zM105 35q-10 0 -10 10t10 10t10 -10t-10 -10zM105 72q-10 0 -10 10t10 10t10 -10t-10 -10zM105 109q-10 0 -10 10t10 10t10 -10t-10 -10zM105 146q-10 0 -10 10t10 10t10 -10t-10 -10zM105 183q-10 0 -10 10t10 10t10 -10
t-10 -10zM105 220q-10 0 -10 10t10 10t10 -10t-10 -10zM105 257q-10 0 -10 10t10 10t10 -10t-10 -10zM105 294q-10 0 -10 10t10 10t10 -10t-10 -10zM105 331q-10 0 -10 10t10 10t10 -10t-10 -10zM105 368q-10 0 -10 10t10 10t10 -10t-10 -10zM105 405q-10 0 -10 10t10 10
t10 -10t-10 -10zM105 442q-10 0 -10 10t10 10t10 -10t-10 -10zM105 479q-10 0 -10 10t10 10t10 -10t-10 -10zM105 516q-10 0 -10 10t10 10t10 -10t-10 -10zM144 18q10 0 10 -10t-10 -10t-10 10t10 10zM183 18q10 0 10 -10t-10 -10t-10 10t10 10zM222 18q10 0 10 -10t-10 -10
t-10 10t10 10zM261 18q10 0 10 -10t-10 -10t-10 10t10 10zM300 18q10 0 10 -10t-10 -10t-10 10t10 10zM339 18q10 0 10 -10t-10 -10t-10 10t10 10zM378 18q10 0 10 -10t-10 -10t-10 10t10 10zM417 18q10 0 10 -10t-10 -10t-10 10t10 10zM456 18q10 0 10 -10t-10 -10t-10 10
t10 10z" />
    <glyph glyph-name="Lacute" unicode="&#x139;" horiz-adv-x="591" 
d="M319 826q-10 0 -10 10t10 10t10 -10t-10 -10zM340 850q-10 0 -10 10t10 10t10 -10t-10 -10zM361 875q-10 0 -10 10t10 10t10 -10t-10 -10zM382 900q-10 0 -10 10t10 10t10 -10t-10 -10zM113 706q-10 0 -10 10t10 10t10 -10t-10 -10zM113 672q-10 0 -10 10t10 10t10 -10
t-10 -10zM113 637q-10 0 -10 10t10 10t10 -10t-10 -10zM113 602q-10 0 -10 10t10 10t10 -10t-10 -10zM113 567q-10 0 -10 10t10 10t10 -10t-10 -10zM113 532q-10 0 -10 10t10 10t10 -10t-10 -10zM113 497q-10 0 -10 10t10 10t10 -10t-10 -10zM113 462q-10 0 -10 10t10 10
t10 -10t-10 -10zM113 426q-10 0 -10 10t10 10t10 -10t-10 -10zM113 391q-10 0 -10 10t10 10t10 -10t-10 -10zM113 356q-10 0 -10 10t10 10t10 -10t-10 -10zM113 321q-10 0 -10 10t10 10t10 -10t-10 -10zM113 286q-10 0 -10 10t10 10t10 -10t-10 -10zM113 251q-10 0 -10 10
t10 10t10 -10t-10 -10zM113 216q-10 0 -10 10t10 10t10 -10t-10 -10zM113 181q-10 0 -10 10t10 10t10 -10t-10 -10zM113 144q-10 0 -10 10t10 10t10 -10t-10 -10zM113 109q-10 0 -10 10t10 10t10 -10t-10 -10zM113 74q-10 0 -10 10t10 10t10 -10t-10 -10zM113 39
q-10 0 -10 10t10 10t10 -10t-10 -10zM113 4q-10 0 -10 10t10 10t10 -10t-10 -10zM148 4q-10 0 -10 10t10 10t10 -10t-10 -10zM183 4q-10 0 -10 10t10 10t10 -10t-10 -10zM218 4q-10 0 -10 10t10 10t10 -10t-10 -10zM253 4q-10 0 -10 10t10 10t10 -10t-10 -10zM288 4
q-10 0 -10 10t10 10t10 -10t-10 -10zM323 4q-10 0 -10 10t10 10t10 -10t-10 -10zM358 4q-10 0 -10 10t10 10t10 -10t-10 -10zM393 4q-10 0 -10 10t10 10t10 -10t-10 -10zM428 4q-10 0 -10 10t10 10t10 -10t-10 -10zM463 4q-10 0 -10 10t10 10t10 -10t-10 -10zM498 4
q-10 0 -10 10t10 10t10 -10t-10 -10zM533 4q-10 0 -10 10t10 10t10 -10t-10 -10zM568 4q-10 0 -10 10t10 10t10 -10t-10 -10z" />
    <glyph glyph-name="Lcaron" unicode="&#x13d;" horiz-adv-x="591" 
d="M356 638q-10 0 -10 10t10 10t10 -10t-10 -10zM377 662q-10 0 -10 10t10 10t10 -10t-10 -10zM398 687q-10 0 -10 10t10 10t10 -10t-10 -10zM419 712q-10 0 -10 10t10 10t10 -10t-10 -10zM113 706q-10 0 -10 10t10 10t10 -10t-10 -10zM113 672q-10 0 -10 10t10 10t10 -10
t-10 -10zM113 637q-10 0 -10 10t10 10t10 -10t-10 -10zM113 602q-10 0 -10 10t10 10t10 -10t-10 -10zM113 567q-10 0 -10 10t10 10t10 -10t-10 -10zM113 532q-10 0 -10 10t10 10t10 -10t-10 -10zM113 497q-10 0 -10 10t10 10t10 -10t-10 -10zM113 462q-10 0 -10 10t10 10
t10 -10t-10 -10zM113 426q-10 0 -10 10t10 10t10 -10t-10 -10zM113 391q-10 0 -10 10t10 10t10 -10t-10 -10zM113 356q-10 0 -10 10t10 10t10 -10t-10 -10zM113 321q-10 0 -10 10t10 10t10 -10t-10 -10zM113 286q-10 0 -10 10t10 10t10 -10t-10 -10zM113 251q-10 0 -10 10
t10 10t10 -10t-10 -10zM113 216q-10 0 -10 10t10 10t10 -10t-10 -10zM113 181q-10 0 -10 10t10 10t10 -10t-10 -10zM113 144q-10 0 -10 10t10 10t10 -10t-10 -10zM113 109q-10 0 -10 10t10 10t10 -10t-10 -10zM113 74q-10 0 -10 10t10 10t10 -10t-10 -10zM113 39
q-10 0 -10 10t10 10t10 -10t-10 -10zM113 4q-10 0 -10 10t10 10t10 -10t-10 -10zM148 4q-10 0 -10 10t10 10t10 -10t-10 -10zM183 4q-10 0 -10 10t10 10t10 -10t-10 -10zM218 4q-10 0 -10 10t10 10t10 -10t-10 -10zM253 4q-10 0 -10 10t10 10t10 -10t-10 -10zM288 4
q-10 0 -10 10t10 10t10 -10t-10 -10zM323 4q-10 0 -10 10t10 10t10 -10t-10 -10zM358 4q-10 0 -10 10t10 10t10 -10t-10 -10zM393 4q-10 0 -10 10t10 10t10 -10t-10 -10zM428 4q-10 0 -10 10t10 10t10 -10t-10 -10zM463 4q-10 0 -10 10t10 10t10 -10t-10 -10zM498 4
q-10 0 -10 10t10 10t10 -10t-10 -10zM533 4q-10 0 -10 10t10 10t10 -10t-10 -10zM568 4q-10 0 -10 10t10 10t10 -10t-10 -10z" />
    <glyph glyph-name="caron.alt" horiz-adv-x="205" 
d="M65 638q-10 0 -10 10t10 10t10 -10t-10 -10zM86 662q-10 0 -10 10t10 10t10 -10t-10 -10zM107 687q-10 0 -10 10t10 10t10 -10t-10 -10zM128 712q-10 0 -10 10t10 10t10 -10t-10 -10z" />
    <glyph glyph-name="Lcommaaccent" unicode="&#x13b;" horiz-adv-x="591" 
d="M334 -68q-10 0 -10 10t10 10t10 -10t-10 -10zM334 -101q-10 0 -10 10t10 10t10 -10t-10 -10zM334 -134q-10 0 -10 10t10 10t10 -10t-10 -10zM309 -154q-10 0 -10 10t10 10t10 -10t-10 -10zM113 706q-10 0 -10 10t10 10t10 -10t-10 -10zM113 672q-10 0 -10 10t10 10
t10 -10t-10 -10zM113 637q-10 0 -10 10t10 10t10 -10t-10 -10zM113 602q-10 0 -10 10t10 10t10 -10t-10 -10zM113 567q-10 0 -10 10t10 10t10 -10t-10 -10zM113 532q-10 0 -10 10t10 10t10 -10t-10 -10zM113 497q-10 0 -10 10t10 10t10 -10t-10 -10zM113 462q-10 0 -10 10
t10 10t10 -10t-10 -10zM113 426q-10 0 -10 10t10 10t10 -10t-10 -10zM113 391q-10 0 -10 10t10 10t10 -10t-10 -10zM113 356q-10 0 -10 10t10 10t10 -10t-10 -10zM113 321q-10 0 -10 10t10 10t10 -10t-10 -10zM113 286q-10 0 -10 10t10 10t10 -10t-10 -10zM113 251
q-10 0 -10 10t10 10t10 -10t-10 -10zM113 216q-10 0 -10 10t10 10t10 -10t-10 -10zM113 181q-10 0 -10 10t10 10t10 -10t-10 -10zM113 144q-10 0 -10 10t10 10t10 -10t-10 -10zM113 109q-10 0 -10 10t10 10t10 -10t-10 -10zM113 74q-10 0 -10 10t10 10t10 -10t-10 -10z
M113 39q-10 0 -10 10t10 10t10 -10t-10 -10zM113 4q-10 0 -10 10t10 10t10 -10t-10 -10zM148 4q-10 0 -10 10t10 10t10 -10t-10 -10zM183 4q-10 0 -10 10t10 10t10 -10t-10 -10zM218 4q-10 0 -10 10t10 10t10 -10t-10 -10zM253 4q-10 0 -10 10t10 10t10 -10t-10 -10zM288 4
q-10 0 -10 10t10 10t10 -10t-10 -10zM323 4q-10 0 -10 10t10 10t10 -10t-10 -10zM358 4q-10 0 -10 10t10 10t10 -10t-10 -10zM393 4q-10 0 -10 10t10 10t10 -10t-10 -10zM428 4q-10 0 -10 10t10 10t10 -10t-10 -10zM463 4q-10 0 -10 10t10 10t10 -10t-10 -10zM498 4
q-10 0 -10 10t10 10t10 -10t-10 -10zM533 4q-10 0 -10 10t10 10t10 -10t-10 -10zM568 4q-10 0 -10 10t10 10t10 -10t-10 -10z" />
    <glyph glyph-name="Ldot" unicode="&#x13f;" horiz-adv-x="591" 
d="M113 706q-10 0 -10 10t10 10t10 -10t-10 -10zM113 672q-10 0 -10 10t10 10t10 -10t-10 -10zM113 637q-10 0 -10 10t10 10t10 -10t-10 -10zM113 602q-10 0 -10 10t10 10t10 -10t-10 -10zM113 567q-10 0 -10 10t10 10t10 -10t-10 -10zM113 532q-10 0 -10 10t10 10t10 -10
t-10 -10zM113 497q-10 0 -10 10t10 10t10 -10t-10 -10zM113 462q-10 0 -10 10t10 10t10 -10t-10 -10zM113 426q-10 0 -10 10t10 10t10 -10t-10 -10zM113 391q-10 0 -10 10t10 10t10 -10t-10 -10zM113 356q-10 0 -10 10t10 10t10 -10t-10 -10zM113 321q-10 0 -10 10t10 10
t10 -10t-10 -10zM113 286q-10 0 -10 10t10 10t10 -10t-10 -10zM113 251q-10 0 -10 10t10 10t10 -10t-10 -10zM113 216q-10 0 -10 10t10 10t10 -10t-10 -10zM113 181q-10 0 -10 10t10 10t10 -10t-10 -10zM113 144q-10 0 -10 10t10 10t10 -10t-10 -10zM113 109q-10 0 -10 10
t10 10t10 -10t-10 -10zM113 74q-10 0 -10 10t10 10t10 -10t-10 -10zM113 39q-10 0 -10 10t10 10t10 -10t-10 -10zM113 4q-10 0 -10 10t10 10t10 -10t-10 -10zM148 4q-10 0 -10 10t10 10t10 -10t-10 -10zM183 4q-10 0 -10 10t10 10t10 -10t-10 -10zM218 4q-10 0 -10 10t10 10
t10 -10t-10 -10zM253 4q-10 0 -10 10t10 10t10 -10t-10 -10zM288 4q-10 0 -10 10t10 10t10 -10t-10 -10zM323 4q-10 0 -10 10t10 10t10 -10t-10 -10zM358 4q-10 0 -10 10t10 10t10 -10t-10 -10zM393 4q-10 0 -10 10t10 10t10 -10t-10 -10zM428 4q-10 0 -10 10t10 10t10 -10
t-10 -10zM463 4q-10 0 -10 10t10 10t10 -10t-10 -10zM498 4q-10 0 -10 10t10 10t10 -10t-10 -10zM533 4q-10 0 -10 10t10 10t10 -10t-10 -10zM568 4q-10 0 -10 10t10 10t10 -10t-10 -10zM382 360q-10 0 -10 10t10 10t10 -10t-10 -10zM382 393q-10 0 -10 10t10 10t10 -10
t-10 -10zM382 426q-10 0 -10 10t10 10t10 -10t-10 -10z" />
    <glyph glyph-name="periodcentered" unicode="&#xb7;" horiz-adv-x="171" 
d="M85 252q-10 0 -10 10t10 10t10 -10t-10 -10zM85 285q-10 0 -10 10t10 10t10 -10t-10 -10zM85 318q-10 0 -10 10t10 10t10 -10t-10 -10z" />
    <glyph glyph-name="Lslash" unicode="&#x141;" horiz-adv-x="597" 
d="M150 349q-10 0 -10 10t10 10t10 -10t-10 -10zM180 377q-10 0 -10 10t10 10t10 -10t-10 -10zM210 405q-10 0 -10 10t10 10t10 -10t-10 -10zM240 434q-10 0 -10 10t10 10t10 -10t-10 -10zM270 463q-10 0 -10 10t10 10t10 -10t-10 -10zM300 491q-10 0 -10 10t10 10t10 -10
t-10 -10zM30 235q-10 0 -10 10t10 10t10 -10t-10 -10zM60 263q-10 0 -10 10t10 10t10 -10t-10 -10zM90 292q-10 0 -10 10t10 10t10 -10t-10 -10zM119 706q-10 0 -10 10t10 10t10 -10t-10 -10zM119 672q-10 0 -10 10t10 10t10 -10t-10 -10zM119 637q-10 0 -10 10t10 10
t10 -10t-10 -10zM119 602q-10 0 -10 10t10 10t10 -10t-10 -10zM119 567q-10 0 -10 10t10 10t10 -10t-10 -10zM119 532q-10 0 -10 10t10 10t10 -10t-10 -10zM119 497q-10 0 -10 10t10 10t10 -10t-10 -10zM119 462q-10 0 -10 10t10 10t10 -10t-10 -10zM119 426q-10 0 -10 10
t10 10t10 -10t-10 -10zM119 391q-10 0 -10 10t10 10t10 -10t-10 -10zM119 356q-10 0 -10 10t10 10t10 -10t-10 -10zM119 321q-10 0 -10 10t10 10t10 -10t-10 -10zM119 286q-10 0 -10 10t10 10t10 -10t-10 -10zM119 251q-10 0 -10 10t10 10t10 -10t-10 -10zM119 216
q-10 0 -10 10t10 10t10 -10t-10 -10zM119 181q-10 0 -10 10t10 10t10 -10t-10 -10zM119 144q-10 0 -10 10t10 10t10 -10t-10 -10zM119 109q-10 0 -10 10t10 10t10 -10t-10 -10zM119 74q-10 0 -10 10t10 10t10 -10t-10 -10zM119 39q-10 0 -10 10t10 10t10 -10t-10 -10zM119 4
q-10 0 -10 10t10 10t10 -10t-10 -10zM154 4q-10 0 -10 10t10 10t10 -10t-10 -10zM189 4q-10 0 -10 10t10 10t10 -10t-10 -10zM224 4q-10 0 -10 10t10 10t10 -10t-10 -10zM259 4q-10 0 -10 10t10 10t10 -10t-10 -10zM294 4q-10 0 -10 10t10 10t10 -10t-10 -10zM329 4
q-10 0 -10 10t10 10t10 -10t-10 -10zM364 4q-10 0 -10 10t10 10t10 -10t-10 -10zM399 4q-10 0 -10 10t10 10t10 -10t-10 -10zM434 4q-10 0 -10 10t10 10t10 -10t-10 -10zM469 4q-10 0 -10 10t10 10t10 -10t-10 -10zM504 4q-10 0 -10 10t10 10t10 -10t-10 -10zM539 4
q-10 0 -10 10t10 10t10 -10t-10 -10zM574 4q-10 0 -10 10t10 10t10 -10t-10 -10z" />
    <glyph glyph-name="M" unicode="M" horiz-adv-x="885" 
d="M109 213q-10 0 -10 10t10 10t10 -10t-10 -10zM109 172q-10 0 -10 10t10 10t10 -10t-10 -10zM109 131q-10 0 -10 10t10 10t10 -10t-10 -10zM109 90q-10 0 -10 10t10 10t10 -10t-10 -10zM109 531q-10 0 -10 10t10 10t10 -10t-10 -10zM109 492q-10 0 -10 10t10 10t10 -10
t-10 -10zM109 449q-10 0 -10 10t10 10t10 -10t-10 -10zM109 369q-10 0 -10 10t10 10t10 -10t-10 -10zM109 332q-10 0 -10 10t10 10t10 -10t-10 -10zM109 292q-10 0 -10 10t10 10t10 -10t-10 -10zM109 252q-10 0 -10 10t10 10t10 -10t-10 -10zM109 685q-10 0 -10 10t10 10
t10 -10t-10 -10zM109 645q-10 0 -10 10t10 10t10 -10t-10 -10zM109 607q-10 0 -10 10t10 10t10 -10t-10 -10zM109 571q-10 0 -10 10t10 10t10 -10t-10 -10zM109 409q-10 0 -10 10t10 10t10 -10t-10 -10zM109 50q-10 0 -10 10t10 10t10 -10t-10 -10zM109 10q-10 0 -10 10
t10 10t10 -10t-10 -10zM156 621q-10 0 -10 10t10 10t10 -10t-10 -10zM176 588q-10 0 -10 10t10 10t10 -10t-10 -10zM197 554q-10 0 -10 10t10 10t10 -10t-10 -10zM135 655q-10 0 -10 10t10 10t10 -10t-10 -10zM238 486q-10 0 -10 10t10 10t10 -10t-10 -10zM258 453
q-10 0 -10 10t10 10t10 -10t-10 -10zM279 419q-10 0 -10 10t10 10t10 -10t-10 -10zM299 385q-10 0 -10 10t10 10t10 -10t-10 -10zM217 520q-10 0 -10 10t10 10t10 -10t-10 -10zM320 351q-10 0 -10 10t10 10t10 -10t-10 -10zM340 318q-10 0 -10 10t10 10t10 -10t-10 -10z
M361 284q-10 0 -10 10t10 10t10 -10t-10 -10zM299 385q-10 0 -10 10t10 10t10 -10t-10 -10zM402 216q-10 0 -10 10t10 10t10 -10t-10 -10zM422 183q-10 0 -10 10t10 10t10 -10t-10 -10zM443 149q-10 0 -10 10t10 10t10 -10t-10 -10zM381 250q-10 0 -10 10t10 10t10 -10
t-10 -10zM777 213q-10 0 -10 10t10 10t10 -10t-10 -10zM777 172q-10 0 -10 10t10 10t10 -10t-10 -10zM777 131q-10 0 -10 10t10 10t10 -10t-10 -10zM777 90q-10 0 -10 10t10 10t10 -10t-10 -10zM777 531q-10 0 -10 10t10 10t10 -10t-10 -10zM777 492q-10 0 -10 10t10 10
t10 -10t-10 -10zM777 449q-10 0 -10 10t10 10t10 -10t-10 -10zM777 369q-10 0 -10 10t10 10t10 -10t-10 -10zM777 332q-10 0 -10 10t10 10t10 -10t-10 -10zM777 292q-10 0 -10 10t10 10t10 -10t-10 -10zM777 252q-10 0 -10 10t10 10t10 -10t-10 -10zM777 685q-10 0 -10 10
t10 10t10 -10t-10 -10zM777 645q-10 0 -10 10t10 10t10 -10t-10 -10zM777 607q-10 0 -10 10t10 10t10 -10t-10 -10zM777 571q-10 0 -10 10t10 10t10 -10t-10 -10zM777 409q-10 0 -10 10t10 10t10 -10t-10 -10zM777 50q-10 0 -10 10t10 10t10 -10t-10 -10zM777 10
q-10 0 -10 10t10 10t10 -10t-10 -10zM730 621q-10 0 -10 10t10 10t10 -10t-10 -10zM710 588q-10 0 -10 10t10 10t10 -10t-10 -10zM689 554q-10 0 -10 10t10 10t10 -10t-10 -10zM751 655q-10 0 -10 10t10 10t10 -10t-10 -10zM648 486q-10 0 -10 10t10 10t10 -10t-10 -10z
M628 453q-10 0 -10 10t10 10t10 -10t-10 -10zM607 419q-10 0 -10 10t10 10t10 -10t-10 -10zM587 385q-10 0 -10 10t10 10t10 -10t-10 -10zM669 520q-10 0 -10 10t10 10t10 -10t-10 -10zM566 351q-10 0 -10 10t10 10t10 -10t-10 -10zM546 318q-10 0 -10 10t10 10t10 -10
t-10 -10zM525 284q-10 0 -10 10t10 10t10 -10t-10 -10zM587 385q-10 0 -10 10t10 10t10 -10t-10 -10zM484 216q-10 0 -10 10t10 10t10 -10t-10 -10zM464 183q-10 0 -10 10t10 10t10 -10t-10 -10zM505 250q-10 0 -10 10t10 10t10 -10t-10 -10z" />
    <glyph glyph-name="M.sc" horiz-adv-x="749" 
d="M104 -2q-10 0 -10 10t10 10t10 -10t-10 -10zM104 35q-10 0 -10 10t10 10t10 -10t-10 -10zM104 72q-10 0 -10 10t10 10t10 -10t-10 -10zM104 109q-10 0 -10 10t10 10t10 -10t-10 -10zM104 146q-10 0 -10 10t10 10t10 -10t-10 -10zM104 183q-10 0 -10 10t10 10t10 -10
t-10 -10zM104 220q-10 0 -10 10t10 10t10 -10t-10 -10zM104 257q-10 0 -10 10t10 10t10 -10t-10 -10zM104 294q-10 0 -10 10t10 10t10 -10t-10 -10zM104 331q-10 0 -10 10t10 10t10 -10t-10 -10zM104 368q-10 0 -10 10t10 10t10 -10t-10 -10zM104 405q-10 0 -10 10t10 10
t10 -10t-10 -10zM104 442q-10 0 -10 10t10 10t10 -10t-10 -10zM104 479q-10 0 -10 10t10 10t10 -10t-10 -10zM104 516q-10 0 -10 10t10 10t10 -10t-10 -10zM643 -2q-10 0 -10 10t10 10t10 -10t-10 -10zM643 35q-10 0 -10 10t10 10t10 -10t-10 -10zM643 72q-10 0 -10 10
t10 10t10 -10t-10 -10zM643 109q-10 0 -10 10t10 10t10 -10t-10 -10zM643 146q-10 0 -10 10t10 10t10 -10t-10 -10zM643 183q-10 0 -10 10t10 10t10 -10t-10 -10zM643 220q-10 0 -10 10t10 10t10 -10t-10 -10zM643 257q-10 0 -10 10t10 10t10 -10t-10 -10zM643 294
q-10 0 -10 10t10 10t10 -10t-10 -10zM643 331q-10 0 -10 10t10 10t10 -10t-10 -10zM643 368q-10 0 -10 10t10 10t10 -10t-10 -10zM643 405q-10 0 -10 10t10 10t10 -10t-10 -10zM643 442q-10 0 -10 10t10 10t10 -10t-10 -10zM643 479q-10 0 -10 10t10 10t10 -10t-10 -10z
M643 516q-10 0 -10 10t10 10t10 -10t-10 -10zM374 109q-10 0 -10 10t10 10t10 -10t-10 -10zM396 139q-10 0 -10 10t10 10t10 -10t-10 -10zM415 169q-10 0 -10 10t10 10t10 -10t-10 -10zM434 199q-10 0 -10 10t10 10t10 -10t-10 -10zM453 229q-10 0 -10 10t10 10t10 -10
t-10 -10zM472 259q-10 0 -10 10t10 10t10 -10t-10 -10zM491 289q-10 0 -10 10t10 10t10 -10t-10 -10zM510 319q-10 0 -10 10t10 10t10 -10t-10 -10zM529 349q-10 0 -10 10t10 10t10 -10t-10 -10zM548 379q-10 0 -10 10t10 10t10 -10t-10 -10zM567 409q-10 0 -10 10t10 10
t10 -10t-10 -10zM586 439q-10 0 -10 10t10 10t10 -10t-10 -10zM605 469q-10 0 -10 10t10 10t10 -10t-10 -10zM352 139q-10 0 -10 10t10 10t10 -10t-10 -10zM333 169q-10 0 -10 10t10 10t10 -10t-10 -10zM314 199q-10 0 -10 10t10 10t10 -10t-10 -10zM295 229q-10 0 -10 10
t10 10t10 -10t-10 -10zM276 259q-10 0 -10 10t10 10t10 -10t-10 -10zM257 289q-10 0 -10 10t10 10t10 -10t-10 -10zM238 319q-10 0 -10 10t10 10t10 -10t-10 -10zM219 349q-10 0 -10 10t10 10t10 -10t-10 -10zM200 379q-10 0 -10 10t10 10t10 -10t-10 -10zM181 409
q-10 0 -10 10t10 10t10 -10t-10 -10zM162 439q-10 0 -10 10t10 10t10 -10t-10 -10zM143 469q-10 0 -10 10t10 10t10 -10t-10 -10zM125 497q-10 0 -10 10t10 10t10 -10t-10 -10zM622 498q-10 0 -10 10t10 10t10 -10t-10 -10z" />
    <glyph glyph-name="N" unicode="N" horiz-adv-x="778" 
d="M110 208q-10 0 -10 10t10 10t10 -10t-10 -10zM110 167q-10 0 -10 10t10 10t10 -10t-10 -10zM110 126q-10 0 -10 10t10 10t10 -10t-10 -10zM110 85q-10 0 -10 10t10 10t10 -10t-10 -10zM110 526q-10 0 -10 10t10 10t10 -10t-10 -10zM110 487q-10 0 -10 10t10 10t10 -10
t-10 -10zM110 444q-10 0 -10 10t10 10t10 -10t-10 -10zM110 364q-10 0 -10 10t10 10t10 -10t-10 -10zM110 327q-10 0 -10 10t10 10t10 -10t-10 -10zM110 287q-10 0 -10 10t10 10t10 -10t-10 -10zM110 247q-10 0 -10 10t10 10t10 -10t-10 -10zM110 680q-10 0 -10 10t10 10
t10 -10t-10 -10zM110 640q-10 0 -10 10t10 10t10 -10t-10 -10zM110 602q-10 0 -10 10t10 10t10 -10t-10 -10zM110 566q-10 0 -10 10t10 10t10 -10t-10 -10zM110 404q-10 0 -10 10t10 10t10 -10t-10 -10zM110 45q-10 0 -10 10t10 10t10 -10t-10 -10zM110 5q-10 0 -10 10
t10 10t10 -10t-10 -10zM160 631q-10 0 -10 10t10 10t10 -10t-10 -10zM136 661q-10 0 -10 10t10 10t10 -10t-10 -10zM184 601q-10 0 -10 10t10 10t10 -10t-10 -10zM208 571q-10 0 -10 10t10 10t10 -10t-10 -10zM232 541q-10 0 -10 10t10 10t10 -10t-10 -10zM256 511
q-10 0 -10 10t10 10t10 -10t-10 -10zM280 481q-10 0 -10 10t10 10t10 -10t-10 -10zM304 451q-10 0 -10 10t10 10t10 -10t-10 -10zM328 421q-10 0 -10 10t10 10t10 -10t-10 -10zM352 391q-10 0 -10 10t10 10t10 -10t-10 -10zM376 361q-10 0 -10 10t10 10t10 -10t-10 -10z
M400 331q-10 0 -10 10t10 10t10 -10t-10 -10zM424 301q-10 0 -10 10t10 10t10 -10t-10 -10zM448 271q-10 0 -10 10t10 10t10 -10t-10 -10zM472 241q-10 0 -10 10t10 10t10 -10t-10 -10zM496 211q-10 0 -10 10t10 10t10 -10t-10 -10zM520 181q-10 0 -10 10t10 10t10 -10
t-10 -10zM544 151q-10 0 -10 10t10 10t10 -10t-10 -10zM568 121q-10 0 -10 10t10 10t10 -10t-10 -10zM592 91q-10 0 -10 10t10 10t10 -10t-10 -10zM616 61q-10 0 -10 10t10 10t10 -10t-10 -10zM640 31q-10 0 -10 10t10 10t10 -10t-10 -10zM664 208q-10 0 -10 10t10 10
t10 -10t-10 -10zM664 167q-10 0 -10 10t10 10t10 -10t-10 -10zM664 126q-10 0 -10 10t10 10t10 -10t-10 -10zM664 85q-10 0 -10 10t10 10t10 -10t-10 -10zM664 526q-10 0 -10 10t10 10t10 -10t-10 -10zM664 487q-10 0 -10 10t10 10t10 -10t-10 -10zM664 444q-10 0 -10 10
t10 10t10 -10t-10 -10zM664 364q-10 0 -10 10t10 10t10 -10t-10 -10zM664 327q-10 0 -10 10t10 10t10 -10t-10 -10zM664 287q-10 0 -10 10t10 10t10 -10t-10 -10zM664 247q-10 0 -10 10t10 10t10 -10t-10 -10zM664 680q-10 0 -10 10t10 10t10 -10t-10 -10zM664 640
q-10 0 -10 10t10 10t10 -10t-10 -10zM664 602q-10 0 -10 10t10 10t10 -10t-10 -10zM664 566q-10 0 -10 10t10 10t10 -10t-10 -10zM664 404q-10 0 -10 10t10 10t10 -10t-10 -10zM664 45q-10 0 -10 10t10 10t10 -10t-10 -10zM664 5q-10 0 -10 10t10 10t10 -10t-10 -10z" />
    <glyph glyph-name="N.sc" horiz-adv-x="660" 
d="M104 -2q-10 0 -10 10t10 10t10 -10t-10 -10zM104 35q-10 0 -10 10t10 10t10 -10t-10 -10zM104 72q-10 0 -10 10t10 10t10 -10t-10 -10zM104 109q-10 0 -10 10t10 10t10 -10t-10 -10zM104 146q-10 0 -10 10t10 10t10 -10t-10 -10zM104 183q-10 0 -10 10t10 10t10 -10
t-10 -10zM104 220q-10 0 -10 10t10 10t10 -10t-10 -10zM104 257q-10 0 -10 10t10 10t10 -10t-10 -10zM104 294q-10 0 -10 10t10 10t10 -10t-10 -10zM104 331q-10 0 -10 10t10 10t10 -10t-10 -10zM104 368q-10 0 -10 10t10 10t10 -10t-10 -10zM104 405q-10 0 -10 10t10 10
t10 -10t-10 -10zM104 442q-10 0 -10 10t10 10t10 -10t-10 -10zM104 479q-10 0 -10 10t10 10t10 -10t-10 -10zM104 516q-10 0 -10 10t10 10t10 -10t-10 -10zM556 -2q-10 0 -10 10t10 10t10 -10t-10 -10zM556 35q-10 0 -10 10t10 10t10 -10t-10 -10zM556 72q-10 0 -10 10
t10 10t10 -10t-10 -10zM556 109q-10 0 -10 10t10 10t10 -10t-10 -10zM556 146q-10 0 -10 10t10 10t10 -10t-10 -10zM556 183q-10 0 -10 10t10 10t10 -10t-10 -10zM556 220q-10 0 -10 10t10 10t10 -10t-10 -10zM556 257q-10 0 -10 10t10 10t10 -10t-10 -10zM556 294
q-10 0 -10 10t10 10t10 -10t-10 -10zM556 331q-10 0 -10 10t10 10t10 -10t-10 -10zM556 368q-10 0 -10 10t10 10t10 -10t-10 -10zM556 405q-10 0 -10 10t10 10t10 -10t-10 -10zM556 442q-10 0 -10 10t10 10t10 -10t-10 -10zM556 479q-10 0 -10 10t10 10t10 -10t-10 -10z
M556 516q-10 0 -10 10t10 10t10 -10t-10 -10zM134 496q-10 0 -10 10t10 10t10 -10t-10 -10zM156 466q-10 0 -10 10t10 10t10 -10t-10 -10zM180 436q-10 0 -10 10t10 10t10 -10t-10 -10zM205 406q-10 0 -10 10t10 10t10 -10t-10 -10zM231 376q-10 0 -10 10t10 10t10 -10
t-10 -10zM256 346q-10 0 -10 10t10 10t10 -10t-10 -10zM282 316q-10 0 -10 10t10 10t10 -10t-10 -10zM308 281q-10 0 -10 10t10 10t10 -10t-10 -10zM336 248q-10 0 -10 10t10 10t10 -10t-10 -10zM363 216q-10 0 -10 10t10 10t10 -10t-10 -10zM389 184q-10 0 -10 10t10 10
t10 -10t-10 -10zM414 151q-10 0 -10 10t10 10t10 -10t-10 -10zM441 116q-10 0 -10 10t10 10t10 -10t-10 -10zM469 83q-10 0 -10 10t10 10t10 -10t-10 -10zM497 50q-10 0 -10 10t10 10t10 -10t-10 -10zM524 18q-10 0 -10 10t10 10t10 -10t-10 -10z" />
    <glyph glyph-name="A" unicode="A" horiz-adv-x="682" 
d="M312 626q-10 0 -10 10t10 10t10 -10t-10 -10zM298 594q-10 0 -10 10t10 10t10 -10t-10 -10zM341 690q-10 0 -10 10t10 10t10 -10t-10 -10zM256 498q-10 0 -10 10t10 10t10 -10t-10 -10zM242 466q-10 0 -10 10t10 10t10 -10t-10 -10zM284 562q-10 0 -10 10t10 10t10 -10
t-10 -10zM270 530q-10 0 -10 10t10 10t10 -10t-10 -10zM201 370q-10 0 -10 10t10 10t10 -10t-10 -10zM187 338q-10 0 -10 10t10 10t10 -10t-10 -10zM228 434q-10 0 -10 10t10 10t10 -10t-10 -10zM214 402q-10 0 -10 10t10 10t10 -10t-10 -10zM173 306q-10 0 -10 10t10 10
t10 -10t-10 -10zM159 274q-10 0 -10 10t10 10t10 -10t-10 -10zM326 658q-10 0 -10 10t10 10t10 -10t-10 -10zM132 210q-10 0 -10 10t10 10t10 -10t-10 -10zM118 178q-10 0 -10 10t10 10t10 -10t-10 -10zM76 82q-10 0 -10 10t10 10t10 -10t-10 -10zM62 50q-10 0 -10 10t10 10
t10 -10t-10 -10zM104 146q-10 0 -10 10t10 10t10 -10t-10 -10zM90 114q-10 0 -10 10t10 10t10 -10t-10 -10zM48 18q-10 0 -10 10t10 10t10 -10t-10 -10zM34 -14q-10 0 -10 10t10 10t10 -10t-10 -10zM146 242q-10 0 -10 10t10 10t10 -10t-10 -10zM181 250q-10 0 -10 10t10 10
t10 -10t-10 -10zM213 250q-10 0 -10 10t10 10t10 -10t-10 -10zM245 250q-10 0 -10 10t10 10t10 -10t-10 -10zM277 250q-10 0 -10 10t10 10t10 -10t-10 -10zM309 250q-10 0 -10 10t10 10t10 -10t-10 -10zM341 250q-10 0 -10 10t10 10t10 -10t-10 -10zM373 250q-10 0 -10 10
t10 10t10 -10t-10 -10zM405 250q-10 0 -10 10t10 10t10 -10t-10 -10zM437 250q-10 0 -10 10t10 10t10 -10t-10 -10zM469 250q-10 0 -10 10t10 10t10 -10t-10 -10zM501 250q-10 0 -10 10t10 10t10 -10t-10 -10zM371 626q-10 0 -10 10t10 10t10 -10t-10 -10zM385 594
q-10 0 -10 10t10 10t10 -10t-10 -10zM427 498q-10 0 -10 10t10 10t10 -10t-10 -10zM441 466q-10 0 -10 10t10 10t10 -10t-10 -10zM399 562q-10 0 -10 10t10 10t10 -10t-10 -10zM413 530q-10 0 -10 10t10 10t10 -10t-10 -10zM482 370q-10 0 -10 10t10 10t10 -10t-10 -10z
M496 338q-10 0 -10 10t10 10t10 -10t-10 -10zM455 434q-10 0 -10 10t10 10t10 -10t-10 -10zM469 402q-10 0 -10 10t10 10t10 -10t-10 -10zM510 306q-10 0 -10 10t10 10t10 -10t-10 -10zM524 274q-10 0 -10 10t10 10t10 -10t-10 -10zM357 658q-10 0 -10 10t10 10t10 -10
t-10 -10zM551 210q-10 0 -10 10t10 10t10 -10t-10 -10zM565 178q-10 0 -10 10t10 10t10 -10t-10 -10zM607 82q-10 0 -10 10t10 10t10 -10t-10 -10zM621 50q-10 0 -10 10t10 10t10 -10t-10 -10zM579 146q-10 0 -10 10t10 10t10 -10t-10 -10zM593 114q-10 0 -10 10t10 10
t10 -10t-10 -10zM635 18q-10 0 -10 10t10 10t10 -10t-10 -10zM649 -14q-10 0 -10 10t10 10t10 -10t-10 -10zM537 242q-10 0 -10 10t10 10t10 -10t-10 -10z" />
    </font>
</defs>
</svg>
